#VERSION:0.83;
#TITLE:Deep In The Night;
#SUBTITLE:;
#ARTIST:Snails & Pegboard Nerds;
#TITLETRANSLIT:;
#SUBTITLETRANSLIT:;
#ARTISTTRANSLIT:;
#GENRE:Dubstep;
#ORIGIN:;
#CREDIT:;
#BANNER:Deep In The Night.png;
#BACKGROUND:Deep In The Night-bg.png;
#PREVIEWVID:;
#JACKET:Deep In The Night-jacket.png;
#CDIMAGE:;
#DISCIMAGE:;
#LYRICSPATH:;
#CDTITLE:cdtitle.png;
#MUSIC:Deep In The Night.ogg;
#OFFSET:-0.077378;
#SAMPLESTART:38.479374;
#SAMPLELENGTH:12.799999;
#SELECTABLE:YES;
#BPMS:0.000=150.000,
92.000=75.000,
94.000=150.000,
186.000=75.000,
188.000=150.000;
#STOPS:;
#DELAYS:;
#WARPS:219.500=16.000,
236.500=15.500,
252.500=15.500,
268.500=16.000;
#TIMESIGNATURES:0.000=4=4;
#TICKCOUNTS:0.000=4;
#COMBOS:0.000=1;
#SPEEDS:0.000=1.000=0.000=0;
#SCROLLS:0.000=1.000,
235.500=0.000,
236.500=1.000,
252.000=0.000,
252.500=1.000,
268.000=0.000,
268.500=1.000;
#FAKES:;
#LABELS:0.000=Song Start;
#BGCHANGES:;
#KEYSOUNDS:;
#ATTACKS:
;

//---------------dance-single - ----------------
#NOTEDATA:;
#CHARTNAME:;
#STEPSTYPE:dance-single;
#DESCRIPTION:;
#CHARTSTYLE:;
#DIFFICULTY:Challenge;
#METER:13;
#RADARVALUES:0.648187,1.009798,0.213714,0.772658,0.571274,552.000000,526.000000,26.000000,94.000000,107.000000,0.000000,0.000000,0.000000,51.000000,0.648187,1.009798,0.213714,0.772658,0.571274,552.000000,526.000000,26.000000,94.000000,107.000000,0.000000,0.000000,0.000000,51.000000;
#CREDIT:;
#NOTES:
0000
0000
0000
0000
,
0000
0000
0000
0000
,
0000
0000
0000
0000
,
0000
0000
0000
0000
,
1001
0000
0001
0100
0000
0001
0100
0001
,
1000
0000
1000
0100
0000
1000
0100
1000
,
0010
0000
0010
1000
0000
0010
1000
0001
,
0010
0000
0010
0001
0000
0010
0001
0100
,
2001
0000
0000
3200
0000
0000
0320
0000
2030
0000
0000
0000
3020
0000
0000
0000
,
0032
0000
0000
0203
0000
0000
0320
0000
0032
0000
0000
0000
0023
0000
0000
0000
,
2030
0000
0000
3200
0000
0000
0302
0000
0203
0000
0000
0000
2300
0000
0000
0000
,
3002
0203
0000
0320
2030
0000
3001
1000
,
1002
0000
0000
0023
0000
0000
0230
0000
0302
0000
0000
0000
0203
0000
0000
0000
,
2300
0000
0000
3020
0000
0000
0230
0000
2300
0000
0000
0000
3200
0000
0000
0000
,
0302
0000
0000
0023
0000
0000
2030
0000
3002
0000
0000
0000
0203
0000
0000
0000
,
2300
0000
3010
0200
0302
0000
1003
0001
,
1001
0000
0000
1000
0010
0000
1000
0000
0001
0010
0000
0010
0001
0000
0100
0000
,
1001
0000
0000
0001
0010
0000
0001
0000
1000
0010
0000
0010
1000
0000
0100
0000
,
1001
0000
0000
0001
0100
0000
0010
0000
1000
0001
0000
0001
1000
0000
0100
0000
,
1001
0000
0000
1000
0100
0000
0010
0000
0001
1000
0000
1000
0001
0000
0100
0010
,
1000
0000
0010
0000
0100
0000
0010
0000
0001
0000
0010
0000
1000
0000
0100
0010
,
0001
0000
0010
0000
0100
0000
0010
0000
1000
0000
0010
0000
0001
0000
0100
0010
,
1000
0001
1000
0001
1000
0001
1000
0001
1000
0001
1000
0001
1000
0001
1000
0001
,
2M00
00M0
0000
0000
0000
0000
0M00
0000
00M0
0000
3100
0010
0100
0000
0010
0000
2001
0000
0000
0M00
000M
00M0
0000
0000
3001
0000
0000
0000
0100
0000
0000
0000
,
1000
0000
0000
0000
0001
0000
0000
0000
0010
0000
0000
0000
1000
0000
0000
000M
02M0
M000
0000
0000
0301
0000
0000
0000
1000
0000
0000
0000
0010
0000
0000
0000
,
0001
0000
0000
0000
0100
0000
0000
0000
0010
0000
0000
0000
1000
0000
0000
0000
1002
0000
0000
0M00
M000
00M0
0000
0000
1003
0000
0000
0000
0100
0000
0000
0000
,
0001
1000
0010
0001
0100
1000
0100
0001
,
0010
0000
0000
0000
0000
0000
0000
0000
0100
0000
0000
0000
0000
0000
0000
0000
200M
0000
00M0
0000
0M00
0000
0000
0000
0000
0000
0000
0000
0000
0000
0000
3000
1002
0000
0000
0000
0000
0000
0M00
0000
M000
0000
00M0
0000
0000
0000
0000
0000
0103
0000
0000
0000
0000
0000
0000
0000
0010
0000
0000
0000
0000
0000
0000
0000
,
0001
0000
0000
0000
1000
0000
0000
0000
0100
0000
0000
0000
0010
0000
0000
0M00
200M
00M0
0000
0000
3100
0000
0000
0000
0010
0000
0000
0000
1000
0000
0000
0000
,
0001
0000
0000
0000
0100
0000
0000
0000
0010
0000
0000
0000
0001
0000
0000
0000
2001
0000
0000
00M0
000M
0M00
0000
0000
3010
0000
0000
0000
1000
0000
0000
0000
,
0100
0000
0010
0001
0100
0000
1000
0000
0001
0000
0010
1000
0100
0000
0010
0000
,
0011
0000
0000
0000
MMMM
0000
0000
0000
1100
0000
0000
0000
MMMM
0000
0000
0000
2001
0000
0000
00M0
000M
0M00
0000
0000
3010
0000
0000
0000
1000
0000
0100
0000
,
0010
0000
0000
0000
0001
0000
0100
0000
0001
0000
0100
0000
0001
0000
0000
M000
0M20
000M
0000
0000
1030
0000
0000
0000
0001
0000
0100
0000
0001
0000
0000
0000
,
0100
0000
0010
0000
0100
0000
0000
0000
1000
0000
0000
0000
0001
0000
0000
M000
02M0
000M
0000
0000
1300
0000
0000
0000
0001
0000
0000
0000
0010
0000
0000
0000
,
1000
0000
0100
0000
0010
0000
0001
0000
0100
0010
0100
0010
1000
0000
0100
0000
,
M022
0M00
0030
0000
2M00
00M0
3000
0000
02M3
M000
031M
0000
1000
0000
0100
0000
,
0001
0000
0000
0000
1000
0000
0000
0000
0010
0000
0000
0000
0001
0000
0000
0M00
M020
000M
0000
0000
0130
0000
0000
0000
1000
0000
0000
0000
0010
0000
0000
0000
,
0001
0000
0000
0000
1000
0000
0000
0000
0100
0000
0000
0000
0001
0000
0000
00M0
M200
000M
0000
0000
0310
0000
0000
0000
1000
0000
0000
0000
0100
0000
0000
0000
,
0001
0100
1000
0010
0001
1000
0100
0001
,
0010
0000
0001
0000
0010
0000
0010
0000
1MM1
0000
0000
0001
0100
0000
2000
3000
,
0100
0001
0000
0001
0010
0000
0200
0300
1000
0000
0000
0020
1030
0020
0030
0020
,
1030
0001
0000
0001
0010
0000
0200
0300
1000
0000
0000
1000
0100
0000
0002
0003
,
0100
1000
0000
1000
0010
0000
0200
0300
0001
0000
0000
0020
0031
0020
0030
0020
,
0031
1000
0000
0001
1000
0000
0010
1000
0100
0000
0010
0000
0001
0000
0010
0000
,
0100
0000
0010
0000
1000
0000
0010
0001
0100
0000
0010
0000
1000
0000
0010
0000
,
0100
0000
0010
0000
0001
0000
0010
0100
0001
1000
0001
1000
0001
1000
0001
1000
,
0001
0000
1000
0000
0001
0000
1000
0000
0001
0000
1000
0000
0001
0000
1000
0000
0M02
00M0
0000
0000
0000
0000
0M00
0000
00M0
0000
0103
0010
0100
0000
0010
0000
,
2001
0000
0000
0M00
000M
00M0
0000
0000
3001
0000
0000
0000
0010
0000
0000
0000
1000
0000
0000
0000
0001
0000
0000
0000
0100
0000
0000
0000
0010
0000
0000
M000
,
0M02
00M0
0000
0000
1003
0000
0000
0000
0010
0000
0000
0000
0001
0000
0000
0000
1000
0000
0000
0000
0100
0000
0000
0000
0010
0000
0000
0000
1000
0000
0000
0000
,
1002
0000
0000
00M0
M000
0M00
0000
0000
1003
0000
0000
0000
0100
0000
0000
0000
0001
0000
0000
0000
1000
0000
0000
0000
0010
0000
0000
0000
0100
0000
0000
0000
,
1000
0000
0000
0000
0010
0000
0000
0000
0001
0000
0000
0000
1000
0000
0000
0000
0001
0000
0000
0000
0010
0000
0000
0M00
200M
00M0
0000
0000
3100
0000
0000
0000
,
0120
0000
0000
000M
0M00
M000
0000
0000
0031
0000
0000
0000
0100
0000
0000
0000
1000
0000
0000
0000
0100
0000
0000
0000
0001
0000
0000
0000
0010
0000
0000
0000
,
MMMM
0010
1000
0100
0001
0100
1000
0010
,
0120
0000
0000
M000
0M00
000M
0000
0000
1030
0000
0000
0000
0100
0000
0000
0000
0001
0000
0000
0000
0100
0000
0000
0000
1000
0000
0000
0000
0010
0000
0000
0000
,
0001
0000
0000
0000
0000
0000
0000
0000
1000
0000
0000
0000
0000
0000
0000
0000
0100
0000
0000
0000
0000
0000
0000
0000
0001
0000
0000
0000
0000
0000
0000
0000
0010
0000
0000
0000
0000
0000
0000
0000
0100
0000
0000
0000
0000
0000
0000
0000
0100
0000
0000
0000
0000
0000
0000
0000
0100
0000
0000
1001
0000
0000
0000
1000
,
0000
0100
0000
0020
0000
0000
0000
0031
0000
0000
0000
0000
0000
0000
0000
0000
0000
0000
0000
0000
0000
0000
0000
0000
0000
0000
0000
0000
0000
0000
0000
0000
0000
0000
0000
0000
0000
0000
0000
0000
0000
0000
0000
0000
0000
0000
0000
0000
0000
0000
0000
0000
0000
0000
0000
0000
0000
0000
0000
0000
0000
0000
0000
0000
,
0000
0000
0000
0000
,
0000
0000
0000
0000
,
0000
0000
0000
0000
0000
0000
0000
0100
,
0000
0000
0000
0000
0000
0000
0000
0000
0000
0000
0000
0000
0000
0000
0000
0000
1000
0000
0000
0000
0000
0000
0000
0000
1000
0000
0000
0000
1000
0000
0000
0000
2000
0000
0000
0000
0000
0000
0000
3000
1000
0000
0000
0000
0000
0000
0000
0000
1000
0000
0000
0000
0000
0000
0000
0000
1000
0000
0000
0000
0000
0000
0000
0000
,
1000
0000
0000
0000
0000
0000
0000
0000
1000
0000
0000
0000
0000
0000
0000
0000
2000
0000
0000
0000
0000
0000
0000
0000
0000
0000
0000
0000
0000
0000
0000
3000
1000
0000
0000
0000
0000
0000
0000
0000
1000
0000
0000
0000
0000
0000
0000
0000
2000
0000
0000
0000
0000
0000
0000
0000
0000
0000
0000
0000
0000
0000
0000
3000
,
2000
3000
0000
0000
,
0000
0000
0000
0000
,
0000
0000
0000
0000
0000
0000
0000
0000
0000
0000
0000
0000
0000
0000
0000
0000
1100
0000
0000
0000
0000
0000
0000
0000
1000
0000
0000
0000
0100
0000
0000
0000
0200
0000
0000
0000
0000
0000
0000
0300
0100
0000
0000
0000
0000
0000
0000
0000
1000
0000
0000
0000
0000
0000
0000
0000
0100
0000
0000
0000
0000
0000
0000
0000
,
0100
0000
0000
0000
0000
0000
0000
0000
0100
0000
0000
0000
0000
0000
0000
0000
2000
0000
0000
0000
0000
0000
0000
0000
0000
0000
0000
0000
0000
0000
0000
0000
3100
0000
0000
0000
0000
0000
0000
0000
0100
0000
0000
0000
0000
0000
0000
0000
0200
0000
0000
0000
0000
0000
0000
0000
0000
0000
0000
0000
0000
0000
0000
0300
,
0200
0300
0000
0000
,
0000
0000
0000
0000
,
0000
0000
0000
0000
0000
0000
0000
0000
0000
0000
0000
0000
0000
0000
0000
0000
1010
0000
0000
0000
0000
0000
0000
0000
1000
0000
0000
0000
0100
0000
0000
0000
0020
0000
0000
0000
0000
0000
0000
0030
0010
0000
0000
0000
0000
0000
0000
0000
1000
0000
0000
0000
0000
0000
0000
0000
0010
0000
0000
0000
0000
0000
0000
0000
,
0010
0010
2000
0000
3100
0010
0020
0000
,
0230
0300
0000
0000
,
0000
0000
0000
0000
,
0000
0000
0000
0000
1001
0000
1000
0100
0020
0000
0031
0000
1000
0000
0010
0000
,
0001
0000
0000
0000
0010
0000
0000
0000
2000
0000
0000
0000
0000
0000
0000
0000
3100
0000
0000
0000
0010
0000
0000
0000
0012
0000
0000
0M00
00M0
M000
0000
0000
,
0203
0000
0000
0000
1300
0000
0100
0000
0002
0000
0013
0000
0100
1000
0010
0000
,
2000
0000
0000
0000
3100
0000
0000
0000
0001
0000
0000
0000
1000
0000
0000
0000
0010
0000
0000
0000
0001
0000
0000
0000
2001
0000
0000
00M0
000M
0M00
0000
0000
,
3001
0000
0000
0000
0100
0000
0000
0000
1000
0000
0000
0000
0001
0000
0000
0000
0010
0000
0000
0000
0100
0000
0000
00M0
M002
0M00
0000
0000
0013
0000
0000
0000
,
1000
0000
0000
0000
0001
0000
0000
0000
0100
0000
0000
0000
0010
0000
0000
0000
0001
0000
0000
0000
0100
0000
0000
0000
0120
0000
0000
M000
0M00
000M
0000
0000
,
1030
0010
0001
1000
0100
0010
1000
0100
,
0001
0000
0100
0000
1000
0000
0010
0100
0010
0000
1000
0000
1002
0000
M000
0203
,
000M
0000
0320
0M00
0031
0000
0010
0000
1000
0000
0100
0000
0010
0000
0100
0000
,
1000
0010
0001
0010
1000
0100
MM2M
0000
,
0031
0010
1000
0010
0001
0100
0010
0100
,
0001
0000
0010
0000
1000
0000
0010
0000
0001
0000
0100
0000
0M20
0000
0000
2030
,
00M0
0000
3200
M000
0301
0000
0100
0000
1000
0000
0010
0000
0100
0000
0010
0000
,
1000
0100
0001
0100
1000
0010
M2MM
0000
,
0301
0000
0100
0000
1000
0000
0100
0000
0001
0000
0010
0000
0100
0010
0000
0010
,
0001
0000
0000
0100
0000
0000
1000
0000
0000
0200
0300
0000
0002
0000
0003
2000
0000
3000
2200
0000
0000
0000
0000
0000
,
0000
0000
0000
3300
;

//---------------dance-single - ----------------
#NOTEDATA:;
#CHARTNAME:;
#STEPSTYPE:dance-single;
#DESCRIPTION:;
#CHARTSTYLE:;
#DIFFICULTY:Hard;
#METER:10;
#RADARVALUES:0.487315,0.499556,0.279472,0.583603,0.119187,415.000000,381.000000,34.000000,71.000000,68.000000,0.000000,4.000000,0.000000,0.000000,0.487315,0.499556,0.279472,0.583603,0.119187,415.000000,381.000000,34.000000,71.000000,68.000000,0.000000,4.000000,0.000000,0.000000;
#CREDIT:;
#OFFSET:-0.077378;
#BPMS:0.000000=150.000000
,92.000000=75.000000
,94.000000=150.000000
,186.000000=75.000000
,188.000000=150.000000
;
#STOPS:219.500000=0.800003
;
#DELAYS:;
#WARPS:;
#TIMESIGNATURES:0.000000=4=4
;
#TICKCOUNTS:0.000000=4
;
#COMBOS:0.000000=1
;
#SPEEDS:0.000000=1.000000=0.000000=0
;
#SCROLLS:0.000000=1.000000
;
#FAKES:;
#LABELS:0.000000=Song Start
;
#NOTES:
// measure 0
0000
0000
0000
0000
,  // measure 1
0000
0000
0000
0000
,  // measure 2
0000
0000
0000
0000
,  // measure 3
0000
0000
0000
0000
,  // measure 4
1001
0000
1000
0100
0000
1000
0100
0000
,  // measure 5
1000
0000
0001
0100
0000
0001
0100
0000
,  // measure 6
0001
0000
0010
0001
0000
0010
0001
0000
,  // measure 7
1000
0000
0010
1000
0000
0010
1000
0000
,  // measure 8
1002
0000
0000
0023
0000
0000
0230
0000
0320
0000
0000
0000
0032
0000
0000
0000
,  // measure 9
2003
0000
0000
3020
0000
0000
0230
0000
0320
0000
0000
0000
2030
0000
0000
0000
,  // measure 10
3200
0000
0000
0320
0000
0000
0230
0000
2300
0000
0000
0000
3002
0000
0000
0000
,  // measure 11
0103
2000
0000
3100
0002
0000
1003
0000
,  // measure 12
2001
0000
0000
3200
0000
0000
0320
0000
0230
0000
0000
0000
2300
0000
0000
0000
,  // measure 13
3002
0000
0000
0203
0000
0000
0320
0000
0230
0000
0000
0000
0302
0000
0000
0000
,  // measure 14
0023
0000
0000
0230
0000
0000
2300
0000
3002
0000
0000
0000
2003
0000
0000
0000
,  // measure 15
3020
0000
0031
0010
2000
0000
3001
0000
,  // measure 16
1000
0000
0000
1000
0000
0000
0100
0000
0000
0100
0000
0000
1000
0000
1000
0000
,  // measure 17
0001
0000
0000
0001
0000
0000
0100
0000
0000
0100
0000
0000
0001
0000
0001
0000
,  // measure 18
1000
0000
0000
1000
0000
0000
0010
0000
0000
0010
0000
0000
1000
0000
1000
0000
,  // measure 19
0001
0000
0000
0001
0000
0000
0010
0000
0000
0010
0000
0000
0001
0000
1000
0000
,  // measure 20
1001
0000
1100
0000
0110
0000
0010
0001
,  // measure 21
1001
0000
0101
0000
0110
0000
0100
0010
,  // measure 22
4000
0004
0000
0000
0000
0000
0000
0000
0000
0000
0000
0000
0000
0000
0000
0000
,  // measure 23
3M03
00M0
0000
0000
0000
0000
M000
0000
000M
0000
0000
0000
0110
0000
0000
0000
1MM2
0000
0000
0000
0000
0000
0000
0000
0013
0000
0000
0000
0001
0000
0000
0000
,  // measure 24
0010
0001
0100
0001
0MM0
1000
0010
1000
,  // measure 25
0010
1000
0100
1000
0MM2
0000
0013
0001
,  // measure 26
0010
0001
0100
0001
0100
1000
0100
0001
,  // measure 27
0100
0001
M010
0000
2MM1
0000
3100
1000
,  // measure 28
0100
1000
0010
1000
0MM0
0001
0010
0001
,  // measure 29
0010
0001
0100
0001
2MM0
0000
3100
1000
,  // measure 30
0010
0100
0001
0010
0000
0100
1000
0001
,  // measure 31
0101
0000
1010
0000
1MM2
0000
0013
0100
,  // measure 32
0010
0100
1000
0001
M0M0
0100
0010
0100
,  // measure 33
0010
0100
0001
1000
00MM
0100
0010
0100
,  // measure 34
0010
0100
1000
0001
0000
0100
0001
1000
,  // measure 35
02M0
0000
032M
0000
M031
0100
0010
1000
,  // measure 36
0M0M
1000
0010
0100
M0M0
0001
0010
0100
,  // measure 37
M00M
0100
0010
0001
0MM0
1000
0010
0100
,  // measure 38
M00M
0100
0010
1000
0MM0
0001
0010
0100
,  // measure 39
1100
0000
0000
0000
0010
0000
0001
0000
1001
0000
0000
0000
1000
0000
0200
0300
,  // measure 40
0010
0000
0000
0000
0001
0000
0200
0300
0010
0000
0000
2000
3000
0200
0300
0020
,  // measure 41
0030
0000
0001
0000
0100
0000
0020
0030
1000
0000
0000
0000
0010
0000
2000
3000
,  // measure 42
0100
0000
0000
0000
0010
0000
0002
0003
0100
0000
0000
0020
0030
2000
3000
0200
,  // measure 43
0300
0010
0001
1000
1001
0000
0101
0000
,  // measure 44
0110
0000
0010
1000
1001
0000
1100
0000
,  // measure 45
0110
0000
0000
0000
0100
0000
0010
0000
0004
4000
0000
0000
0000
0000
0000
0000
,  // measure 46
0000
0000
0000
0000
0000
0000
0000
0000
0000
0000
0000
0000
0000
0000
0000
0000
3M03
00M0
0000
0000
0000
0000
M000
0000
000M
0000
0000
0000
0110
0000
0000
0000
,  // measure 47
1002
0000
1003
0100
1000
0100
0001
0100
,  // measure 48
M0M0
0100
1000
0100
1000
0100
0001
0100
,  // measure 49
20MM
0000
3001
0100
0001
0100
1000
0100
,  // measure 50
0001
0010
0001
0010
1000
0010
100M
0010
,  // measure 51
MM02
0000
1003
0010
1000
0010
0100
0001
,  // measure 52
0000
1000
0001
0010
0001
0010
0100
1000
,  // measure 53
0MM2
0000
1003
0010
1000
0010
0100
0001
,  // measure 54
0010
0100
1000
0010
0100
0001
0001
0001
,  // measure 55
1000
0010
0200
0000
0310
1000
0010
1000
,  // measure 56
0200
0000
1300
0100
M02M
0000
0032
0000
,  // measure 57
0103
0001
0020
0000
0130
0010
0002
0000
,  // measure 58
0103
0001
0100
0001
2MM0
0000
3010
1000
,  // measure 59
0010
1000
0010
0001
MM00
0001
0010
1000
,  // measure 60
0010
1000
0001
1000
02MM
0000
0310
0001
,  // measure 61
0010
0001
1000
0010
0200
0000
0000
0000
,  // measure 62
0000
0000
0000
0000
0310
0000
0000
0000
1002
0000
0000
1000
0000
0000
1003
0000
,  // measure 63
1001
M001
0100
0001
,  // measure 64
1001
100M
0200
0310
,  // measure 65
0110
0M10
0001
0100
,  // measure 66
0110
0000
0000
0000
0M10
0000
0000
0000
2001
0000
0000
0001
0000
0000
3001
0000
,  // measure 67
1001
100M
0100
1000
,  // measure 68
1001
M001
0200
0310
,  // measure 69
1001
0000
0000
0000
100M
0000
0000
0000
0001
0000
0000
0010
0000
0000
0100
0000
,  // measure 70
1000
0000
M01M
0200
0002
0000
0000
0000
,  // measure 71
0000
0000
0303
0000
;

//---------------dance-single - ----------------
#NOTEDATA:;
#CHARTNAME:;
#STEPSTYPE:dance-single;
#DESCRIPTION:;
#CHARTSTYLE:;
#DIFFICULTY:Medium;
#METER:7;
#RADARVALUES:0.385155,0.440785,0.353450,0.484966,0.000000,328.000000,285.000000,43.000000,59.000000,14.000000,0.000000,0.000000,0.000000,0.000000,0.385155,0.440785,0.353450,0.484966,0.000000,328.000000,285.000000,43.000000,59.000000,14.000000,0.000000,0.000000,0.000000,0.000000;
#CREDIT:;
#OFFSET:-0.077378;
#BPMS:0.000000=150.000000
,92.000000=75.000000
,94.000000=150.000000
,186.000000=75.000000
,188.000000=150.000000
;
#STOPS:219.000000=0.799996
;
#DELAYS:;
#WARPS:;
#TIMESIGNATURES:0.000000=4=4
;
#TICKCOUNTS:0.000000=4
;
#COMBOS:0.000000=1
;
#SPEEDS:0.000000=1.000000=0.000000=0
;
#SCROLLS:0.000000=1.000000
;
#FAKES:;
#LABELS:0.000000=Song Start
;
#NOTES:
0000
0000
0000
0000
,
0000
0000
0000
0000
,
0000
0000
0000
0000
,
0000
0000
0000
0000
,
1001
0000
0000
1000
0000
0000
1000
0000
,
0010
0000
0000
0010
0000
0000
0010
0000
,
0100
0000
0000
0100
0000
0000
0100
0000
,
0001
0000
0000
0001
0000
0000
0001
0000
,
2000
0000
3100
1000
0020
0000
0030
00M0
,
0002
0000
0103
0001
0020
0000
0030
00M0
,
2000
0000
3001
1000
0020
0000
0030
00M0
,
0001
0002
0000
1000
2000
0000
3003
0000
,
0002
0000
0013
0001
0200
0000
0300
0M00
,
2000
0000
3010
1000
0200
0000
0300
0M00
,
0002
0000
1003
0001
0020
0000
0030
00M0
,
2000
0000
3000
0002
2000
0000
3003
0000
,
1001
0100
0100
0100
,
1001
0010
0010
0010
,
0101
1000
1000
1000
,
1100
0000
0001
0000
0001
0000
0001
1000
,
0001
0000
0101
0000
1010
0000
1000
0001
,
1000
0000
1100
0000
0011
0000
0001
1000
,
0020
0001
0100
1030
,
2MM2
0000
3003
0100
2001
0000
3100
0000
,
0010
0100
2000
3010
,
0100
0010
2001
3100
,
0010
0001
0100
0010
,
1000
1010
1002
0013
,
0100
0010
0002
0103
,
0010
0100
1002
0103
,
0001
0010
0001
0010
,
1100
0000
0011
0000
2001
0000
3001
0100
,
0001
0100
0001
0000
2000
0000
3001
0010
,
0001
0010
0001
0000
2000
0000
3001
0100
,
0001
0000
1000
0000
0001
0010
0001
0000
,
2001
0000
3010
0000
1002
0000
0103
0010
,
0100
0000
0001
0000
2001
0000
3100
0010
,
0100
0000
1000
0000
1002
0000
1003
0001
,
0100
0000
0001
1000
0100
0000
0010
0000
,
0100
0000
0100
0010
0001
0000
0001
0000
,
0100
0100
0010
0010
,
1000
1000
0001
0001
,
0010
0010
0100
0100
,
1000
0000
1000
0001
1000
0000
1010
0000
,
0101
0000
0001
1000
0001
0000
0011
0000
,
1100
0000
1000
0001
0200
0000
1000
0000
,
0010
0000
0301
0000
2MM2
0000
3003
0100
,
1002
0000
0103
0001
0010
0000
0010
0000
,
0002
0000
0103
0001
0010
0000
0010
0000
,
2001
0000
3100
1000
0010
0000
0010
0000
,
0100
0001
0010
0000
0100
1000
0010
0000
,
1002
0000
1003
0000
0010
1000
0100
0000
,
MMMM
0000
0001
0000
0010
0001
0100
0000
,
2001
0000
3100
0000
0010
0100
0010
0000
,
0001
1000
0001
0000
0101
0000
1100
0000
,
1000
0010
2000
0000
3001
0010
0001
0010
,
0002
0103
2001
3020
,
1030
0001
2000
0000
3001
1000
0002
0000
,
0013
0000
0100
0000
2000
0000
3010
1000
,
0100
0000
0010
0000
0002
0000
0013
0001
,
0100
0000
0010
0000
2000
0000
3001
0100
,
0001
0000
1000
0100
2000
0000
0000
0000
,
0000
3001
2002
3003
,
0101
0000
0001
0100
,
1010
0000
2000
3000
,
1100
0000
1000
0100
,
0011
0000
2002
3003
,
1010
0000
0010
1000
,
0101
0000
0002
0003
,
0011
0000
0000
0000
1000
0000
0010
0100
,
0001
0000
0010
0200
2000
0000
0000
0000
,
0000
0000
3300
0000
;

//---------------dance-single - ----------------
#NOTEDATA:;
#CHARTNAME:;
#STEPSTYPE:dance-single;
#DESCRIPTION:;
#CHARTSTYLE:;
#DIFFICULTY:Easy;
#METER:3;
#RADARVALUES:0.200797,0.268170,0.139736,0.361670,0.000000,171.000000,154.000000,17.000000,44.000000,0.000000,0.000000,0.000000,0.000000,0.000000,0.200797,0.268170,0.139736,0.361670,0.000000,171.000000,154.000000,17.000000,44.000000,0.000000,0.000000,0.000000,0.000000,0.000000;
#CREDIT:;
#OFFSET:-0.077378;
#BPMS:0.000000=150.000000
;
#STOPS:223.000000=0.800003
;
#DELAYS:;
#WARPS:;
#TIMESIGNATURES:0.000000=4=4
;
#TICKCOUNTS:0.000000=4
;
#COMBOS:0.000000=1
;
#SPEEDS:0.000000=1.000000=0.000000=0
;
#SCROLLS:0.000000=1.000000
;
#FAKES:;
#LABELS:0.000000=Song Start
;
#NOTES:
0000
0000
0000
0000
,
0000
0000
0000
0000
,
0000
0000
0000
0000
,
0000
0000
0000
0000
,
1001
0000
1000
0000
,
0100
0000
0100
0000
,
0010
0000
0010
0000
,
0001
0000
0001
0000
,
1000
1000
0020
0030
,
1000
1000
0002
0003
,
1000
1000
0200
0300
,
1000
0000
2000
3000
,
0001
0001
0020
0030
,
0001
0001
2000
3000
,
0001
0001
0200
0300
,
0001
0000
0002
0003
,
1000
0000
1000
0000
,
0010
0000
0010
0000
,
0100
0000
0100
0000
,
0001
0000
0001
0000
,
1000
0000
0100
0000
,
0010
0000
0001
0000
,
2002
0000
0000
0000
,
3003
0000
0000
0000
,
2001
3000
0100
0000
,
0020
0030
0100
0000
,
2001
3000
0100
0000
,
0010
0000
0001
1000
,
1002
0003
0100
0000
,
0020
0030
0100
0000
,
1002
0003
0100
0000
,
0100
0000
0010
0010
,
2001
3100
0100
0000
,
2000
3010
0010
0000
,
2000
3100
0100
0000
,
0010
0100
2000
3000
,
1002
0103
0100
0000
,
0002
0013
0010
0000
,
0002
0103
0100
0000
,
0010
0100
0001
1000
,
0001
0000
0001
0000
,
0010
0000
0010
0000
,
0100
0000
0100
0000
,
1000
0000
1000
0000
,
0001
0000
0100
0000
,
0010
0000
1000
0000
,
2002
0000
0000
0000
,
3003
0000
0000
0000
,
2001
3000
0010
0000
,
0200
0300
0001
0000
,
2001
3000
0100
0000
,
0010
0000
0001
1000
,
1002
0003
0100
0000
,
0010
0000
1000
0000
,
1002
0003
0010
0000
,
0100
0000
0010
0010
,
1001
0000
1000
1000
,
0002
0003
1000
2000
,
3000
0002
0003
2000
,
3001
0001
2000
3000
,
0010
0010
0200
0300
,
0001
0001
2000
3000
,
0100
0100
0020
0000
,
0030
0000
1002
0000
,
0103
0000
0010
0000
,
0100
0000
0002
0000
,
0013
0000
0100
0000
,
0010
0000
2001
0000
,
3010
0000
0100
0000
,
0010
0000
2000
0000
,
3100
0000
0010
0000
,
0100
0000
2002
0000
,
0000
0000
3003
0000
;

//---------------dance-single - ----------------
#NOTEDATA:;
#CHARTNAME:;
#STEPSTYPE:dance-single;
#DESCRIPTION:;
#CHARTSTYLE:;
#DIFFICULTY:Beginner;
#METER:1;
#RADARVALUES:0.089243,0.147956,0.008220,0.032879,0.000000,76.000000,75.000000,1.000000,4.000000,0.000000,0.000000,0.000000,0.000000,0.000000,0.089243,0.147956,0.008220,0.032879,0.000000,76.000000,75.000000,1.000000,4.000000,0.000000,0.000000,0.000000,0.000000,0.000000;
#CREDIT:;
#OFFSET:-0.077378;
#BPMS:0.000000=150.000000
;
#STOPS:;
#DELAYS:;
#WARPS:;
#TIMESIGNATURES:0.000000=4=4
;
#TICKCOUNTS:0.000000=4
;
#COMBOS:0.000000=1
;
#SPEEDS:0.000000=1.000000=0.000000=0
;
#SCROLLS:0.000000=1.000000
;
#FAKES:;
#LABELS:0.000000=Song Start
;
#NOTES:
0000
0000
0000
0000
,
0000
0000
0000
0000
,
0000
0000
0000
0000
,
0000
0000
0000
0000
,
0002
0000
0000
0000
,
0003
0000
0000
0000
,
2000
0000
0000
0000
,
3000
0000
0000
0000
,
0001
0000
0000
0000
,
0010
0000
0000
0000
,
0100
0000
0000
0000
,
1000
0000
0000
0000
,
1000
0000
0000
0000
,
0010
0000
0000
0000
,
0100
0000
0000
0000
,
0001
0000
0000
0000
,
1000
0000
0000
0000
,
1000
0000
0000
0000
,
0001
0000
0000
0000
,
0001
0000
0000
0000
,
1000
0000
0001
0000
,
1000
0000
0001
0000
,
2000
0000
0000
0000
,
3000
0000
0000
0000
,
1000
0000
0000
0000
,
0100
0000
0000
0000
,
0010
0000
0000
0000
,
0100
0000
0010
0000
,
0001
0000
0000
0000
,
0100
0000
0000
0000
,
0010
0000
0000
0000
,
0100
0000
0010
0000
,
1000
0000
0000
0000
,
0001
0000
0000
0000
,
1000
0000
0000
0000
,
0001
0000
1000
0000
,
0100
0000
0000
0000
,
0010
0000
0000
0000
,
0100
0000
0000
0000
,
0010
0000
0001
0000
,
1000
0000
0000
0000
,
1000
0000
0000
0000
,
0001
0000
0000
0000
,
0001
0000
0000
0000
,
1000
0000
0001
0000
,
1000
0000
0001
0000
,
2000
0000
0000
0000
,
3000
0000
0000
0000
,
0001
0000
0000
0000
,
0100
0000
0000
0000
,
0010
0000
0000
0000
,
1000
0000
0001
0000
,
1000
0000
0000
0000
,
0100
0000
0000
0000
,
0010
0000
0000
0000
,
0001
0000
1000
0000
,
0000
0000
0001
0000
,
0000
0000
1000
0000
,
0000
0000
0001
0000
,
0000
0000
1000
0000
,
1000
0000
0000
0000
,
0010
0000
0000
0000
,
0100
0000
0000
0000
,
0001
0000
0000
0000
,
0000
0000
0010
0000
,
0000
0000
0010
0000
,
0000
0000
0001
0000
,
0000
0000
0001
0000
,
0000
0000
1000
0000
,
0000
0000
1000
0000
,
0000
0000
0010
0000
,
0000
0000
0010
0000
,
1001
0000
0000
0000
;
