#VERSION:0.83;
#TITLE:Decretum;
#SUBTITLE:;
#ARTIST:Project Mayhem;
#TITLETRANSLIT:;
#SUBTITLETRANSLIT:;
#ARTISTTRANSLIT:;
#GENRE:Hardcore;
#ORIGIN:;
#CREDIT:;
#BANNER:Decretum.png;
#BACKGROUND:Decretum-bg.png;
#PREVIEWVID:;
#JACKET:Decretum-jacket.png;
#CDIMAGE:;
#DISCIMAGE:;
#LYRICSPATH:;
#CDTITLE:cdtitle.png;
#MUSIC:Decretum.ogg;
#OFFSET:-0.099322;
#SAMPLESTART:13.503769;
#SAMPLELENGTH:19.491817;
#SELECTABLE:YES;
#DISPLAYBPM:98.000000:197.000000;
#BPMS:0.000=197.000,
4.000=98.500,
8.000=197.000,
229.000=98.500,
237.000=197.000,
298.500=394.000,
299.000=197.000,
363.000=98.500,
366.000=115.000,
366.250=130.000,
366.500=145.000,
366.750=160.000,
367.000=175.000,
367.250=190.000,
367.500=205.000,
367.750=220.000,
368.000=235.000,
368.250=250.000,
368.500=265.000,
368.750=280.000,
369.000=295.000,
369.250=310.000,
369.500=325.000,
369.750=340.000,
370.000=355.000,
370.250=370.000,
370.500=385.000;
#STOPS:38.500=0.305,
99.500=0.152,
100.000=0.152,
130.500=0.152,
131.000=0.152,
265.500=0.152,
266.000=0.152,
298.500=0.381;
#DELAYS:;
#WARPS:;
#TIMESIGNATURES:0.000=4=4;
#TICKCOUNTS:0.000=4;
#COMBOS:0.000=1;
#SPEEDS:0.000=1.000=0.000=0;
#SCROLLS:0.000=1.000;
#FAKES:;
#LABELS:0.000=Song Start;
#BGCHANGES:;
#KEYSOUNDS:;
#ATTACKS:
;

//---------------dance-single - ----------------
#NOTEDATA:;
#CHARTNAME:;
#STEPSTYPE:dance-single;
#DESCRIPTION:;
#CHARTSTYLE:;
#DIFFICULTY:Challenge;
#METER:18;
#RADARVALUES:1.112635,1.280263,0.510306,0.209142,1.028979,931.000000,870.000000,61.000000,25.000000,4.000000,0.000000,0.000000,0.000000,0.000000,1.112635,1.280263,0.510306,0.209142,1.028979,931.000000,870.000000,61.000000,25.000000,4.000000,0.000000,0.000000,0.000000,0.000000;
#CREDIT:;
#OFFSET:-0.099322;
#BPMS:0.000000=197.000000
,4.000000=98.500000
,8.000000=197.000000
,229.000000=98.500000
,237.000000=197.000000
,298.500000=394.000000
,299.000000=197.000000
,363.000000=98.500000
,366.000000=115.000000
,366.250000=130.000000
,366.500000=145.000000
,366.750000=160.000000
,367.000000=175.000000
,367.250000=190.000000
,367.500000=205.000000
,367.750000=220.000000
,368.000000=235.000000
,368.250000=249.999985
,368.500000=265.000000
,368.750000=280.000000
,369.000000=295.000000
,369.250000=310.000000
,369.500000=325.000000
,369.750000=340.000000
,370.000000=355.000000
,370.250000=370.000000
,370.500000=385.000000
;
#STOPS:38.500000=0.304570
,99.500000=0.152283
,100.000000=0.152287
,130.500000=0.152283
,131.000000=0.152287
,265.500000=0.152283
,266.000000=0.152283
,298.500000=0.380715
;
#DELAYS:;
#WARPS:;
#TIMESIGNATURES:0.000000=4=4
;
#TICKCOUNTS:0.000000=4
;
#COMBOS:0.000000=1
;
#SPEEDS:0.000000=1.000000=0.000000=0
;
#SCROLLS:0.000000=1.000000
;
#FAKES:;
#LABELS:0.000000=Song Start
;
#DISPLAYBPM:98.000000:197.000000;
#NOTES:
// measure 0
0000
0000
0000
0000
,  // measure 1
0220
0000
0000
0000
0000
0000
0000
0330
,  // measure 2
1001
0000
0000
0000
,  // measure 3
0110
0000
0000
0000
0000
0000
0000
0000
0000
1000
0001
1000
,  // measure 4
0001
0000
0000
0000
0000
0000
0000
0000
0000
0000
0000
0000
0001
0010
0100
1000
,  // measure 5
0001
0000
0000
0000
0000
0000
0100
0000
0000
0000
0010
0100
0010
0000
0000
0000
,  // measure 6
1001
0001
0010
0100
0110
0000
1000
0001
,  // measure 7
1001
0000
0000
0000
1000
0000
0010
0000
0101
0000
0000
0000
0001
0100
0010
1000
,  // measure 8
0001
0000
0010
0100
1100
0000
0010
0001
,  // measure 9
0200
0000
0000
0000
0000
0310
1001
1000
,  // measure 10
0010
0000
1000
0001
1000
0000
0100
0000
0010
0000
0010
0001
1000
0000
0010
0000
,  // measure 11
0010
0000
0100
0001
1000
0010
1000
0000
0100
0000
0010
0001
0010
0000
0001
0000
,  // measure 12
0100
0000
0100
0010
1000
0000
0001
0000
0001
0000
1000
0100
0010
0000
0010
0000
,  // measure 13
0001
0000
0100
0010
0100
0001
1000
0000
0001
0010
0001
1000
0010
0000
0100
0000
,  // measure 14
0100
0000
0001
1000
0010
0000
0010
0000
0001
0000
0010
0100
0010
0000
1000
0000
,  // measure 15
0100
0000
0100
0010
0001
1000
0010
0000
0010
1000
0001
1000
0100
0000
0100
0000
,  // measure 16
0001
0000
0100
0010
0100
0000
1000
0000
0001
0000
0001
0100
0010
0000
0100
0000
,  // measure 17
0100
0000
0001
1000
0001
0010
0100
1000
0001
0010
0100
1000
0001
0000
0001
0000
,  // measure 18
0010
0000
0100
1000
0100
0000
0010
0000
0001
0000
0001
0100
0010
0000
1000
0000
,  // measure 19
1000
0000
0100
0010
0001
1000
0001
0000
0100
0000
0010
1000
0010
0000
0100
0000
,  // measure 20
0001
0000
0001
0010
0100
0000
1000
0000
1000
0000
0001
0100
0010
0000
0010
0000
,  // measure 21
1000
0000
0001
0100
0001
1000
0100
0000
0010
0001
0010
0100
1000
0000
0010
0000
,  // measure 22
0010
0000
1000
0001
0010
0000
0010
0000
1000
0000
0010
0100
0010
0000
0001
0000
,  // measure 23
0100
0000
0100
0010
1000
0001
0100
0000
0100
0001
1000
0100
0010
0000
0010
0000
,  // measure 24
0100
0000
1000
0100
1000
0000
0100
0000
0010
0001
0100
0010
1000
0000
1001
0000
,  // measure 25
0110
0000
1001
0000
0110
0000
1001
0000
1000
0010
1000
0010
1000
0010
1000
0010
,  // measure 26
1000
0010
1000
0010
1000
0010
1000
0010
0100
0000
0001
0010
0100
1000
0100
0010
,  // measure 27
0001
1000
0010
0100
0001
0000
0100
0010
1000
0001
0010
0100
1000
0001
0010
0100
,  // measure 28
1000
0001
0100
0010
1000
0001
0100
0010
1000
0000
0001
0010
0001
0010
0001
0000
,  // measure 29
1000
0000
0001
0100
0001
0100
0001
0000
1000
0001
0010
0001
1000
0001
0010
0001
,  // measure 30
1000
0001
0100
0001
1000
0001
0100
0001
1000
0010
1000
0001
1000
0010
1000
0001
,  // measure 31
1000
0100
1000
0001
1000
0100
1000
0001
0100
0000
0001
0100
0010
1000
0001
0100
,  // measure 32
0010
1000
0100
0010
0001
0100
0010
1000
0001
0000
1001
0000
1100
0000
0022
0000
,  // measure 33
0033
0000
1100
0000
1001
0000
0001
1000
0010
0100
0010
0100
0001
1000
0001
1000
,  // measure 34
0100
0010
0100
0010
0001
0010
0100
1000
0001
1000
0100
0010
0002
0000
0000
0000
,  // measure 35
2003
0000
0000
0000
3001
0100
0010
1000
0001
0010
0100
1000
0001
0000
1000
0010
,  // measure 36
0100
0001
0100
0001
1000
0100
0010
0001
0010
0100
1000
0001
0100
0010
0100
0010
,  // measure 37
1000
0001
1000
0000
0001
0000
1000
0100
0010
0100
0010
0100
1000
0000
0001
0100
,  // measure 38
0010
0100
0010
0100
0001
0000
1000
0100
0010
0100
1000
0100
0010
0100
1000
0100
,  // measure 39
0010
0001
0100
0010
1000
0000
0100
0010
0100
0000
0010
0000
0001
0000
0100
0010
,  // measure 40
0100
0000
0010
0000
1000
0001
1000
0001
1000
0001
1000
0001
0100
0010
1000
0100
,  // measure 41
0010
0001
0100
0010
1000
0000
1100
0000
0000
0000
1000
0000
1100
0000
0000
0000
,  // measure 42
1000
1100
0000
1000
1100
0000
0001
0001
,  // measure 43
0001
0101
0000
0001
0101
0000
0001
0101
,  // measure 44
0000
0001
0101
0000
0001
1000
1001
0100
,  // measure 45
0100
0100
0010
1001
0000
0001
1010
0000
,  // measure 46
1000
0011
0000
0001
1010
0000
0001
1000
,  // measure 47
0001
1001
0000
1000
0101
0000
0001
1100
,  // measure 48
0000
1000
0101
0000
1000
1000
0001
0001
,  // measure 49
1000
0100
0010
0001
1000
0000
1000
0000
0100
0000
1000
0001
1000
0000
0010
0000
,  // measure 50
1010
0000
1000
0000
0001
0000
1000
0100
1000
0000
0001
0000
0100
0000
0100
0000
,  // measure 51
0110
0000
0100
0000
0001
1000
0100
0000
0100
0000
0010
0001
0100
0000
0100
0000
,  // measure 52
0101
0000
0100
0010
0100
0000
0010
1000
0100
0000
0010
0000
0011
0000
0001
0000
,  // measure 53
0100
0010
1000
1000
0100
0010
0010
0100
,  // measure 54
0001
0001
0100
0010
0010
0100
1000
1000
,  // measure 55
0001
0100
0010
1000
0001
1000
0100
0010
0100
0010
0001
1000
0010
0100
0010
0100
,  // measure 56
0001
1000
0100
0010
0100
0010
0001
1000
0010
0100
0010
0100
0001
1000
0001
0010
,  // measure 57
0100
1000
0001
0010
0200
0000
0000
0000
0000
0000
0000
0000
0000
0000
0000
0000
,  // measure 58
0000
0000
0000
0000
0000
0000
0000
0000
0300
0000
0000
0000
0000
0000
0000
0000
0000
0000
0000
0000
0000
0000
0000
0000
0000
0000
0000
0000
0000
0000
0010
0001
,  // measure 59
1000
0001
1001
1000
1020
0000
0000
0000
1030
0000
0002
0000
0100
0000
0000
0000
,  // measure 60
0013
0000
0100
1000
0001
0000
0010
0000
0001
0000
0100
0000
0001
0000
0100
0010
,  // measure 61
1000
0001
0010
0100
2000
0000
0000
0000
3010
0000
1000
0000
1000
0000
0001
0010
,  // measure 62
0001
0000
1000
0010
0200
0000
0000
0000
0301
0000
0100
0000
1001
0000
0001
0000
,  // measure 63
1000
0100
0210
0000
1300
0002
0100
0000
,  // measure 64
1003
0000
0100
0010
0002
0000
0000
0000
0013
0000
0100
0000
0100
0000
1000
0001
,  // measure 65
1000
0010
0200
0000
0301
2000
0100
0000
,  // measure 66
3100
1000
0100
0010
0001
0000
0011
0000
1001
0000
0101
0000
0001
0100
0010
1000
,  // measure 67
0002
0000
0000
0000
0013
0000
0200
0000
1000
0000
0000
0000
0310
0000
0001
0100
,  // measure 68
0010
0000
1000
0000
0010
0000
1000
0000
0001
0000
1000
0100
0010
0100
1000
0001
,  // measure 69
0200
0000
0000
0000
1300
0000
0100
0000
0100
0000
0001
0010
0100
0000
0010
0000
,  // measure 70
0210
0000
0000
0000
1300
0000
0002
0000
1003
0000
0001
0010
0100
1000
0010
0100
,  // measure 71
0002
0000
0000
0000
0000
0000
0023
0000
0000
0000
0000
0000
0030
0000
0100
1000
,  // measure 72
0001
0000
1000
0000
0000
0000
1000
0001
1000
0000
0001
0010
0100
0000
1000
0000
,  // measure 73
1001
0000
0001
0000
0100
0000
0100
0000
0010
0000
0010
0000
1000
0001
1000
0001
,  // measure 74
0010
0100
1000
0001
1000
0010
0100
0001
1000
0000
0110
0000
1001
0000
0001
0000
,  // measure 75
0010
0000
0001
1000
0001
0000
0100
0000
0010
0000
0010
1000
0001
0000
0010
0000
,  // measure 76
0010
0000
0100
1000
0001
0000
0001
0000
0100
0000
0010
1000
0010
0000
1000
0000
,  // measure 77
0100
0000
0100
0010
0001
0000
0100
0000
0100
0000
0010
1000
0001
0000
0001
0000
,  // measure 78
1000
0000
0001
0100
0001
0000
1000
0000
0100
0010
0100
0000
1000
0000
0010
0000
,  // measure 79
0010
0000
0100
0001
0010
0000
0010
0000
1000
0000
0010
0100
0010
0000
0001
0000
,  // measure 80
0100
0000
0100
0010
1000
0000
0100
0000
0100
0000
0010
0100
1000
0000
1000
0000
,  // measure 81
0001
0000
0100
0010
0100
0000
0001
0000
1000
0000
1000
0100
0010
0000
0100
0000
,  // measure 82
0100
0000
1000
0001
1000
0010
0100
0001
1000
0010
0100
0001
1000
0000
0100
0000
,  // measure 83
0001
0000
0100
0010
0001
0000
0100
0000
0010
0000
0100
1000
0100
0000
0010
0000
,  // measure 84
1000
0000
0001
0010
0100
1000
0001
0000
1000
0000
0010
1000
0100
0000
0010
0000
,  // measure 85
0001
0000
1000
0010
0100
0000
1000
0000
0100
0000
0001
0010
0100
0000
0001
0000
,  // measure 86
0100
0000
0010
0000
0001
1000
0010
0000
0100
0000
0100
0000
0001
0100
0010
0100
,  // measure 87
0001
0100
0010
0100
0001
0010
0100
0000
1100
0000
0000
0000
1000
0100
0010
0100
,  // measure 88
1000
0100
0010
0100
1000
0010
0100
0000
0101
0000
0000
0000
0101
0000
1010
0000
,  // measure 89
0000
1100
0011
0000
0101
1010
0000
1100
,  // measure 90
0011
0000
0000
0000
1000
0100
0010
0000
0001
0000
1000
0010
0200
0000
0000
0000
,  // measure 91
0000
0000
0000
0000
,  // measure 92
0000
0000
0000
0000
0000
0300
MMMM
0000
;

//---------------dance-single - ----------------
#NOTEDATA:;
#CHARTNAME:;
#STEPSTYPE:dance-single;
#DESCRIPTION:;
#CHARTSTYLE:;
#DIFFICULTY:Hard;
#METER:16;
#RADARVALUES:0.922615,1.163875,0.309530,0.250970,0.514489,772.000000,735.000000,37.000000,30.000000,4.000000,0.000000,0.000000,0.000000,0.000000,0.922615,1.163875,0.309530,0.250970,0.514489,772.000000,735.000000,37.000000,30.000000,4.000000,0.000000,0.000000,0.000000,0.000000;
#CREDIT:;
#OFFSET:-0.099322;
#BPMS:0.000000=197.000000
,4.000000=98.500000
,8.000000=197.000000
,229.000000=98.500000
,237.000000=197.000000
,298.500000=394.000000
,299.000000=197.000000
,363.000000=98.500000
,366.000000=115.000000
,366.250000=130.000000
,366.500000=145.000000
,366.750000=160.000000
,367.000000=175.000000
,367.250000=190.000000
,367.500000=205.000000
,367.750000=220.000000
,368.000000=235.000000
,368.250000=249.999985
,368.500000=265.000000
,368.750000=280.000000
,369.000000=295.000000
,369.250000=310.000000
,369.500000=325.000000
,369.750000=340.000000
,370.000000=355.000000
,370.250000=370.000000
,370.500000=385.000000
;
#STOPS:38.500000=0.304570
,99.500000=0.152283
,100.000000=0.152287
,130.500000=0.152283
,131.000000=0.152287
,265.500000=0.152283
,266.000000=0.152283
,298.500000=0.380715
;
#DELAYS:;
#WARPS:;
#TIMESIGNATURES:0.000000=4=4
;
#TICKCOUNTS:0.000000=4
;
#COMBOS:0.000000=1
;
#SPEEDS:0.000000=1.000000=0.000000=0
;
#SCROLLS:0.000000=1.000000
;
#FAKES:;
#LABELS:0.000000=Song Start
;
#DISPLAYBPM:98.000000:197.000000;
#NOTES:
// measure 0
0000
0000
0000
0000
,  // measure 1
0220
0000
0000
0000
0000
0000
0000
0330
,  // measure 2
1001
0000
0000
0000
,  // measure 3
0110
0000
0000
0000
0000
0000
0000
0000
0000
1000
0001
1000
,  // measure 4
0001
0000
0000
0000
0000
0000
0000
0000
0000
0000
0000
0000
0001
1000
0001
1000
,  // measure 5
0001
0000
0000
0000
0000
0000
1000
0000
0000
0000
0100
0010
0100
0000
0000
0000
,  // measure 6
1001
0001
0100
0010
1000
0000
0100
0010
,  // measure 7
0110
0000
0000
0000
0100
0000
1000
0000
0010
0000
0000
0000
1000
0001
1000
0001
,  // measure 8
1000
0000
0100
0010
0001
0000
1000
0010
,  // measure 9
0200
0000
0000
0000
0000
0310
1001
0001
,  // measure 10
0010
0001
0001
0100
0001
0001
0010
0001
,  // measure 11
0001
1000
0001
0001
1000
0010
0010
1000
,  // measure 12
0100
0100
1000
0010
0010
1000
0100
0100
,  // measure 13
1000
0010
0010
1000
0100
0100
0010
0001
,  // measure 14
0001
0100
0010
0010
0100
1000
1000
0100
,  // measure 15
0010
0010
0100
0001
0001
0010
0100
0100
,  // measure 16
1000
0001
0001
0100
0010
0010
1000
0100
,  // measure 17
0010
0000
0001
0000
1000
0010
1000
0010
0100
0001
0100
0001
1000
0000
1000
0000
,  // measure 18
0010
1000
1000
0100
1000
1000
0010
1000
,  // measure 19
1000
0001
1000
1000
0001
0010
0010
0001
,  // measure 20
0100
0100
0001
0010
0010
0001
0100
0100
,  // measure 21
0001
0010
0010
0001
0100
0100
0010
1000
,  // measure 22
1000
0100
0010
0010
0100
0001
0001
0100
,  // measure 23
0010
0010
0100
1000
1000
0010
0100
0100
,  // measure 24
0001
0000
1000
0000
1000
0000
0100
0000
0010
0001
1000
0001
0100
0000
0110
0000
,  // measure 25
0110
0000
1001
0000
1000
0000
0001
0000
1000
0100
1000
0100
1000
0100
1000
0100
,  // measure 26
1000
0100
1000
0100
1000
0100
1000
0100
0010
0000
0001
0000
0100
0010
0100
0000
,  // measure 27
0001
0000
0010
0100
0010
0000
0001
0000
0100
0000
0010
0000
1000
0001
1000
0000
,  // measure 28
0010
0000
0100
0000
0001
1000
0001
0000
0100
0000
0010
0000
0100
0000
0001
0000
,  // measure 29
0100
0000
1000
0000
0100
0000
0001
0000
1000
0100
1000
0100
1000
0100
1000
0000
,  // measure 30
0001
0100
0001
0100
0001
0100
0001
0000
1000
0010
1000
0010
1000
0010
1000
0000
,  // measure 31
0001
0010
0001
0010
0001
0010
0001
0000
1000
0000
0100
0010
0100
0000
1000
0001
,  // measure 32
1000
0001
1000
0000
0010
0100
0001
0000
1000
0000
1010
0000
0101
0000
2001
0000
,  // measure 33
0000
0000
3001
0000
1001
0000
1000
0000
0010
0100
0010
0000
0001
0000
0010
0000
,  // measure 34
1000
0010
1000
0000
0001
0000
0100
0000
0001
1000
0100
0000
0020
0000
0000
0000
,  // measure 35
0230
0000
0000
0000
0310
0001
0010
0000
0100
1000
0100
0000
0010
0000
0001
1000
,  // measure 36
0001
0000
0100
0000
0010
1000
0010
0000
0100
0001
0100
0000
0001
1000
0001
1000
,  // measure 37
0001
1000
0001
0000
1000
0100
1000
0100
0010
0000
0001
0000
1000
0010
1000
0010
,  // measure 38
0100
0000
0001
0000
0010
0100
0010
0100
1000
0000
0001
0000
0100
0010
0100
0010
,  // measure 39
1000
0000
0001
0000
2000
0000
0000
3200
0000
0000
0302
0000
2003
0000
0000
3020
,  // measure 40
0000
0000
0032
0000
0103
0010
0100
0010
0100
0010
0100
0000
0010
1000
0010
1000
,  // measure 41
0001
0010
0012
0010
0000
0010
0010
0000
,  // measure 42
0010
0010
0000
0010
0010
0000
0013
0001
,  // measure 43
1000
1000
0000
1000
1000
0000
1000
1000
,  // measure 44
0000
1000
1000
0000
1000
0010
0110
0100
,  // measure 45
0100
0100
0001
0001
0000
0001
0001
0000
,  // measure 46
0001
0001
0000
0001
0001
0000
0010
0010
,  // measure 47
0010
0010
0000
0100
0100
0000
0100
0100
,  // measure 48
0000
0100
0100
0000
1000
1000
0001
0001
,  // measure 49
1000
0001
1000
0001
0100
0000
0001
0000
1000
0000
0100
0000
1000
0000
0001
0000
,  // measure 50
0011
0010
0001
0100
0010
1000
0100
0100
,  // measure 51
0110
0100
1000
0001
0100
0010
0100
0001
,  // measure 52
1001
1000
0100
0010
0001
0100
0101
0001
,  // measure 53
0010
0100
1000
0010
0100
0001
1000
0100
,  // measure 54
0010
0001
0100
0010
1000
0100
0010
0001
,  // measure 55
0100
1000
0001
0010
1000
0001
0100
1000
,  // measure 56
0001
0000
0010
0000
1000
0000
0001
0000
0100
0000
1000
0000
0100
0000
0010
1000
,  // measure 57
0001
1000
0001
1000
0200
0000
0000
0000
0000
0000
0000
0000
0000
0000
0000
0000
,  // measure 58
0000
0000
0000
0000
0000
0000
0000
0000
0300
0000
0000
0000
0000
0000
0000
0000
0000
0000
0000
0000
0000
0000
0000
0000
0000
0000
0000
0000
0000
0000
0010
0001
,  // measure 59
1000
0001
0100
0010
1002
0000
0000
0000
1003
0000
0020
0000
0100
0000
0000
0000
,  // measure 60
1030
0000
0100
0010
0001
0000
0100
0000
0010
0000
0100
0000
0010
0000
1000
0001
,  // measure 61
0100
0001
0100
0001
2000
0000
0000
0000
3100
0000
0010
0000
0010
0000
0000
0001
,  // measure 62
0000
0000
0100
0010
0200
0000
0000
0000
0301
0000
1000
0000
1001
0000
0001
0000
,  // measure 63
0010
0100
2100
0000
3010
0200
0001
0000
,  // measure 64
0310
0000
0100
0001
2000
0000
0000
0000
3001
0000
1000
0000
1000
0000
0000
0100
,  // measure 65
0000
0010
0002
0000
0103
0020
1000
0000
,  // measure 66
0130
0010
0100
0010
0100
0000
0001
0000
1001
0000
1000
0000
0100
0010
0001
1000
,  // measure 67
0200
0000
0000
0000
0310
0000
0002
0000
0100
0000
0000
0000
0013
0000
0100
1000
,  // measure 68
0001
0000
1000
0000
0010
0000
1000
0000
0010
0000
0100
0001
1000
0001
1000
0001
,  // measure 69
0200
0000
0000
0000
1300
0000
0100
0000
0100
0000
0000
0001
0000
0000
0010
0000
,  // measure 70
0210
0000
0000
0000
1300
0000
0001
0000
0100
0000
0001
1000
0010
1000
0010
1000
,  // measure 71
0002
0000
0000
0000
0000
0000
0023
0000
0000
0000
0000
0000
0030
0000
0100
1000
,  // measure 72
0001
0000
1000
0000
0000
0000
1000
0001
1000
0000
0000
0001
0000
0000
0100
0000
,  // measure 73
0110
0010
1000
0001
0001
1000
0100
0001
,  // measure 74
1000
0010
0001
0100
0010
1010
1001
1000
,  // measure 75
0010
1000
0001
0010
0001
1000
0010
1000
,  // measure 76
0001
0010
0001
1000
0010
0010
0010
0100
,  // measure 77
0001
0010
0100
0010
0001
0100
0010
0100
,  // measure 78
0001
0010
0001
0001
1000
1000
0010
0010
,  // measure 79
0010
1000
0010
0001
0010
1000
0100
1000
,  // measure 80
0010
0000
0001
0000
0010
0000
1000
0000
0100
0000
1000
0001
1000
0000
0001
0000
,  // measure 81
0100
0001
1000
0100
1000
0001
0100
0001
,  // measure 82
1000
0000
0100
0000
1000
0001
1000
0001
0100
0010
0100
0010
1000
0000
0001
0000
,  // measure 83
0010
0000
0100
0000
1000
0000
0001
0100
0001
0000
1000
0000
0100
0000
0010
0000
,  // measure 84
0001
0000
0100
0010
0100
0010
0100
0000
0010
0000
1000
0001
1000
0000
0100
0000
,  // measure 85
0010
0000
0100
1000
0001
0000
1000
0000
0001
0000
0100
0010
1000
0000
0010
0000
,  // measure 86
0100
0000
0001
0000
1000
0100
1000
0000
0001
0000
1000
0000
0001
0100
0001
0100
,  // measure 87
0001
0100
0001
0100
0001
0100
0001
0000
0101
0000
0000
0000
1000
0100
1000
0100
,  // measure 88
1000
0100
1000
0100
1000
0100
1000
0000
1100
0000
0000
0000
0011
0000
0011
0000
,  // measure 89
0000
1010
1010
0000
0101
0101
0000
1100
,  // measure 90
1100
0000
0000
0000
1000
0001
1000
0000
0010
0000
0100
0001
0200
0000
0000
0000
,  // measure 91
0000
0000
0000
0000
,  // measure 92
0000
0000
0000
0000
0000
0300
MMMM
0000
;

//---------------dance-single - ----------------
#NOTEDATA:;
#CHARTNAME:;
#STEPSTYPE:dance-single;
#DESCRIPTION:;
#CHARTSTYLE:;
#DIFFICULTY:Medium;
#METER:14;
#RADARVALUES:0.758887,0.784283,0.242605,0.259336,0.108754,635.000000,606.000000,29.000000,31.000000,4.000000,0.000000,0.000000,0.000000,0.000000,0.758887,0.784283,0.242605,0.259336,0.108754,635.000000,606.000000,29.000000,31.000000,4.000000,0.000000,0.000000,0.000000,0.000000;
#CREDIT:;
#OFFSET:-0.099322;
#BPMS:0.000000=197.000000
,4.000000=98.500000
,8.000000=197.000000
,231.000000=98.500000
,239.000000=197.000000
,367.000000=98.500000
,370.000000=115.000000
,370.250000=130.000000
,370.500000=145.000000
,370.750000=160.000000
,371.000000=175.000000
,371.250000=190.000000
,371.500000=205.000000
,371.750000=220.000000
,372.000000=235.000000
,372.250000=249.999985
,372.500000=265.000000
,372.750000=280.000000
,373.000000=295.000000
,373.250000=310.000000
,373.500000=325.000000
,373.750000=340.000000
,374.000000=355.000000
,374.250000=370.000000
,374.500000=385.000000
;
#STOPS:38.500000=0.304570
;
#DELAYS:;
#WARPS:;
#TIMESIGNATURES:0.000000=4=4
;
#TICKCOUNTS:0.000000=4
;
#COMBOS:0.000000=1
;
#SPEEDS:0.000000=1.000000=0.000000=0
;
#SCROLLS:0.000000=1.000000
,301.500000=0.500000
,303.000000=1.000000
;
#FAKES:;
#LABELS:0.000000=Song Start
;
#DISPLAYBPM:98.000000:197.000000;
#NOTES:
// measure 0
0000
0000
0000
0000
,  // measure 1
0220
0000
0000
0000
0000
0000
0000
0330
,  // measure 2
1001
0000
0000
0000
,  // measure 3
0110
0000
0000
0000
0000
0000
1000
0100
,  // measure 4
0011
0000
0000
0000
0000
0000
0001
0100
,  // measure 5
1010
0000
0000
1000
0000
0001
0010
0000
,  // measure 6
1001
0000
0001
0100
0010
0000
1000
0100
,  // measure 7
0110
0000
0100
1000
0010
0000
1000
0100
,  // measure 8
0011
0000
0001
0100
0010
0000
0100
0001
,  // measure 9
2000
0000
0000
0000
0000
3001
0001
0100
,  // measure 10
0010
0100
0001
0000
1000
0100
0010
0100
,  // measure 11
1000
0000
0001
0100
0010
1000
0001
0000
,  // measure 12
0010
0001
0010
0100
1000
0000
0010
1000
,  // measure 13
0010
0100
0001
0000
0010
0001
0010
1000
,  // measure 14
0010
0000
0001
0100
1000
0100
0001
0000
,  // measure 15
1000
0010
0001
0010
1000
0000
0100
0010
,  // measure 16
0100
1000
0001
0000
0100
0010
1000
0001
,  // measure 17
0100
0000
1000
0100
0001
0010
0100
1000
,  // measure 18
0010
1000
0100
0000
0010
0001
0100
0001
,  // measure 19
0010
0000
0100
1000
0010
1000
0001
0000
,  // measure 20
0010
0001
0100
0010
1000
0000
0010
1000
,  // measure 21
0100
0010
0001
0000
0100
0001
0010
1000
,  // measure 22
0010
0000
0001
0010
1000
0010
0001
0000
,  // measure 23
0100
1000
0100
0001
0010
0000
0100
1000
,  // measure 24
0001
1000
0100
0000
0010
0001
0100
0110
,  // measure 25
0000
0110
0000
1001
0001
1000
0100
0010
,  // measure 26
0100
0010
0100
0010
0100
0010
0001
0100
,  // measure 27
1000
0001
0010
1000
0100
0010
0001
0100
,  // measure 28
0010
1000
0100
0010
0100
1000
0001
1000
,  // measure 29
0100
0010
0100
0001
0100
1000
0010
0100
,  // measure 30
0010
0100
0001
1000
0001
1000
0100
1000
,  // measure 31
0100
1000
0100
0001
0100
0001
0100
0010
,  // measure 32
0001
0100
1000
0001
0010
1000
0100
0110
,  // measure 33
0000
0110
0000
2001
0000
3001
1000
0010
,  // measure 34
0001
0010
1000
0010
0100
0010
1000
0010
,  // measure 35
0001
0010
2000
0000
3200
0000
0310
0001
,  // measure 36
0100
0010
1000
0001
0100
1000
0100
0001
,  // measure 37
0010
0100
1000
0010
1000
0100
0010
0100
,  // measure 38
1000
0001
1000
0010
0100
0001
1000
0100
,  // measure 39
0001
0000
0100
0000
1000
0000
0010
0000
1000
0000
0100
0000
0020
0000
0000
0032
,  // measure 40
0000
0000
0203
0000
0320
0000
0000
2030
0000
0000
3002
0000
0013
0000
0100
0000
,  // measure 41
0010
0100
1000
0010
0001
0010
2000
0100
,  // measure 42
0000
3100
1000
0000
1000
0100
0000
0100
,  // measure 43
1000
0000
1000
0100
0010
0001
0000
0001
,  // measure 44
0010
0000
0010
0001
0000
0001
0010
0000
,  // measure 45
0010
0001
0101
0100
0010
0010
1000
0001
,  // measure 46
0000
0001
1000
0000
1000
0001
0000
0001
,  // measure 47
1000
0000
1000
0010
0100
0001
0000
0001
,  // measure 48
0100
0000
0100
0010
0000
0010
0100
0000
,  // measure 49
0100
0001
0010
0100
1000
0001
1001
1000
,  // measure 50
0100
0010
0001
1000
1001
0001
0010
0100
,  // measure 51
1000
0100
0010
0001
0101
0100
0010
1000
,  // measure 52
0010
0100
0001
0100
0110
0010
1000
0001
,  // measure 53
0100
0001
1001
1000
0001
0100
0001
0010
,  // measure 54
1000
0010
0001
0100
0001
0010
1000
0010
,  // measure 55
0001
0100
0001
0010
0100
1000
0010
0001
,  // measure 56
0010
1000
0100
0001
0100
1000
0010
0001
,  // measure 57
0010
1000
0100
0010
0001
0100
0020
0000
,  // measure 58
0000
0000
0000
0030
,  // measure 59
0000
0000
0000
0000
0000
0000
0000
0010
1000
0100
0010
0001
2001
0000
0000
0000
,  // measure 60
3010
0000
2000
0000
0100
0000
0000
0000
3001
0000
1000
0001
1000
0000
0010
0000
,  // measure 61
1000
0000
0100
0000
0010
0000
0100
0000
1000
0001
1000
0001
2000
0000
0000
0000
,  // measure 62
3100
0000
1000
0000
1000
0000
0000
0010
0000
0000
0100
0000
0002
0000
0000
0000
,  // measure 63
1003
0001
0010
0100
1000
0010
2010
0000
,  // measure 64
3100
0000
2000
0000
0001
0000
0000
0000
3010
0000
1000
0001
2000
0000
0000
0000
,  // measure 65
3100
0000
0010
0000
0010
0000
0000
0001
0000
0000
0100
0000
0020
0000
0000
0000
,  // measure 66
1030
0002
0010
0000
0013
0100
1000
1010
,  // measure 67
0000
0101
0000
1100
0100
0010
0001
0000
,  // measure 68
0010
0000
0002
0000
0100
0000
0000
0000
1003
0000
0001
1000
0001
0000
1000
0000
,  // measure 69
0010
0000
0100
0000
0001
0000
0010
0000
0001
1000
0001
1000
0002
0000
0000
0000
,  // measure 70
0103
0000
0001
0000
1000
0000
0000
0100
0000
0000
0010
0000
0210
0000
0000
0000
,  // measure 71
0310
0000
0001
0000
0100
0000
0010
0000
1000
0001
1000
0001
2000
0000
0000
0000
,  // measure 72
0000
0000
3020
0000
0000
0000
0000
0000
0030
0000
1000
0001
1000
0000
0001
0000
,  // measure 73
0000
0000
1000
0000
0001
0000
0000
1000
0000
0000
0100
0000
0010
0000
0001
0000
,  // measure 74
0100
0001
0010
0001
0100
0001
1000
0100
,  // measure 75
0010
0001
1000
2002
0000
3003
0001
0100
,  // measure 76
0010
1000
0100
0000
1000
0100
0010
0001
,  // measure 77
0100
0000
0001
0100
0010
0010
0010
0000
,  // measure 78
1000
0100
0010
0100
1000
0000
0001
0100
,  // measure 79
0010
0100
0001
0001
1000
1000
0001
0001
,  // measure 80
0010
0000
1000
0010
0001
0100
1000
0000
,  // measure 81
0001
0000
0010
0000
1000
0000
0100
0000
0010
0000
0000
0010
0001
0000
0100
0000
,  // measure 82
0010
0100
0001
0000
1000
0100
0010
0100
,  // measure 83
1000
0000
0001
0100
1000
0100
0001
0010
,  // measure 84
0001
0000
0100
0000
0010
0000
0000
1000
0001
0000
0010
0000
0001
0000
0100
0000
,  // measure 85
0010
0000
1000
0001
1000
0000
0001
0000
1000
0000
0001
1000
0001
0000
1000
0000
,  // measure 86
0010
0000
0000
0100
0001
0000
1000
0000
0100
0000
0000
0010
0001
0000
0100
0000
,  // measure 87
0010
0000
1000
0000
0001
1000
0001
0000
1000
0000
0000
0000
0001
0000
0100
0000
,  // measure 88
1000
0100
0001
1000
1001
0000
1000
0100
,  // measure 89
0001
0100
1000
0001
1001
0000
1000
1000
,  // measure 90
0000
0001
0001
0000
1000
1000
0000
0001
,  // measure 91
0001
0000
1000
0100
0010
0001
0200
0000
,  // measure 92
0000
0000
0000
0000
,  // measure 93
0000
0000
0000
0000
0000
0300
MMMM
0000
;

//---------------dance-single - ----------------
#NOTEDATA:;
#CHARTNAME:;
#STEPSTYPE:dance-single;
#DESCRIPTION:;
#CHARTSTYLE:;
#DIFFICULTY:Easy;
#METER:12;
#RADARVALUES:0.589183,0.666640,0.150582,0.175679,0.000000,493.000000,475.000000,18.000000,21.000000,4.000000,0.000000,0.000000,0.000000,0.000000,0.589183,0.666640,0.150582,0.175679,0.000000,493.000000,475.000000,18.000000,21.000000,4.000000,0.000000,0.000000,0.000000,0.000000;
#CREDIT:;
#OFFSET:-0.099322;
#BPMS:0.000000=197.000000
,4.000000=98.500000
,8.000000=197.000000
,231.000000=98.500000
,239.000000=197.000000
,367.000000=98.500000
,370.000000=115.000000
,370.250000=130.000000
,370.500000=145.000000
,370.750000=160.000000
,371.000000=175.000000
,371.250000=190.000000
,371.500000=205.000000
,371.750000=220.000000
,372.000000=235.000000
,372.250000=249.999985
,372.500000=265.000000
,372.750000=280.000000
,373.000000=295.000000
,373.250000=310.000000
,373.500000=325.000000
,373.750000=340.000000
,374.000000=355.000000
,374.250000=370.000000
,374.500000=385.000000
;
#STOPS:38.500000=0.304570
;
#DELAYS:;
#WARPS:;
#TIMESIGNATURES:0.000000=4=4
;
#TICKCOUNTS:0.000000=4
;
#COMBOS:0.000000=1
;
#SPEEDS:0.000000=1.000000=0.000000=0
;
#SCROLLS:0.000000=1.000000
,301.500000=0.500000
,303.000000=1.000000
;
#FAKES:;
#LABELS:0.000000=Song Start
;
#DISPLAYBPM:98.000000:197.000000;
#NOTES:
// measure 0
0000
0000
0000
0000
,  // measure 1
0220
0000
0000
0000
0000
0000
0000
0330
,  // measure 2
1001
0000
0000
0000
,  // measure 3
0110
0000
0000
0000
0000
0000
1000
0001
,  // measure 4
1000
0000
0000
0000
0000
0000
0001
1000
,  // measure 5
0001
0000
0000
0100
0000
0010
0100
0000
,  // measure 6
1001
0001
0100
0010
,  // measure 7
1001
1000
0100
0010
,  // measure 8
1001
0000
0001
0000
0100
0000
0010
1000
,  // measure 9
0002
0000
0000
0000
0000
1003
0001
0100
,  // measure 10
0000
0010
0100
0000
0001
0100
0000
0010
,  // measure 11
0100
0000
0001
0100
0000
0001
1000
0000
,  // measure 12
0100
0010
0000
0100
1000
0000
0100
0010
,  // measure 13
0000
0100
1000
0000
0001
1000
0000
0010
,  // measure 14
0100
0000
0001
1000
0000
0100
0010
0000
,  // measure 15
0001
1000
0000
0010
0100
0000
0001
1000
,  // measure 16
0000
0001
0010
0000
0001
1000
0000
0001
,  // measure 17
0010
0000
0100
1000
0001
1000
0010
0100
,  // measure 18
0000
0010
1000
0000
0010
0100
0000
0010
,  // measure 19
1000
0000
0010
0100
0000
0001
1000
0000
,  // measure 20
0001
0010
0000
0001
1000
0000
0001
0010
,  // measure 21
0000
0001
1000
0000
0001
0100
0000
0010
,  // measure 22
1000
0000
0100
0010
0000
0001
0100
0000
,  // measure 23
0010
1000
0000
0001
0010
0000
0100
1000
,  // measure 24
0000
0001
0100
0000
0001
1000
0001
1000
,  // measure 25
0000
1000
0000
1000
0001
1000
0100
0010
,  // measure 26
0100
0010
0100
0010
0100
0010
0001
0000
,  // measure 27
1000
0001
0010
0001
0100
0010
1000
0000
,  // measure 28
0010
0100
0001
0000
1000
0100
0010
0000
,  // measure 29
0100
1000
0001
0000
1000
0000
0010
0100
,  // measure 30
0010
0100
0001
1000
0001
1000
0100
1000
,  // measure 31
0100
1000
0001
0010
0001
0010
0001
0000
,  // measure 32
1000
0001
1000
0100
0010
0001
1000
0001
,  // measure 33
0000
0001
0000
0001
0000
0001
1000
0000
,  // measure 34
0010
1000
0001
0010
0001
1000
0010
0100
,  // measure 35
0001
1000
0002
0000
2003
0000
3010
1000
,  // measure 36
0001
0100
0010
1000
0001
0000
1000
0100
,  // measure 37
0010
0001
1000
0100
0010
0000
0100
1000
,  // measure 38
0001
0000
0100
0010
1000
0000
0001
0010
,  // measure 39
0100
0000
0010
0001
1000
0000
0010
0000
,  // measure 40
0010
0100
0001
0000
1000
0100
0010
0100
,  // measure 41
0010
0100
1000
0000
0010
0100
0002
0000
,  // measure 42
0000
1000
0000
0000
1000
0000
0000
1000
,  // measure 43
0000
0000
1003
0100
0010
0001
0000
0001
,  // measure 44
0000
0000
0001
0000
0000
0001
0000
0000
,  // measure 45
0001
1000
0001
1000
0010
1000
0010
0100
,  // measure 46
0000
0100
0000
0000
0100
0000
0000
0100
,  // measure 47
0000
0000
0010
1000
0001
0010
0000
0010
,  // measure 48
0000
0000
0010
0000
0000
0010
0000
0000
,  // measure 49
0100
0010
0100
1000
0001
0000
1001
0000
,  // measure 50
1000
0100
0011
0001
,  // measure 51
0100
1010
1001
1100
,  // measure 52
0010
0001
1001
1000
,  // measure 53
0010
0000
0101
0000
0001
0000
1000
0100
,  // measure 54
0000
0100
0010
0000
0001
0100
0000
0100
,  // measure 55
0010
0000
1000
0001
1000
0001
0000
0010
,  // measure 56
0100
0000
0100
1000
0000
0010
0100
0000
,  // measure 57
0100
0001
0000
1000
0100
0010
0200
0000
,  // measure 58
0000
0000
0000
0300
,  // measure 59
0000
0000
0000
0000
0000
0110
2001
0000
,  // measure 60
3010
2000
0010
0000
3001
1000
0100
0010
,  // measure 61
0000
0001
0000
0001
0100
0010
2000
0000
,  // measure 62
3001
1000
0001
0000
1000
0100
0020
0000
,  // measure 63
0130
0000
1000
0001
1000
0001
2000
0000
,  // measure 64
3010
2000
0010
0000
3001
0100
0010
0000
,  // measure 65
1000
0001
1000
0000
0100
0010
0001
0000
,  // measure 66
0100
0010
0100
0000
0001
0000
1000
0001
,  // measure 67
0000
0001
0000
0001
1000
0000
1002
0000
,  // measure 68
0013
0002
0010
0000
1003
0010
0100
0001
,  // measure 69
0000
0001
0000
0010
0100
1000
0002
0000
,  // measure 70
0103
0010
0100
0000
0010
1000
0002
0000
,  // measure 71
1003
0000
0100
0010
0001
1000
0200
0000
,  // measure 72
0000
0320
0000
0000
0030
0001
1000
0001
,  // measure 73
0000
1000
0001
0000
1000
0001
0100
0000
,  // measure 74
0100
0000
0010
0000
0010
0000
1000
0001
,  // measure 75
1000
0100
0010
0002
0000
0000
1003
0100
,  // measure 76
0000
0010
0001
0000
1000
0010
0000
0100
,  // measure 77
0001
0000
0010
0100
0000
1000
0001
0000
,  // measure 78
0100
0010
0000
1000
0001
0000
1000
0100
,  // measure 79
0000
0010
0001
0000
1000
0010
0000
1000
,  // measure 80
0100
0000
0010
0100
0000
1000
0010
0000
,  // measure 81
0100
0001
0000
0010
0100
0000
0010
0001
,  // measure 82
0000
0100
0010
0000
1000
0001
0000
1000
,  // measure 83
0100
0000
0010
0100
1000
0001
1000
0000
,  // measure 84
0010
0100
0101
0001
,  // measure 85
1000
0000
0001
0010
0100
1000
0001
0000
,  // measure 86
0100
0010
1010
1000
,  // measure 87
0100
0000
0010
0001
1000
0000
0010
0100
,  // measure 88
0010
0100
0010
0100
0001
0000
0010
0100
,  // measure 89
0010
0100
0010
0100
1000
0000
0001
0100
,  // measure 90
0000
1000
0100
0000
0001
0100
0000
1000
,  // measure 91
0100
0000
0001
1000
0001
1000
0200
0000
,  // measure 92
0000
0000
0000
0000
,  // measure 93
0000
0000
0000
0000
0000
0300
MMMM
0000
;

//---------------dance-single - ----------------
#NOTEDATA:;
#CHARTNAME:;
#STEPSTYPE:dance-single;
#DESCRIPTION:;
#CHARTSTYLE:;
#DIFFICULTY:Beginner;
#METER:8;
#RADARVALUES:0.412309,0.570958,0.334627,0.242605,0.000000,345.000000,305.000000,40.000000,29.000000,0.000000,0.000000,0.000000,0.000000,0.000000,0.412309,0.570958,0.334627,0.242605,0.000000,345.000000,305.000000,40.000000,29.000000,0.000000,0.000000,0.000000,0.000000,0.000000;
#CREDIT:;
#OFFSET:-0.099322;
#BPMS:0.000000=197.000000
;
#STOPS:;
#DELAYS:;
#WARPS:;
#TIMESIGNATURES:0.000000=4=4
;
#TICKCOUNTS:0.000000=4
;
#COMBOS:0.000000=1
;
#SPEEDS:0.000000=1.000000=0.000000=0
;
#SCROLLS:0.000000=1.000000
;
#FAKES:;
#LABELS:0.000000=Song Start
;
#DISPLAYBPM:98.000000:197.000000;
#NOTES:
// measure 0
0000
0000
0000
0000
,  // measure 1
0220
0000
0000
0000
,  // measure 2
0000
0000
0000
0330
,  // measure 3
1001
0000
0000
0000
,  // measure 4
1001
0000
0000
1000
,  // measure 5
1001
0000
0000
0001
,  // measure 6
1001
0000
0000
0100
0000
0000
0100
0000
,  // measure 7
1001
0001
0100
0000
,  // measure 8
1001
1000
0100
0000
,  // measure 9
1001
0001
0100
0010
,  // measure 10
2000
0000
0000
0000
0000
3001
0000
0000
,  // measure 11
0001
1000
0100
1000
,  // measure 12
0001
0100
0001
1000
,  // measure 13
0001
0010
0100
0010
,  // measure 14
0001
0100
0001
0010
,  // measure 15
0100
1000
0010
1000
,  // measure 16
0100
0010
0100
1000
,  // measure 17
0001
0100
0001
1000
,  // measure 18
0100
1000
0001
0001
,  // measure 19
1000
0010
0100
0010
,  // measure 20
0001
0010
0100
0010
,  // measure 21
1000
0100
0010
0100
,  // measure 22
0001
0100
0010
0100
,  // measure 23
1000
0010
0100
1000
,  // measure 24
0100
0001
0010
0100
,  // measure 25
0001
0100
1000
0001
,  // measure 26
1001
0000
0000
0110
0000
1001
0000
0000
,  // measure 27
0220
0000
0000
0330
,  // measure 28
1000
0001
0100
0010
,  // measure 29
1000
0100
0010
0001
,  // measure 30
0010
0100
1000
0001
,  // measure 31
1000
1000
0010
0010
,  // measure 32
0100
0100
0001
0001
,  // measure 33
0100
0010
1000
0001
,  // measure 34
0110
0000
0000
1001
0000
0110
0000
0000
,  // measure 35
1001
1000
0100
0010
,  // measure 36
0001
1000
0010
0010
,  // measure 37
0100
0001
0010
0100
,  // measure 38
1000
0010
0100
0001
,  // measure 39
1000
0010
1000
0001
,  // measure 40
1000
0100
0010
0001
,  // measure 41
0100
0100
0010
0010
,  // measure 42
1000
0001
0010
0001
,  // measure 43
1000
0000
0000
1000
0000
0000
1000
0000
,  // measure 44
0000
1000
0000
0000
1000
0000
0001
0000
,  // measure 45
0000
0001
0000
0000
0001
0000
0000
0001
,  // measure 46
0000
0001
0010
0100
,  // measure 47
1000
0000
0000
1000
0000
0000
1000
0000
,  // measure 48
0000
1000
0000
0000
0010
0000
0010
0000
,  // measure 49
0000
0100
0000
0000
0100
0000
0000
0100
,  // measure 50
0000
0001
1000
1000
,  // measure 51
0110
0001
1000
0110
,  // measure 52
0001
1000
0011
1100
,  // measure 53
0011
0100
1000
1010
,  // measure 54
0100
0001
0110
1000
,  // measure 55
0001
0100
1000
0100
,  // measure 56
0001
0010
1000
0010
,  // measure 57
0001
0100
1000
0001
,  // measure 58
0010
1000
0001
0010
,  // measure 59
0200
0000
0000
0000
,  // measure 60
0000
0000
0000
0000
,  // measure 61
0300
0000
0000
0000
,  // measure 62
0000
0000
0000
0100
,  // measure 63
2001
0000
3000
0020
0000
0030
0100
0000
,  // measure 64
0001
0000
0000
1000
0000
0000
0001
0000
,  // measure 65
0002
0003
0010
0100
,  // measure 66
2000
3000
1001
1000
,  // measure 67
0020
0000
0030
0200
0000
0300
0001
0000
,  // measure 68
2000
3000
0100
0010
,  // measure 69
0002
0000
0003
2000
0000
3000
0000
0000
,  // measure 70
0110
0000
0000
1001
0000
0110
0000
0000
,  // measure 71
1002
0000
0003
0020
0000
0030
0100
0000
,  // measure 72
1000
0000
0000
0001
0000
0000
1000
0000
,  // measure 73
0020
0030
0100
0001
,  // measure 74
1001
0000
0100
0010
,  // measure 75
2002
0000
3003
0000
,  // measure 76
0100
0000
0100
0100
,  // measure 77
1002
0000
0000
2000
0000
0000
3003
0000
,  // measure 78
1000
0100
0020
0030
,  // measure 79
0001
1000
0100
1000
,  // measure 80
0001
0100
0001
1000
,  // measure 81
0010
0100
0001
0010
,  // measure 82
0100
0010
0001
0100
,  // measure 83
0010
1000
0100
0010
,  // measure 84
0100
1000
0010
0100
,  // measure 85
0001
1000
0100
1000
,  // measure 86
0001
0100
0001
0001
,  // measure 87
1000
0100
0001
1000
,  // measure 88
0010
0001
1000
1000
,  // measure 89
0001
0100
1000
0001
,  // measure 90
0010
1000
0001
0001
,  // measure 91
0220
0000
0330
1010
,  // measure 92
2002
0000
3003
0011
,  // measure 93
1001
0000
0000
1000
0000
0000
0001
0000
,  // measure 94
0000
1000
0000
0000
0110
0000
1001
0000
,  // measure 95
0220
0000
0000
0000
,  // measure 96
0000
0000
0000
0000
,  // measure 97
0000
0000
0330
0000
;
