#VERSION:0.83;
#TITLE:Deadly Blow;
#SUBTITLE:;
#ARTIST:Tomohiro;
#TITLETRANSLIT:;
#SUBTITLETRANSLIT:;
#ARTISTTRANSLIT:;
#GENRE:Agressive Techno;
#ORIGIN:;
#CREDIT:;
#BANNER:Deadly Blow.png;
#BACKGROUND:Deadly Blow-bg.png;
#PREVIEWVID:;
#JACKET:Deadly Blow-jacket.png;
#CDIMAGE:;
#DISCIMAGE:;
#LYRICSPATH:;
#CDTITLE:cdtitle.png;
#MUSIC:Deadly Blow.ogg;
#OFFSET:-0.022788;
#SAMPLESTART:24.798983;
#SAMPLELENGTH:12.387096;
#SELECTABLE:YES;
#BPMS:0.000=155.000;
#STOPS:224.000=1.161;
#DELAYS:;
#WARPS:;
#TIMESIGNATURES:0.000=4=4;
#TICKCOUNTS:0.000=4;
#COMBOS:0.000=1;
#SPEEDS:0.000=1.000=0.000=0;
#SCROLLS:0.000=1.000;
#FAKES:;
#LABELS:0.000=Song Start;
#BGCHANGES:;
#KEYSOUNDS:;
#ATTACKS:
;

//---------------dance-single - ----------------
#NOTEDATA:;
#CHARTNAME:;
#STEPSTYPE:dance-single;
#DESCRIPTION:;
#CHARTSTYLE:;
#DIFFICULTY:Challenge;
#METER:15;
#RADARVALUES:0.830021,1.021472,0.529947,0.154166,0.910545,603.000000,548.000000,55.000000,16.000000,24.000000,0.000000,2.000000,0.000000,0.000000,0.830021,1.021472,0.529947,0.154166,0.910545,603.000000,548.000000,55.000000,16.000000,24.000000,0.000000,2.000000,0.000000,0.000000;
#CREDIT:;
#OFFSET:-0.022788;
#BPMS:0.000000=155.000000
;
#STOPS:224.000000=1.161293
;
#DELAYS:;
#WARPS:;
#TIMESIGNATURES:0.000000=4=4
;
#TICKCOUNTS:0.000000=4
;
#COMBOS:0.000000=1
;
#SPEEDS:0.000000=1.000000=0.000000=0
;
#SCROLLS:0.000000=1.000000
;
#FAKES:;
#LABELS:0.000000=Song Start
;
#NOTES:
// measure 0
0000
0000
0000
0000
,  // measure 1
0000
0000
0000
0000
,  // measure 2
0000
0000
0000
0000
,  // measure 3
0000
0000
0000
0000
,  // measure 4
0001
0000
0100
0000
0001
0010
0000
0010
0001
0000
0100
0000
0010
1000
0000
1000
,  // measure 5
0010
0000
0100
0000
0001
0010
0000
0010
0001
0000
0100
0000
0010
1000
0000
1000
,  // measure 6
0100
0000
1000
0000
0010
1000
0000
1000
0100
0000
0010
0000
0001
0100
0000
0100
,  // measure 7
0001
0000
1000
0000
0010
1000
0000
1000
0100
0000
0010
0000
0001
0100
0000
0100
,  // measure 8
0001
0000
1000
0000
0100
0010
0000
0010
0100
0000
1000
0000
0010
0100
0000
0100
,  // measure 9
0001
0000
1000
0000
0100
0010
0000
0010
0100
0000
1000
0000
0010
0100
0000
0100
,  // measure 10
0001
0000
1000
0000
0001
0100
0000
0100
0001
0000
0010
0000
0100
1000
0000
1000
,  // measure 11
0100
0010
0001
1000
0100
0010
0001
1000
0100
0010
0100
1000
0100
0010
0100
1000
,  // measure 12
0002
0100
0100
0000
0000
1000
1000
0000
,  // measure 13
0000
0100
0100
0000
0000
1000
1000
0000
,  // measure 14
1003
0000
0100
1000
0010
0100
0001
0010
,  // measure 15
0100
1000
0010
0100
0001
1000
0100
0010
,  // measure 16
0001
0000
1000
0000
0010
1000
0000
0100
1000
0000
0010
0000
1010
0000
0000
0000
,  // measure 17
1000
0000
0001
0000
0010
0001
0000
0100
0001
0000
0010
0000
0011
0000
0000
0000
,  // measure 18
0001
0000
1000
0000
0001
0010
0000
0001
0100
0000
0010
0000
1010
0000
0000
0000
,  // measure 19
1000
0000
0001
0000
1000
0010
0000
1000
0100
0000
0010
0000
0011
0000
0000
0000
,  // measure 20
0001
0000
0010
0000
0100
1000
0000
0010
1000
0000
0100
0000
1100
0000
0000
0000
,  // measure 21
1000
0000
0010
0000
0100
0001
0000
0010
0001
0000
0100
0000
0101
0000
0000
0000
,  // measure 22
0001
0000
0100
0000
0010
1000
0000
0100
0010
0000
0100
0000
1100
0000
0000
0000
,  // measure 23
1000
0000
0000
00M1
M100
0000
0000
00M1
1M00
0000
1000
0000
1000
0000
1000
0000
,  // measure 24
0001
0000
0100
0000
0010
1000
0000
0010
0100
0000
0110
0000
0101
0000
0000
0000
,  // measure 25
1000
0000
0100
0000
0010
0001
0000
0010
0100
0000
0110
0000
1100
0000
0000
0000
,  // measure 26
0001
0000
1000
0000
0010
1000
0000
0100
0010
0000
0110
0000
0011
0000
0000
0000
,  // measure 27
1000
0000
0001
0000
0010
0001
0000
0100
0010
0000
0110
0000
1010
0000
0000
0000
,  // measure 28
0001
0000
1000
0000
0001
0010
0000
0001
0100
0000
0110
0000
0101
0000
0000
0000
,  // measure 29
1000
0000
0001
0000
1000
0010
0000
1000
0100
0000
0110
0000
1100
0000
0000
0000
,  // measure 30
0001
0000
0010
0000
0001
1000
0000
0100
0010
0000
0110
0000
0011
0000
0000
0000
,  // measure 31
1000
0010
1000
0010
0100
0001
0100
0001
1000
0100
1000
0100
0010
0001
0010
0001
,  // measure 32
1000
0000
0100
0000
1000
0010
0000
0100
0000
0000
0000
0000
MMMM
0000
0000
0000
,  // measure 33
0001
0000
0100
0000
0001
0010
0000
0100
0000
0000
0000
0000
MMMM
0000
0000
0000
,  // measure 34
1000
0000
0010
0000
1000
0100
0000
0010
0000
0000
0000
0000
MMMM
0000
0000
0000
,  // measure 35
0001
0000
0010
0000
0001
0100
0000
0010
0000
0000
0000
0000
MMMM
0000
0000
0000
,  // measure 36
1000
0010
1000
0010
1000
0010
1000
0010
1000
0010
1000
0010
1000
0010
1000
0010
,  // measure 37
1000
0001
1000
0001
1000
0001
1000
0001
1000
0001
1000
0001
1000
0001
1000
0001
,  // measure 38
0010
0001
0010
0001
0010
0001
0010
0001
0010
0001
0010
0001
0010
0001
0010
0001
,  // measure 39
0010
0100
0010
0100
0010
0100
0010
0100
0010
0100
0010
0100
0010
0001
0100
0010
,  // measure 40
1000
0000
0010
0000
1000
0100
0000
1000
0001
0000
0011
0000
1010
0000
1000
0000
,  // measure 41
0001
0000
0010
0000
0001
0100
0000
0001
1000
0000
1010
0000
0011
0000
0001
0000
,  // measure 42
1000
0000
0100
0000
0010
0001
0000
0100
0001
0000
0011
0000
1010
0000
1000
0000
,  // measure 43
0001
0000
0100
0000
0010
1000
0000
0100
1000
0000
1010
0000
0011
0000
0001
0000
,  // measure 44
0100
0000
0010
0000
0100
0001
0000
0010
0001
0000
0101
0000
1100
0000
1000
0000
,  // measure 45
0100
0000
0010
0000
0100
1000
0000
0010
1000
0000
1100
0000
0101
0000
0001
0000
,  // measure 46
0010
0000
0100
0000
1000
0010
0000
1000
0100
0000
1100
0000
0101
0000
0001
0000
,  // measure 47
1000
0000
0000
00M1
M100
0000
0000
00M1
1M00
0000
1000
0000
1000
0000
1000
0000
,  // measure 48
0001
0000
0100
0000
0010
0100
0000
0010
1000
0000
1010
0000
0011
0000
0001
0000
,  // measure 49
1000
0000
0100
0000
0010
0100
0000
0010
0001
0000
0101
0000
1100
0000
1000
0000
,  // measure 50
0010
0000
1000
0000
0001
0010
0000
0100
1000
0000
1100
0000
0101
0000
0001
0000
,  // measure 51
0010
0000
0001
0000
1000
0010
0000
0100
0001
0000
0011
0000
1010
0000
1000
0000
,  // measure 52
0001
0200
0000
0000
0320
0000
0000
2030
0000
0000
3200
0000
0000
0320
0000
0000
,  // measure 53
0032
0000
0000
0203
0000
0000
0320
0000
0000
2030
0000
0000
3200
0000
0000
0320
,  // measure 54
0000
0000
0032
0000
0000
0203
0000
0000
0320
0000
0000
2030
0000
0000
3001
0000
,  // measure 55
1001
0000
0001
0000
0010
0100
0000
0010
0000
0100
0010
0000
0001
0010
0100
1000
,  // measure 56
0001
0000
0000
0000
1001
0000
1001
0000
0010
0000
1000
0000
0010
1000
0100
0000
,  // measure 57
0010
0000
0011
0000
1000
0001
1000
0000
0010
0100
0000
0010
0000
0100
0001
0000
,  // measure 58
0010
0100
1000
0000
0001
0100
0001
0100
0010
0100
0000
0100
0000
1010
0000
0000
,  // measure 59
1001
0000
0000
0000
0000
0000
0000
0000
0000
0000
0000
0000
4000
0000
0000
0100
0000
0000
0000
0000
0000
0010
3000
0000
1000
0000
0000
0100
0000
0000
0000
0000
0000
1000
0000
0000
0000
0000
0000
0110
0000
0000
0000
0000
0000
0000
0000
0000
,  // measure 60
0001
0000
0100
0000
0001
0000
0100
0000
0000
0010
0000
0000
1000
0000
0000
0000
0000
0000
1001
0000
0000
0000
0000
0000
1000
0000
0000
0001
0000
0000
0000
0000
0000
0000
0000
0000
0010
0000
0000
0000
0000
0000
1001
0000
0000
0000
0000
0000
,  // measure 61
1000
0000
0100
0000
0010
0001
0010
0000
0001
1000
0000
1000
0000
1000
0010
0000
,  // measure 62
0100
0001
0010
0000
0100
1000
0100
1000
0001
1000
0000
1000
0000
0101
0000
0000
,  // measure 63
1010
0000
0000
0000
0000
0000
0000
0000
0000
0000
0000
0000
0004
0000
0000
0100
0000
0000
0000
0000
0000
0010
0003
0000
0001
0000
0000
0100
0000
0000
0000
0000
0000
0010
0000
0000
0000
0000
0000
0101
0000
0000
0000
0000
0000
0000
0000
0000
,  // measure 64
1000
0000
0100
0000
1000
0000
0100
0000
0000
0010
0000
0000
0001
0000
0000
0000
0000
0000
0000
0000
0000
0000
0000
0000
0000
0000
0000
0000
0000
0000
0000
0000
0000
0000
0000
0000
0000
0000
0000
0000
0000
0000
0000
0000
0000
0000
0000
0000
;

//---------------dance-single - ----------------
#NOTEDATA:;
#CHARTNAME:;
#STEPSTYPE:dance-single;
#DESCRIPTION:;
#CHARTSTYLE:;
#DIFFICULTY:Hard;
#METER:13;
#RADARVALUES:0.646948,0.680982,0.346874,0.337239,0.462499,470.000000,434.000000,36.000000,35.000000,0.000000,0.000000,0.000000,0.000000,0.000000,0.646948,0.680982,0.346874,0.337239,0.462499,470.000000,434.000000,36.000000,35.000000,0.000000,0.000000,0.000000,0.000000,0.000000;
#CREDIT:;
#OFFSET:-0.022788;
#BPMS:0.000000=155.000000
;
#STOPS:224.000000=1.161293
;
#DELAYS:;
#WARPS:;
#TIMESIGNATURES:0.000000=4=4
;
#TICKCOUNTS:0.000000=4
;
#COMBOS:0.000000=1
;
#SPEEDS:0.000000=1.000000=0.000000=0
;
#SCROLLS:0.000000=1.000000
;
#FAKES:;
#LABELS:0.000000=Song Start
;
#NOTES:
// measure 0
0000
0000
0000
0000
,  // measure 1
0000
0000
0000
0000
,  // measure 2
0000
0000
0000
0000
,  // measure 3
0000
0000
0000
0000
,  // measure 4
1000
0100
0010
0000
0010
0100
1000
0000
,  // measure 5
0001
0100
0010
0000
0010
0100
0001
0000
,  // measure 6
0010
0100
1000
0000
1000
0010
0100
0000
,  // measure 7
0010
0100
0001
0000
0001
0010
0100
0000
,  // measure 8
1000
0100
0001
0000
0001
0100
0010
0000
,  // measure 9
0001
0100
1000
0000
1000
0100
0010
0000
,  // measure 10
1000
0010
0001
0000
0001
0010
1000
0000
,  // measure 11
1000
0100
0010
0001
0100
0010
1000
0001
,  // measure 12
2000
0001
0001
0000
0000
0100
0100
0000
,  // measure 13
0000
0001
0001
0000
0000
0100
0100
0000
,  // measure 14
3100
0000
0100
1000
0010
0100
0001
0010
,  // measure 15
0100
1000
0010
0100
0001
1000
0100
0010
,  // measure 16
0001
0000
0100
0000
0010
1000
0000
0001
0000
0000
0100
0000
0101
0000
0000
0000
,  // measure 17
1000
0000
0100
0000
0010
0001
0000
1000
0000
0000
0100
0000
1100
0000
0000
0000
,  // measure 18
0001
0000
1000
0000
0010
1000
0000
0100
0000
0000
0010
0000
0011
0000
0000
0000
,  // measure 19
1000
0000
0001
0000
0010
0001
0000
0100
0000
0000
0010
0000
1010
0000
0000
0000
,  // measure 20
0001
0000
0100
0000
0001
1000
0000
0100
0000
0000
0010
0000
0011
0000
0000
0000
,  // measure 21
1000
0000
0100
0000
1000
0001
0000
0100
0000
0000
0010
0000
1010
0000
0000
0000
,  // measure 22
0100
0000
0001
0000
1000
0100
0000
0010
0000
0000
0001
0000
1001
0000
0000
0000
,  // measure 23
0001
0000
0000
0001
1000
0000
0000
1000
0001
0000
1000
0000
0001
0000
1000
0000
,  // measure 24
0001
0000
0100
0000
0010
1000
0000
0001
0000
0000
0102
0000
1000
0000
0000
0000
,  // measure 25
1003
0000
0100
0000
0010
0001
0000
1000
0000
0000
2100
0000
0001
0000
0000
0000
,  // measure 26
3001
0000
1000
0000
0010
1000
0000
0100
0000
0000
0012
0000
1000
0000
0000
0000
,  // measure 27
1003
0000
0001
0000
0010
0001
0000
0100
0000
0000
2010
0000
0001
0000
0000
0000
,  // measure 28
3001
0000
0100
0000
0001
1000
0000
0100
0000
0000
1002
0000
0100
0000
0000
0000
,  // measure 29
1003
0000
0100
0000
1000
0001
0000
0100
0000
0000
2001
0000
0100
0000
0000
0000
,  // measure 30
3001
0000
0100
0000
0010
1000
0000
0100
0000
0000
0021
0000
0100
0000
0000
0000
,  // measure 31
0031
1000
0001
1000
0001
2010
0001
3001
,  // measure 32
1000
0000
0100
0000
1000
0001
0000
0100
0000
0000
0000
0000
0110
0000
0000
0000
,  // measure 33
0001
0000
0100
0000
0001
1000
0000
0100
0000
0000
0000
0000
0110
0000
0000
0000
,  // measure 34
1000
0000
0010
0000
1000
0001
0000
0010
0000
0000
0000
0000
0110
0000
0000
0000
,  // measure 35
0001
0000
0010
0000
0001
1000
0000
0010
0000
0000
0000
0000
0110
0000
0000
0000
,  // measure 36
1000
0010
1000
0010
0100
0001
0010
0001
,  // measure 37
0100
0010
0100
0010
1000
0100
0010
0100
,  // measure 38
1000
0001
1000
0001
0100
0010
1000
0100
,  // measure 39
0001
0100
1000
0100
0001
0100
1000
0010
,  // measure 40
1000
0000
0100
0000
0010
0001
0000
0010
0001
0000
2001
0000
0010
0000
0000
0000
,  // measure 41
3001
0000
0100
0000
0010
1000
0000
0010
1000
0000
1002
0000
0010
0000
0000
0000
,  // measure 42
1003
0000
0010
0000
0100
0001
0000
0100
0001
0000
2001
0000
0100
0000
0000
0000
,  // measure 43
3001
0000
0010
0000
0100
1000
0000
0100
1000
0000
1002
0000
0100
0000
0000
0000
,  // measure 44
1003
0000
0001
0000
0100
0010
0000
0100
0010
0000
2010
0000
0001
0000
0000
0000
,  // measure 45
3001
0000
1000
0000
0100
0010
0000
0100
0010
0000
0012
0000
1000
0000
0000
0000
,  // measure 46
1003
0000
0010
0000
1000
0001
0000
1000
0001
0000
0201
0000
0010
0000
0000
0000
,  // measure 47
0301
0000
0000
0001
1000
0000
0000
1000
0001
0000
1000
0000
0001
0000
1000
0000
,  // measure 48
0100
0000
0010
0000
0001
0100
0000
0100
0010
0000
1000
0000
1001
0000
0001
0000
,  // measure 49
0100
0000
0010
0000
1000
0100
0000
0100
0010
0000
0001
0000
1001
0000
1000
0000
,  // measure 50
0010
0000
0100
0000
0001
0010
0000
0001
0100
0000
0010
0000
1010
0000
0010
0000
,  // measure 51
0100
0000
0001
0000
1000
0010
0000
1000
0100
0000
0010
0000
0011
0000
0010
0000
,  // measure 52
0001
0200
0000
0000
0302
0000
0000
2003
0000
0000
3200
0000
0000
2300
0000
0000
,  // measure 53
3002
0000
0000
0023
0000
0000
0032
0000
0000
2003
0000
0000
3020
0000
0000
2030
,  // measure 54
0000
0000
3002
0000
0000
0023
0000
0000
0230
0000
0000
2300
0000
0000
3010
0000
,  // measure 55
0220
0000
0000
0330
,  // measure 56
1001
0000
0000
0000
0001
0000
1000
0000
0100
0000
0000
0000
1000
0001
1000
0000
,  // measure 57
0010
0000
0010
0000
1000
0001
1000
0000
0100
0000
0000
0010
0000
0010
0001
0000
,  // measure 58
1000
0010
1000
0000
0100
0000
0010
0000
0001
0100
0000
0010
0000
0110
0000
0000
,  // measure 59
0001
0000
0000
0000
2000
0000
3001
0000
1000
0100
0000
0010
0000
0110
0000
0000
,  // measure 60
0001
0010
0001
0010
0001
0000
1000
0000
0001
0100
0000
0000
0001
0000
0100
0000
,  // measure 61
1000
0000
0100
0000
0001
1000
0001
0000
0010
0000
0000
0100
0000
0100
1000
0000
,  // measure 62
0010
1000
0010
0000
0100
0000
0001
0000
0010
0100
0000
0010
0000
0011
0000
0000
,  // measure 63
1000
0000
0000
0000
0002
0000
1003
0000
0010
0100
0000
0010
0000
1010
0000
0000
,  // measure 64
0001
1000
0001
1000
0001
0000
0000
0000
0000
0000
0000
0000
0000
0000
0000
0000
;

//---------------dance-single - ----------------
#NOTEDATA:;
#CHARTNAME:;
#STEPSTYPE:dance-single;
#DESCRIPTION:;
#CHARTSTYLE:;
#DIFFICULTY:Medium;
#METER:10;
#RADARVALUES:0.484523,0.526213,0.240885,0.134896,0.000000,352.000000,327.000000,25.000000,14.000000,0.000000,0.000000,0.000000,0.000000,0.000000,0.484523,0.526213,0.240885,0.134896,0.000000,352.000000,327.000000,25.000000,14.000000,0.000000,0.000000,0.000000,0.000000,0.000000;
#CREDIT:;
#OFFSET:-0.022788;
#BPMS:0.000000=155.000000
;
#STOPS:224.000000=1.161293
;
#DELAYS:;
#WARPS:;
#TIMESIGNATURES:0.000000=4=4
;
#TICKCOUNTS:0.000000=4
;
#COMBOS:0.000000=1
;
#SPEEDS:0.000000=1.000000=0.000000=0
;
#SCROLLS:0.000000=1.000000
;
#FAKES:;
#LABELS:0.000000=Song Start
;
#NOTES:
// measure 0
0000
0000
0000
0000
,  // measure 1
0000
0000
0000
0000
,  // measure 2
0000
0000
0000
0000
,  // measure 3
0000
0000
0000
0000
,  // measure 4
0001
1000
0010
0000
0010
1000
0001
0000
,  // measure 5
0001
1000
0100
0000
0100
1000
0001
0000
,  // measure 6
0010
0001
1000
0000
1000
0001
0100
0000
,  // measure 7
0100
0001
1000
0000
1000
0001
0010
0000
,  // measure 8
0001
0100
0010
0000
0010
0100
0001
0000
,  // measure 9
1000
0100
0010
0000
0010
0100
1000
0000
,  // measure 10
0001
0100
0010
0000
1000
0100
0010
0000
,  // measure 11
0001
1000
0001
1000
0001
1000
0001
1000
,  // measure 12
0002
1000
0000
0100
,  // measure 13
0000
1000
0000
0100
,  // measure 14
1003
2000
3200
0320
,  // measure 15
0032
0203
0320
2030
,  // measure 16
3001
0100
0010
0000
1000
0000
1010
0000
,  // measure 17
1000
0100
0010
0000
0001
0000
0011
0000
,  // measure 18
0001
0010
0100
0000
1000
0000
1100
0000
,  // measure 19
1000
0010
0100
0000
0001
0000
0101
0000
,  // measure 20
0010
1000
0100
0000
1000
0000
1001
0000
,  // measure 21
0010
0001
0100
0000
0001
0000
1001
0000
,  // measure 22
0010
1000
0001
0000
0100
0000
1010
0000
,  // measure 23
0001
0000
0001
0000
0001
0100
0010
1000
,  // measure 24
0001
0000
0101
0000
0001
0100
1000
0000
,  // measure 25
0100
0000
1100
0000
1000
0100
0001
0000
,  // measure 26
0010
0000
0011
0000
0001
0010
1000
0000
,  // measure 27
0010
0000
1010
0000
1000
0010
0001
0000
,  // measure 28
0100
0000
1001
0000
1000
0100
0001
0000
,  // measure 29
0100
0000
1001
0000
0001
0100
1000
0000
,  // measure 30
0100
0000
1001
0000
0001
0010
1000
0000
,  // measure 31
0010
0001
0010
0001
1000
0001
0100
0001
,  // measure 32
1000
0100
1000
0000
,  // measure 33
0001
0100
0001
0000
,  // measure 34
1000
0010
1000
0000
,  // measure 35
0001
0010
0001
0000
,  // measure 36
1000
0100
1000
0000
0001
0100
0001
0000
,  // measure 37
1000
0010
1000
0000
0001
0010
0001
0000
,  // measure 38
1000
0001
1000
0001
1000
0001
1000
0001
,  // measure 39
0100
0010
0100
0010
0100
0010
0100
0010
,  // measure 40
0100
0000
1001
0000
0001
0010
1000
0000
,  // measure 41
0010
0000
0011
0000
1000
0010
0001
0000
,  // measure 42
0010
0000
1010
0000
0001
0100
1000
0000
,  // measure 43
0100
0000
0101
0000
1000
0100
0001
0000
,  // measure 44
0100
0000
1100
0000
0010
0001
0100
0000
,  // measure 45
0001
0000
0101
0000
0010
1000
0100
0000
,  // measure 46
0010
0000
0110
0000
1000
0001
1000
0000
,  // measure 47
0010
0000
0010
0000
1000
0100
0010
0001
,  // measure 48
1000
0100
0001
0000
0001
0200
1000
0000
,  // measure 49
0310
0001
0100
0000
1000
0200
0001
0000
,  // measure 50
0310
1000
0100
0000
1000
0020
0001
0000
,  // measure 51
0130
0010
1000
0000
0001
0020
1000
0000
,  // measure 52
0130
1000
0001
0000
0100
0001
1000
0000
,  // measure 53
0100
1000
0001
0000
0100
0001
1000
0000
,  // measure 54
0100
1000
0001
0000
0100
0001
1000
0000
,  // measure 55
2002
0000
0000
3003
,  // measure 56
0110
0000
0001
1000
0100
1000
0100
0010
,  // measure 57
0001
0000
1000
0001
0100
0001
0100
0010
,  // measure 58
1000
0000
0001
0100
0010
0000
0010
0100
,  // measure 59
0101
0000
1000
0100
0010
0000
0010
0100
,  // measure 60
1000
1000
0001
0100
0010
1000
0010
1000
,  // measure 61
0100
0000
1000
0100
0010
0001
0010
0001
,  // measure 62
0100
0000
0001
1000
0100
0000
0010
0100
,  // measure 63
0110
0000
1000
0001
0100
0000
0001
0100
,  // measure 64
0001
0100
1000
0000
0000
0000
0000
0000
;

//---------------dance-single - ----------------
#NOTEDATA:;
#CHARTNAME:;
#STEPSTYPE:dance-single;
#DESCRIPTION:;
#CHARTSTYLE:;
#DIFFICULTY:Easy;
#METER:6;
#RADARVALUES:0.370275,0.433352,0.395051,0.028906,0.000000,269.000000,228.000000,41.000000,3.000000,0.000000,0.000000,0.000000,0.000000,0.000000,0.370275,0.433352,0.395051,0.028906,0.000000,269.000000,228.000000,41.000000,3.000000,0.000000,0.000000,0.000000,0.000000,0.000000;
#CREDIT:;
#OFFSET:-0.022788;
#BPMS:0.000000=155.000000
;
#STOPS:224.000000=1.161293
;
#DELAYS:;
#WARPS:;
#TIMESIGNATURES:0.000000=4=4
;
#TICKCOUNTS:0.000000=4
;
#COMBOS:0.000000=1
;
#SPEEDS:0.000000=1.000000=0.000000=0
;
#SCROLLS:0.000000=1.000000
;
#FAKES:;
#LABELS:0.000000=Song Start
;
#NOTES:
// measure 0
0000
0000
0000
0000
,  // measure 1
0000
0000
0000
0000
,  // measure 2
0000
0000
0000
0000
,  // measure 3
0000
0000
0000
0000
,  // measure 4
0001
0100
0001
0010
,  // measure 5
0100
1000
0010
1000
,  // measure 6
0100
0010
0001
0100
,  // measure 7
0001
0010
0100
1000
,  // measure 8
0010
0100
0001
0010
,  // measure 9
0001
0100
0010
1000
,  // measure 10
0100
1000
0010
0100
,  // measure 11
0001
0010
0100
1000
,  // measure 12
0002
1000
0000
1000
,  // measure 13
0000
1000
0000
1000
,  // measure 14
1003
0001
0010
0100
,  // measure 15
1000
0001
0100
0010
,  // measure 16
1000
0100
0010
0001
,  // measure 17
0001
0100
0010
1000
,  // measure 18
1000
0001
0010
0100
,  // measure 19
0100
1000
0010
0100
,  // measure 20
0100
0001
1000
0100
,  // measure 21
0100
1000
0001
0100
,  // measure 22
0100
0010
1000
0100
,  // measure 23
1000
0001
1000
0001
,  // measure 24
1000
0100
0010
0011
,  // measure 25
0001
0100
0010
1010
,  // measure 26
1000
0001
0010
0110
,  // measure 27
0100
1000
0010
0110
,  // measure 28
0100
0001
1000
1100
,  // measure 29
0100
1000
0001
0101
,  // measure 30
0100
0010
1000
1100
,  // measure 31
1000
0010
0100
0001
,  // measure 32
1000
1000
0000
0000
,  // measure 33
0001
0001
0000
0000
,  // measure 34
0010
0010
0000
0000
,  // measure 35
0100
0100
0000
0000
,  // measure 36
1000
1000
0100
0100
,  // measure 37
0010
0010
0001
0001
,  // measure 38
1000
0100
0010
0001
,  // measure 39
0100
0010
0100
0010
,  // measure 40
1000
0001
0100
1001
,  // measure 41
0001
1000
0100
1001
,  // measure 42
1000
0001
0010
1001
,  // measure 43
0001
1000
0010
1001
,  // measure 44
1000
0001
0010
0110
,  // measure 45
0001
1000
0010
0110
,  // measure 46
1000
0001
0100
0110
,  // measure 47
0001
0100
0010
1000
,  // measure 48
0001
0011
0001
1100
,  // measure 49
1000
1010
1000
0101
,  // measure 50
0010
1010
0010
1100
,  // measure 51
0010
0011
0010
0101
,  // measure 52
1000
0001
1000
0001
,  // measure 53
1000
0001
1000
0001
,  // measure 54
1000
0001
1000
0001
,  // measure 55
0220
0000
0000
0330
,  // measure 56
1001
1001
1001
0010
,  // measure 57
0100
0101
1100
1000
,  // measure 58
0010
1010
1100
0100
,  // measure 59
0010
0011
0101
0100
,  // measure 60
0010
1001
1001
0100
,  // measure 61
0010
1001
1100
0010
,  // measure 62
0001
1001
0101
0010
,  // measure 63
1000
0101
1100
0010
,  // measure 64
0100
1001
0000
0000
;

//---------------dance-single - ----------------
#NOTEDATA:;
#CHARTNAME:;
#STEPSTYPE:dance-single;
#DESCRIPTION:;
#CHARTSTYLE:;
#DIFFICULTY:Beginner;
#METER:3;
#RADARVALUES:0.178943,0.250520,0.134896,0.028906,0.000000,130.000000,116.000000,14.000000,3.000000,0.000000,0.000000,0.000000,0.000000,0.000000,0.178943,0.250520,0.134896,0.028906,0.000000,130.000000,116.000000,14.000000,3.000000,0.000000,0.000000,0.000000,0.000000,0.000000;
#CREDIT:;
#OFFSET:-0.022788;
#BPMS:0.000000=155.000000
;
#STOPS:;
#DELAYS:;
#WARPS:;
#TIMESIGNATURES:0.000000=4=4
;
#TICKCOUNTS:0.000000=4
;
#COMBOS:0.000000=1
;
#SPEEDS:0.000000=1.000000=0.000000=0
;
#SCROLLS:0.000000=1.000000
;
#FAKES:;
#LABELS:0.000000=Song Start
;
#NOTES:
// measure 0
0000
0000
0000
0000
,  // measure 1
0000
0000
0000
0000
,  // measure 2
0000
0000
0000
0000
,  // measure 3
0000
0000
0000
0000
,  // measure 4
1000
0000
0001
0000
,  // measure 5
1000
0000
0001
0000
,  // measure 6
0100
0000
0010
0000
,  // measure 7
0100
0000
0010
0000
,  // measure 8
1000
0000
0001
0000
,  // measure 9
1000
0000
0001
0000
,  // measure 10
0010
0000
0100
0000
,  // measure 11
0010
0000
0100
0000
,  // measure 12
2002
0000
0000
0000
,  // measure 13
0000
0000
0000
0000
,  // measure 14
3003
0000
0000
0000
,  // measure 15
0000
0000
0000
0000
,  // measure 16
0000
1000
0000
0001
,  // measure 17
0000
1000
0000
0001
,  // measure 18
0000
0100
0000
0010
,  // measure 19
0000
0100
0000
0010
,  // measure 20
0000
1000
0000
0100
,  // measure 21
0000
1000
0000
0100
,  // measure 22
0000
0010
0000
0001
,  // measure 23
0000
1000
1000
1000
,  // measure 24
0000
0001
0000
0100
,  // measure 25
0000
0001
0000
1000
,  // measure 26
0000
0001
0000
0010
,  // measure 27
0000
0001
0000
0100
,  // measure 28
0000
0010
0000
1000
,  // measure 29
0000
0100
0000
0010
,  // measure 30
0000
0100
0000
1000
,  // measure 31
0000
0001
0001
0001
,  // measure 32
1000
0000
0000
0000
,  // measure 33
0001
0000
0000
0000
,  // measure 34
0010
0000
0000
0000
,  // measure 35
0100
0000
0000
0000
,  // measure 36
1000
0000
1000
0000
,  // measure 37
0001
0000
0001
0000
,  // measure 38
1000
0000
0001
0000
,  // measure 39
1000
1000
0001
0001
,  // measure 40
0000
0001
0000
0010
,  // measure 41
0000
0100
0000
1000
,  // measure 42
0000
0010
0000
0100
,  // measure 43
0000
0001
0000
0010
,  // measure 44
0000
0001
0000
0100
,  // measure 45
0000
0010
0000
1000
,  // measure 46
0000
0100
0000
0010
,  // measure 47
0000
0001
0001
0001
,  // measure 48
0000
1000
0000
1001
,  // measure 49
0000
0001
0000
1001
,  // measure 50
0000
1000
0000
1001
,  // measure 51
0000
0001
0000
1001
,  // measure 52
0000
1000
0000
0100
,  // measure 53
0000
0010
0000
0001
,  // measure 54
0000
1000
0000
0001
,  // measure 55
0002
0000
0000
0003
,  // measure 56
1001
0000
0000
0000
,  // measure 57
1001
0000
0010
0000
,  // measure 58
1001
0000
0100
0000
,  // measure 59
1001
0000
1000
0000
,  // measure 60
1001
0000
0001
0000
,  // measure 61
1001
0000
0010
0000
,  // measure 62
1001
0000
0100
0000
,  // measure 63
1001
0000
1000
0000
,  // measure 64
1001
0000
0001
0001
,  // measure 65
0001
0000
0000
0000
;
