#VERSION:0.83;
#TITLE:Dark Prism;
#SUBTITLE:;
#ARTIST:Tsukasa;
#TITLETRANSLIT:;
#SUBTITLETRANSLIT:;
#ARTISTTRANSLIT:;
#GENRE:Melodic Trance;
#ORIGIN:;
#CREDIT:;
#BANNER:Dark Prism.png;
#BACKGROUND:Dark Prism-bg.png;
#PREVIEWVID:;
#JACKET:Dark Prism-jacket.png;
#CDIMAGE:;
#DISCIMAGE:;
#LYRICSPATH:;
#CDTITLE:cdtitle.png;
#MUSIC:Dark Prism.ogg;
#OFFSET:1.325928;
#SAMPLESTART:79.208984;
#SAMPLELENGTH:12.885902;
#SELECTABLE:YES;
#BPMS:0.000=149.000,
136.000=74.500,
152.000=149.000;
#STOPS:;
#DELAYS:;
#WARPS:;
#TIMESIGNATURES:0.000=4=4;
#TICKCOUNTS:0.000=4;
#COMBOS:0.000=1;
#SPEEDS:0.000=1.000=0.000=0;
#SCROLLS:0.000=1.000;
#FAKES:;
#LABELS:0.000=Song Start;
#BGCHANGES:2.375=Dark Prism.avi=1.000=1=0=0=StretchNoLoop==CrossFade==,
279.750=Dark Prism-bg.png=1.000=1=0=1===CrossFade==,
99999=-nosongbg-=1.000=0=0=0 // don't automatically add -songbackground-
;
#KEYSOUNDS:;
#ATTACKS:
;

//---------------dance-single - ----------------
#NOTEDATA:;
#CHARTNAME:;
#STEPSTYPE:dance-single;
#DESCRIPTION:;
#CHARTSTYLE:;
#DIFFICULTY:Challenge;
#METER:15;
#RADARVALUES:0.740891,0.832173,0.155915,0.393891,0.775474,632.000000,613.000000,19.000000,48.000000,0.000000,0.000000,0.000000,0.000000,0.000000,0.740891,0.832173,0.155915,0.393891,0.775474,632.000000,613.000000,19.000000,48.000000,0.000000,0.000000,0.000000,0.000000,0.000000;
#CREDIT:;
#NOTES:
// measure 0
0000
0000
0000
0000
,  // measure 1
0000
0000
0000
0000
,  // measure 2
0000
0000
0000
0000
,  // measure 3
0000
0000
0000
0000
,  // measure 4
0000
0000
0000
0000
,  // measure 5
0000
0000
0000
0000
,  // measure 6
1000
0000
0001
0000
0100
0000
0001
0000
0010
0000
0100
0010
0000
0100
1000
0000
,  // measure 7
0001
0000
0100
0000
0010
0000
1000
0000
0001
0000
1000
0000
0100
0010
0001
0000
,  // measure 8
1000
0000
0010
0000
0100
0000
0001
0000
0010
0000
0100
1000
0000
0001
0100
0000
,  // measure 9
0010
0000
1000
0000
0001
0010
0001
0000
0011
0000
0000
0011
0000
0000
1100
0000
,  // measure 10
1001
0000
0002
0103
0010
0200
1300
0100
,  // measure 11
0020
1030
0100
0002
0103
0010
0002
0103
,  // measure 12
0010
0000
2000
0000
3001
0000
1000
0000
0100
0000
0010
0001
0000
1000
0010
0000
,  // measure 13
0100
0000
0001
0000
1000
0010
0000
0010
0100
0000
0001
0010
0000
0010
0100
0000
,  // measure 14
1000
0100
0020
0031
0100
2000
3100
0010
,  // measure 15
2000
3001
0010
0200
1300
0010
0002
1003
,  // measure 16
0100
0000
0020
0000
1030
0000
0001
0000
0010
0000
0100
1000
0000
0001
0100
0000
,  // measure 17
0010
0000
1000
0000
0010
1000
0100
0010
0001
0000
0000
0011
0000
0000
0110
0000
,  // measure 18
1100
0000
1000
0100
0020
0000
0031
0000
0100
0000
2000
0000
3100
0000
0001
0000
,  // measure 19
0020
0031
0100
0020
1030
0100
0002
0103
,  // measure 20
1000
0000
0020
0000
0130
0000
0010
0100
0001
0000
1000
0100
0000
0010
0000
0100
,  // measure 21
1000
0000
0001
0100
0000
0010
0000
0100
0001
0000
0001
0010
0000
0010
0100
0000
,  // measure 22
1000
0000
0001
0100
0020
0000
1030
0000
0100
0000
0002
0000
0103
0000
1000
0000
,  // measure 23
0020
0130
0001
0020
0130
0010
2000
3001
,  // measure 24
0100
0000
2000
0000
3001
0000
0100
0010
1000
0000
0001
0010
0000
0100
0000
0010
,  // measure 25
0001
0000
1000
0010
0000
0100
0000
0010
1000
0000
1000
0001
0000
0001
0010
0000
,  // measure 26
0011
0000
0000
0000
0001
0000
0000
0000
0001
0000
1000
0010
0000
0100
0001
0000
,  // measure 27
1000
0000
0000
0000
1000
0000
0000
0000
1000
0000
0001
0010
0000
0100
1000
0000
,  // measure 28
0001
0000
0000
0000
0001
0000
0000
0000
0001
0000
0100
0010
0000
0100
0001
0000
,  // measure 29
1000
0000
0000
0000
1000
0000
0000
0000
1000
0000
0100
0010
0000
0100
1000
0000
,  // measure 30
0001
0000
0010
0001
0000
1000
0010
0000
1000
0000
0100
1000
0000
0001
0100
0000
,  // measure 31
0001
0000
1000
0010
0000
1000
0100
0000
1000
0000
0100
0000
0010
0000
0001
0000
,  // measure 32
1000
0010
1000
0010
0100
0001
0100
0001
1000
0010
1000
0010
0100
0001
0100
0001
,  // measure 33
1000
0000
0010
1000
0000
1000
0100
0000
0010
0001
0000
0001
0100
0000
0110
0000
,  // measure 34
1001
0000
0002
0000
0000
0023
0130
2000
0001
0000
0000
3010
0000
0100
0010
0100
,  // measure 35
0001
0000
2000
0000
0000
3200
0310
0002
1000
0000
0000
0013
0000
0001
0100
0010
,  // measure 36
1000
0000
0000
0000
0020
0000
0000
0000
0000
0000
0230
0000
0301
0000
2000
0000
0100
0000
0000
0000
0000
0000
3001
0000
0000
0000
0000
0000
1000
0000
0100
0010
,  // measure 37
0001
0000
2000
0000
0000
0000
3020
0000
0000
0000
0230
0000
0000
0000
0301
0000
1000
0000
0100
0000
0010
0000
0001
0000
1000
0100
1000
0100
0010
0001
0010
0001
,  // measure 38
1000
0000
0001
0000
1000
0010
0000
0010
,  // measure 39
0100
0000
0000
0000
0100
0000
0001
1000
0000
0001
1000
0000
0100
0000
0010
0000
,  // measure 40
0001
0000
1000
0000
0001
0100
0000
0100
,  // measure 41
0010
0000
0000
0000
1000
0000
0001
0010
0000
0001
0010
0000
0100
0000
1000
0000
,  // measure 42
0001
0100
0001
0100
0010
1000
0010
1000
,  // measure 43
0001
0010
0001
0010
0100
1000
0100
1000
,  // measure 44
0001
0100
0001
0100
0010
0100
0010
0100
0010
1000
0010
1000
0001
1000
0001
1000
,  // measure 45
0001
0000
0000
0110
0000
0000
1001
0000
0000
0001
0010
0100
1000
0001
1000
0001
,  // measure 46
0100
0000
0001
0100
0010
0000
1000
0000
0100
0000
0010
0000
0100
0010
0000
0001
,  // measure 47
1000
0000
0001
0010
0001
0000
1000
0010
0000
0010
0100
0000
0001
0100
0010
1000
,  // measure 48
0001
0000
1000
0100
0010
0000
0001
1000
0001
0000
0100
0000
0010
0100
0000
0010
,  // measure 49
1000
0000
0001
0010
0001
0000
0010
0100
0000
0100
1000
0000
0010
0100
0001
0000
,  // measure 50
1000
0000
0100
0010
0001
0000
1000
0010
1000
0000
0001
0000
1000
0100
0000
0010
,  // measure 51
0001
0000
0100
0010
0000
0010
1000
0000
0001
0100
0001
0000
1000
0000
0010
1000
,  // measure 52
0001
0000
0010
0100
0010
0000
0001
0010
0000
0010
0100
0000
1000
0001
0000
0001
,  // measure 53
0100
0000
0010
1000
0010
0000
1000
0001
0000
0001
0010
0000
0100
1000
0001
0100
,  // measure 54
0010
0000
1000
0100
0010
0000
0001
1000
0001
0000
0100
0000
0010
1000
0000
0001
,  // measure 55
0010
0000
0100
1000
0100
0000
0010
0001
0000
0001
0100
0000
0010
1000
0001
0010
,  // measure 56
0100
0000
0010
0001
1000
0000
0010
0000
0100
0000
0001
0000
1000
0100
0000
1000
,  // measure 57
0010
0000
0100
0001
0100
0000
0001
1000
0000
1000
0010
0000
0100
0001
0010
0000
,  // measure 58
0100
0000
0010
0001
1000
0000
0010
0100
0010
0000
1000
0000
0100
0010
0000
0001
,  // measure 59
0100
0000
0010
1000
0010
0000
0100
0001
0000
0001
0010
0000
0100
0000
1000
0010
,  // measure 60
0100
0001
0100
0001
0010
0001
0010
0001
,  // measure 61
1001
0000
0000
1010
0000
0000
0101
0000
0100
0001
0010
0100
1000
0001
1000
0001
,  // measure 62
0100
0010
2000
3100
0001
0200
0310
0001
,  // measure 63
0200
1300
0100
0002
0013
0100
0002
0103
,  // measure 64
1000
0000
0020
0130
0001
0000
1000
0100
0000
0100
0010
0000
0010
0001
0000
0001
,  // measure 65
0100
0000
0010
1000
0000
1000
0100
0000
0010
0000
0001
0100
0010
0100
0010
1000
,  // measure 66
0001
1000
0200
0301
0100
0020
0031
0100
,  // measure 67
2000
3100
0001
0020
0130
0010
2000
3001
,  // measure 68
0100
0000
2000
0000
3001
0100
0001
0100
0000
0100
0010
0000
0010
1000
0001
0000
,  // measure 69
1001
0000
0000
1100
0000
0000
0110
0000
0000
0011
0000
0000
1000
0100
0010
0001
;

//---------------dance-single - ----------------
#NOTEDATA:;
#CHARTNAME:;
#STEPSTYPE:dance-single;
#DESCRIPTION:;
#CHARTSTYLE:;
#DIFFICULTY:Hard;
#METER:11;
#RADARVALUES:0.509949,0.602608,0.320037,0.361067,0.266697,435.000000,396.000000,39.000000,44.000000,0.000000,0.000000,0.000000,0.000000,0.000000,0.509949,0.602608,0.320037,0.361067,0.266697,435.000000,396.000000,39.000000,44.000000,0.000000,0.000000,0.000000,0.000000,0.000000;
#CREDIT:;
#NOTES:
0000
0000
0000
0000
,
0000
0000
0000
0000
,
0000
0000
0000
0000
,
0000
0000
0000
0000
,
0000
0000
0000
0000
,
0000
0000
0000
0000
,
1000
0000
0100
0000
0010
0000
0000
0000
0001
0000
0000
1000
0000
0000
0001
0000
,
1000
0010
0100
0000
0010
1000
0100
0010
,
0001
0000
0100
0000
0010
0000
0000
0000
1000
0000
0000
0001
0000
0000
1000
0000
,
0001
0000
0010
0000
0100
0000
0000
0000
1100
0000
0000
0011
0000
0000
1001
0000
,
1001
0000
2000
0010
3000
0020
0100
0030
,
0200
0001
0300
0002
0010
0003
0020
0100
,
0030
0000
0200
0000
1000
0000
0300
0000
1000
0000
0000
0100
0000
0000
0010
0000
,
0001
0000
0000
0000
0100
0000
0010
0000
1000
0000
0000
1001
0000
0000
1000
0000
,
0100
0000
0020
0001
0030
0002
0100
0003
,
0200
1000
0300
2000
0100
3000
0200
0010
,
0300
0000
0020
0000
1000
0000
0030
0000
1000
0000
0000
0001
0000
0000
1000
0000
,
0100
0000
0000
0000
1000
0000
0100
0000
0011
0000
0000
0101
0000
0000
1001
0000
,
1001
0000
0002
0100
0003
2000
0010
3000
,
0002
0010
0003
2000
0100
3000
0002
1000
,
0003
0000
2000
0000
0001
0000
3000
0000
0001
0000
0000
0100
0000
0000
0010
0000
,
1000
0000
0000
0100
0000
0000
0010
0000
0001
0000
0000
1001
0000
0000
0001
0000
,
0100
0000
0020
1000
0030
0200
0001
0300
,
0002
0010
0003
2000
0100
3000
2000
0010
,
3000
0000
0002
0000
0100
0000
0003
0000
0001
0000
0000
0010
0000
0000
0100
0000
,
1000
0000
0000
0010
0000
0000
0100
0000
0001
0000
0000
1001
0000
0000
0001
0000
,
0010
0000
0000
0000
0010
0000
0000
0000
1000
0000
0000
1001
0000
0000
1000
0000
,
0010
0000
0000
0000
0010
0000
0000
0000
0001
0000
0000
1001
0000
0000
0001
0000
,
0100
0000
0000
0000
0100
0000
0000
0000
1000
0000
0000
1001
0000
0000
1000
0000
,
0100
0000
0000
0000
0100
0000
0000
0000
0001
0000
0000
1001
0000
0000
0001
0000
,
0010
0000
0000
1100
0000
0000
1000
0000
0010
0000
0000
0101
0000
0000
0001
0000
,
1000
0100
0010
0100
0010
0001
0100
0010
,
1000
0100
1000
0100
0001
0100
0001
0100
,
1000
0000
0000
0100
0000
0000
1000
0000
1001
0000
0000
0101
0000
0000
1001
0000
,
1001
0000
0001
0000
0000
0010
0000
0100
2000
0000
0000
3020
0000
0000
0130
0000
,
0001
0000
1000
0000
0000
0100
0000
0010
0002
0000
0000
0203
0000
0000
0310
1000
,
0001
0000
1000
0000
0000
0001
0000
0010
0200
0000
0000
2300
0000
0000
3000
0001
,
0100
0010
0000
1000
0000
0001
0000
0000
1000
0100
0010
0001
0100
0010
0100
0010
,
1000
0000
0010
0000
1000
0100
0000
0100
,
0010
0000
0001
0100
0000
0100
0010
0000
,
1000
0000
0001
0000
1000
0010
0000
0010
,
0100
0000
0001
1000
0000
1000
0100
0000
,
0210
0010
0010
0310
,
1002
1000
1000
1003
,
0001
0100
0010
1000
0100
0010
0001
0100
,
0110
0000
0000
1010
0000
0000
1001
0000
0000
0011
0000
0000
1001
0000
0000
0000
,
1000
0000
0001
0010
0001
0000
0000
0000
1000
0000
0001
0000
0100
0000
0001
0000
,
1000
0000
0000
0000
0001
0000
0010
0000
0001
0000
0000
0000
1000
0100
1000
0000
,
0001
0000
1000
0010
1000
0000
0000
0000
0001
0000
1000
0000
0100
0000
1000
0000
,
0001
0000
0000
0000
1000
0000
0010
0000
1000
0000
0000
0000
0001
0010
0001
0000
,
1000
0000
0001
0100
0001
0000
0000
0000
1000
0000
0100
0000
0010
0000
0001
0000
,
0100
0000
0000
0000
0010
0000
1000
0000
0100
0000
0000
0000
0010
0000
0100
0010
,
0100
1000
0000
0001
0000
0100
0000
1000
,
0000
1000
0100
0001
0000
0001
0010
0100
,
1000
0000
0010
0100
0010
0000
0000
0000
1000
0000
0100
0000
0001
0000
0100
0000
,
1000
0000
0000
0000
0001
0000
0100
0000
0010
0000
0000
0000
1000
0010
1000
0000
,
0001
0000
0010
0100
0010
0000
0000
0000
0001
0000
0100
0000
1000
0000
0100
0000
,
0001
0000
0000
0000
1000
0000
0100
0000
0010
0000
0000
0000
0001
0010
0001
0000
,
1000
0000
0010
0100
0010
0000
0000
0000
1000
0000
0010
0000
0001
0000
0010
0000
,
1000
0000
0000
0000
0100
0000
0010
0000
0001
0000
0000
0000
1000
0000
0001
0100
,
0001
1000
0010
1000
0001
1000
0100
0010
,
0110
0000
0000
0011
0000
0000
1001
0000
0000
1010
0000
0000
0110
0000
0000
0000
,
1001
0000
2000
0010
3000
0020
0100
0030
,
0200
0001
0300
0002
0010
0003
0020
0100
,
0030
0000
0200
0000
1000
0000
0300
1000
0000
0000
0001
0000
0000
0100
0000
0000
,
0010
0000
0000
1000
0000
0000
0100
0000
0010
0000
0000
0001
0000
0000
0100
0000
,
0110
0000
0020
1000
0030
2000
0100
3000
,
0200
0001
0300
0002
0100
0003
0200
0010
,
0300
0000
0020
0000
0001
0000
0030
0001
0000
0000
1000
0000
0000
0001
0000
0000
,
0101
0000
0000
0110
0000
0000
1010
0000
0000
1001
0000
0000
1000
0001
1000
0001
;

//---------------dance-single - ----------------
#NOTEDATA:;
#CHARTNAME:;
#STEPSTYPE:dance-single;
#DESCRIPTION:;
#CHARTSTYLE:;
#DIFFICULTY:Medium;
#METER:7;
#RADARVALUES:0.341138,0.401738,0.106679,0.303625,0.065649,291.000000,278.000000,13.000000,37.000000,0.000000,0.000000,0.000000,0.000000,0.000000,0.341138,0.401738,0.106679,0.303625,0.065649,291.000000,278.000000,13.000000,37.000000,0.000000,0.000000,0.000000,0.000000,0.000000;
#CREDIT:;
#NOTES:
0000
0000
0000
0000
,
0000
0000
0000
0000
,
0000
0000
0000
0000
,
0000
0000
0000
0000
,
0000
0000
0000
0000
,
0000
0000
0000
0000
,
0001
1000
0010
1000
,
0001
0010
0001
1000
,
0001
0100
0001
1000
,
0100
0000
0000
0000
1000
0000
0000
0000
0010
0000
0000
0010
0000
0000
0100
0000
,
0001
0000
2000
0000
3000
0200
0000
0300
,
0020
0000
0030
0002
0000
0003
0200
0000
,
0300
0020
0000
0030
1000
0000
0001
0000
,
1000
0000
0000
0000
0100
0000
0000
0000
0010
0000
0000
0010
0000
0000
0001
0000
,
1000
0000
0002
0000
0003
0200
0000
0300
,
2000
0000
3000
0200
0000
0300
0002
0000
,
0003
0020
0000
0030
0100
0000
0010
0000
,
0001
0000
0000
0000
1000
0000
0000
0000
1001
0000
0000
1001
0000
0000
0001
0000
,
1000
0000
0010
0000
0100
0001
0010
0000
,
0100
0000
0010
0001
0100
0000
0010
0000
,
1000
0010
1000
0000
0001
0000
0010
0000
,
0100
0000
0000
0000
1000
0000
0000
0000
0001
0000
0000
0001
0000
0000
0100
0000
,
0010
0000
1000
0000
0010
1000
0100
0000
,
0010
0000
0100
1000
0010
0000
0100
0000
,
0001
0100
0001
0000
1000
0000
0100
0000
,
0010
0000
0000
0000
0001
0000
0000
0000
1000
0000
0000
1000
0000
0000
0001
0000
,
0100
0000
0000
0000
0000
0000
0000
0000
0001
0000
0000
0001
0000
0000
1000
0000
,
0100
0000
0000
0000
0000
0000
0000
0000
1000
0000
0000
1000
0000
0000
0001
0000
,
0010
0000
0000
0000
0000
0000
0000
0000
0001
0000
0000
0001
0000
0000
1000
0000
,
0010
0000
0000
0000
0000
0000
0000
0000
1000
0000
0000
1000
0000
0000
0001
0000
,
0010
0000
0100
0010
0001
0000
0100
0010
,
1000
0010
1000
0010
,
1000
0100
1000
0000
0001
0100
0001
0000
,
1001
0000
0000
0000
1001
0000
0000
0000
1000
0000
0000
0001
0000
0000
1000
0000
,
0002
0000
0000
0000
0000
0000
0000
0000
0103
0000
0000
0010
0000
0000
0010
0000
,
2000
0000
0000
0000
0000
0000
0000
0000
3100
0000
0000
0010
0000
0000
0001
0000
,
0200
0000
0000
0000
0000
0000
0000
0000
0310
0000
0000
1000
0000
0000
0000
0000
,
1001
0000
0000
1000
0000
0001
0000
0000
1000
0000
0100
0000
0010
0000
0001
0000
,
1000
0000
0010
0000
0000
0100
0000
0100
,
0002
0000
0000
0023
0000
0000
0130
1000
,
0001
0000
1000
0000
0000
0010
0000
0010
,
0200
0000
0000
0302
0000
0000
1003
0000
,
1001
0010
0010
0010
,
1001
0100
0100
0100
,
1001
0010
1001
0100
,
2002
0000
0000
3003
,
0001
0100
0010
0000
1000
0000
0010
0100
,
0001
0000
1000
0100
1000
0000
0001
0000
,
1000
0100
0010
0000
0001
0000
0010
0100
,
1000
0000
0001
0100
0001
0000
1000
0000
,
0010
0100
0001
0000
0010
0000
0001
0100
,
0010
0000
1000
0001
1000
0000
0001
1000
,
0010
1000
0001
0000
1000
0000
0100
0000
,
0010
0000
0001
1000
0001
0000
1000
0000
,
0010
1000
0100
0000
0010
0000
0100
1000
,
0010
0000
1000
0001
1000
0000
0100
0000
,
0010
0001
0100
0000
0010
0000
0100
0001
,
0010
0000
0100
1000
0100
0000
0010
0000
,
0001
0100
0010
0000
1000
0000
0100
0010
,
0001
0000
1000
0010
1000
0000
0001
1000
,
0100
1000
0001
0000
0100
0000
0010
0000
,
2002
0000
0000
3003
,
1001
0000
2000
0000
3000
0020
0000
0030
,
0200
0000
0300
0002
0000
0003
0020
0000
,
0030
0200
0000
0300
1000
0000
0001
0000
,
1000
0010
0100
0001
,
1001
0000
2000
0000
3000
0200
0000
0300
,
0002
0000
0003
0200
0000
0300
2000
0000
,
3000
0020
0000
0030
0100
0000
0001
0000
,
2000
0000
0000
3000
0000
0000
0002
0000
0000
0003
0000
0000
1000
0000
0000
0001
;

//---------------dance-single - ----------------
#NOTEDATA:;
#CHARTNAME:;
#STEPSTYPE:dance-single;
#DESCRIPTION:;
#CHARTSTYLE:;
#DIFFICULTY:Easy;
#METER:5;
#RADARVALUES:0.216875,0.286956,0.139503,0.123091,0.000000,185.000000,168.000000,17.000000,15.000000,0.000000,0.000000,0.000000,0.000000,0.000000,0.216875,0.286956,0.139503,0.123091,0.000000,185.000000,168.000000,17.000000,15.000000,0.000000,0.000000,0.000000,0.000000,0.000000;
#CREDIT:;
#NOTES:
0000
0000
0000
0000
,
0000
0000
0000
0000
,
0000
0000
0000
0000
,
0000
0000
0000
0000
,
0000
0000
0000
0000
,
0000
0000
0000
0000
,
0001
0000
0010
0000
,
0001
0000
1000
0000
,
0010
0000
1000
0000
,
0001
0000
0010
0001
,
0100
0000
0010
0000
0000
0100
0000
0000
,
0010
0000
0000
1000
0000
0000
0001
0000
,
0000
1000
0000
0000
0001
0000
0000
0000
,
0010
0000
0100
1000
,
0010
0000
1000
0000
0000
0001
0000
0000
,
1000
0000
0000
0100
0000
0000
0010
0000
,
0000
0001
0000
0000
1000
0000
0000
0000
,
0001
0000
0110
0000
,
1001
0000
1000
0000
0000
0010
0000
0000
,
0100
0000
0000
0001
0000
0000
0010
0000
,
0000
0001
0000
0000
1000
0000
0000
0000
,
0010
0000
0100
0010
,
1000
0000
0001
0000
0000
0010
0000
0000
,
0100
0000
0000
1000
0000
0000
0010
0000
,
0000
0100
0000
0000
0001
0000
0000
0000
,
1000
0000
0100
0010
,
1001
0000
0010
0100
,
1001
0000
1000
0001
,
0110
0000
0001
1000
,
0110
0000
1000
0001
,
0011
0000
1100
0000
,
1010
0000
0101
0000
,
0001
1000
0001
1000
,
0100
0000
1000
0001
,
1002
0000
0203
0000
,
0320
0000
2030
0000
,
3200
0000
0320
0000
,
0032
0000
0203
0320
,
1030
0000
0010
0000
,
0100
0000
0001
0000
,
1000
0000
0100
0000
,
0010
0000
0001
0000
,
1001
0000
1000
0000
,
1001
0000
0001
0000
,
0010
0100
0010
0100
,
2002
0000
0000
3003
,
0001
0000
0010
0000
0000
0001
0000
0100
,
0000
0000
0000
0010
0000
0000
1000
0000
,
0100
0000
0010
0000
0000
0100
0000
1000
,
0000
0000
0000
0010
0000
0000
0100
0000
,
0001
0000
0010
0000
0000
0100
0000
1000
,
0000
0000
0000
0001
0000
0000
0000
0000
,
1000
0000
0000
0010
0000
1000
0000
0100
,
0000
0000
0000
0010
0000
0000
0001
0000
,
1000
0000
0010
0000
0000
1000
0000
0100
,
0000
0000
0000
0010
0000
0000
0001
0000
,
0100
0000
0010
0000
0000
0100
0000
0001
,
0000
0000
0000
0010
0000
0000
0100
0000
,
1000
0000
0010
0000
0000
0100
0000
0001
,
0000
0000
0000
1000
0000
0000
0000
0000
,
0100
0010
0100
0010
,
2002
0000
0000
3003
,
1001
0000
1000
0000
0000
0010
0000
0000
,
1000
0000
0000
0001
0000
0000
0010
0000
,
0000
0001
0000
0000
1000
0000
0000
0000
,
0100
0000
0010
0001
,
1000
0000
0001
0000
0000
0100
0000
0000
,
0001
0000
0000
1000
0000
0000
0100
0000
,
0000
0010
0000
0000
0001
0000
0000
0000
,
1000
0000
0000
0000
0000
0000
0001
0000
0000
0000
0000
0000
2002
0000
0000
3003
;

//---------------dance-single - ----------------
#NOTEDATA:;
#CHARTNAME:;
#STEPSTYPE:dance-single;
#DESCRIPTION:;
#CHARTSTYLE:;
#DIFFICULTY:Beginner;
#METER:3;
#RADARVALUES:0.159432,0.242695,0.049236,0.008206,0.000000,136.000000,130.000000,6.000000,1.000000,0.000000,0.000000,0.000000,0.000000,0.000000,0.159432,0.242695,0.049236,0.008206,0.000000,136.000000,130.000000,6.000000,1.000000,0.000000,0.000000,0.000000,0.000000,0.000000;
#CREDIT:;
#OFFSET:1.325928;
#BPMS:0.000000=149.000000
;
#STOPS:;
#DELAYS:;
#WARPS:;
#TIMESIGNATURES:0.000000=4=4
;
#TICKCOUNTS:0.000000=4
;
#COMBOS:0.000000=1
;
#SPEEDS:0.000000=1.000000=0.000000=0
;
#SCROLLS:0.000000=1.000000
;
#FAKES:;
#LABELS:0.000000=Song Start
;
#NOTES:
0000
0000
0000
0000
,
0000
0000
0000
0000
,
0000
0000
0000
0000
,
0000
0000
0000
0000
,
0000
0000
0000
0000
,
0000
0000
0000
0000
,
0001
0000
1000
0000
,
0001
0000
1000
0000
,
0010
0000
0100
0000
,
0010
0000
0100
0100
,
0100
0000
0001
0000
,
1000
0000
0001
0000
,
0010
0000
0001
0000
,
1000
0000
0010
0010
,
0010
0000
1000
0000
,
0001
0000
0010
0000
,
0100
0000
1000
0000
,
0001
0000
1000
1000
,
1000
0000
0010
0000
,
0100
0000
0001
0000
,
0010
0000
0100
0000
,
1000
0000
0001
0001
,
0001
0000
1000
0000
,
0010
0000
0100
0000
,
0001
0000
0010
0000
,
0100
0000
0010
0010
,
0010
0000
0010
0010
,
0010
0000
0010
0010
,
0010
0000
0010
0010
,
0010
0000
0010
0010
,
0010
0000
0010
0000
,
0010
0000
0010
0000
,
0001
0000
1000
0000
,
0010
0000
0010
0010
,
0010
0000
0000
0000
,
1000
0000
0000
0000
,
0001
0000
0000
0000
,
1000
0000
0000
0000
,
0100
0000
0000
0000
,
0010
0000
0000
0000
,
0001
0000
0000
0000
,
1000
0000
0000
0000
,
0001
0000
0000
0000
,
0100
0000
0000
0000
,
0010
0000
0000
0000
,
1000
0000
0000
0000
,
1001
0000
0000
0000
,
1001
0000
0000
0000
,
1001
0000
1001
0000
,
1001
0000
0000
0000
,
1000
0000
0100
0000
,
1000
0000
0100
0000
,
0010
0000
0001
0000
,
0010
0000
0001
0000
,
1000
0000
0010
0000
,
1000
0000
0010
0000
,
0100
0000
0001
0000
,
1000
0000
0001
0000
,
0010
0000
0100
0000
,
0010
0000
0100
0000
,
1000
0000
0001
0000
,
1000
0000
0001
0000
,
0100
0000
0010
0000
,
0100
0000
0010
0000
,
1000
0000
0001
0000
,
1001
0000
0000
0000
,
1000
0000
0010
0000
,
1000
0000
0001
0000
,
0010
0000
0001
0000
,
0100
0000
0010
0010
,
0010
0000
1000
0000
,
0100
0000
0010
0000
,
0001
0000
0100
0000
,
0020
0000
0000
0000
0000
0000
0000
0000
0000
0000
0000
0000
0000
0000
0000
0030
;
