#TITLE:Danse de Romani;
#SUBTITLE:;
#ARTIST:MUE;
#TITLETRANSLIT:;
#SUBTITLETRANSLIT:;
#ARTISTTRANSLIT:;
#GENRE:Ethnic House;
#CREDIT:;
#BANNER:Danse de Romani.png;
#BACKGROUND:Danse de Romani-bg.png;
#LYRICSPATH:;
#CDTITLE:cdtitle.png;
#MUSIC:Danse de Romani.ogg;
#OFFSET:-0.251684;
#SAMPLESTART:29.394543;
#SAMPLELENGTH:13.714283;
#SELECTABLE:YES;
#BPMS:0.000000=140.000000
;
#STOPS:
;
#BGCHANGES:;
#KEYSOUNDS:;
#ATTACKS:;

//---------------dance-single - ----------------
#NOTES:
     dance-single:
     :
     Challenge:
     13:
     0.634160,0.708958,0.196421,0.363379,0.520516,452.000000,432.000000,20.000000,37.000000,0.000000,0.000000,0.634160,0.708958,0.196421,0.363379,0.520516,452.000000,432.000000,20.000000,37.000000,0.000000,0.000000:
0000
0000
0000
0000
,
0000
0000
0000
0000
,
0000
0000
0000
0000
,
0000
0000
0000
0000
,
1000
0000
0010
0000
1000
0100
0000
0010
0002
0000
0000
0103
0000
0000
0100
0000
,
0001
0000
0010
0001
0000
1000
0010
0100
0002
0000
0000
0013
0000
0000
0100
1000
,
0001
0000
1000
0000
0001
0100
0000
0001
0020
0000
0000
0130
0000
0000
0010
0001
,
1000
0000
1000
0000
0001
0000
0001
0000
0101
0000
0000
1100
0000
0000
0110
0000
,
1001
0000
0000
0100
,
2001
0000
0000
0000
0000
0000
3001
0100
0001
0000
0000
0000
0010
0000
0000
0000
,
0002
0000
0000
0000
0000
0000
1003
0100
1000
0000
0000
0000
0010
0000
0000
0000
,
2000
0000
0000
0000
3000
0000
0001
1000
0001
0000
0000
0000
0010
0000
0000
0000
,
0200
0000
0000
0000
0320
0000
0000
0000
0031
1000
0001
1000
0010
0000
0100
0000
,
0002
0000
0000
0000
0000
0000
1003
0100
1000
0000
0000
0000
0010
0000
0000
0000
,
0200
0000
0000
0000
0000
0000
0301
1000
0001
0000
0000
0000
0010
0000
0000
0000
,
0200
0000
0000
0000
0000
0000
0310
0001
0010
0001
0000
0000
0001
0000
0000
0000
,
0100
0000
0000
0100
0010
0000
0000
0000
2000
0000
0000
0000
3001
0000
0000
0000
,
2001
0000
0000
0000
3100
0000
0010
0001
1000
0000
0000
1000
0010
0000
0100
0000
,
0002
0000
0000
0000
0103
0000
0010
1000
0001
0000
0000
0001
0010
0000
0100
0000
,
2000
0000
0000
0000
3100
0000
0010
0001
0100
0000
0000
0100
0010
0000
1000
0000
,
0002
0000
0000
0000
0023
0000
0000
0000
0130
1000
0100
1000
0010
0000
0100
0000
,
0002
0000
0000
0000
0103
0000
0010
1000
0001
0000
0000
1000
0100
0000
0010
0000
,
0002
0000
0000
0000
0103
0000
0010
1000
0100
0000
0000
0010
0001
0000
0100
0000
,
0020
0000
0000
0000
0130
0000
0010
1000
0100
0010
0000
0010
0001
0000
0000
0001
,
0100
0000
0001
0000
0010
0000
0001
1000
0001
0000
0100
0000
1001
0000
0000
0000
,
0001
0000
0010
0100
0010
0000
0001
0000
0100
0000
1000
0000
0100
0000
0010
0100
,
0010
0000
0100
0000
0001
0000
1000
0100
1000
0000
0010
0000
0100
0000
0001
0000
,
0010
0000
1000
0000
0010
0000
0001
1000
0001
0000
0100
0000
1000
0000
0100
0001
,
0100
0000
0010
0000
1000
0000
0100
0010
0001
0000
0100
0000
0010
0000
1000
0001
,
1000
0001
1000
0000
0100
0000
0010
0001
0010
0000
0100
0000
1000
0000
0001
0100
,
0001
0100
0010
1000
0100
0001
0100
0010
,
0001
0000
0100
0001
0100
0000
0010
1000
0010
0000
0100
0000
0001
0000
0010
0100
,
0010
0000
0001
0000
0100
0000
0010
0000
1000
0100
0010
0001
1000
0000
0000
0000
,
0001
0000
0001
0000
1000
0000
0010
1000
0100
0000
0000
0000
0012
0000
0000
0000
,
1003
0000
1000
0000
0001
0000
0010
0001
0100
0000
0000
0000
2010
0000
0000
0000
,
3100
0000
0100
0000
0010
0000
0100
1000
0010
0000
0000
0000
0102
0000
0103
0001
,
0010
0000
0010
0000
0100
0000
1000
0010
1000
0000
0000
0000
1002
0000
0000
0000
,
1003
0000
1000
0000
0010
0000
0100
0001
0010
0000
0000
0000
2001
0000
3010
1000
,
0001
0000
1000
0001
1000
0000
0001
1000
0100
0000
0000
0000
1002
0000
1003
0001
,
0010
0000
0010
0001
1000
0001
1000
0001
0100
0000
0000
0000
1001
0000
0000
0000
,
0022
0000
0000
0000
0000
0000
0000
0000
0033
0000
0000
0000
0000
0000
0001
1000
,
0001
0000
0100
0000
0010
1000
0000
1000
0200
0000
0000
0310
0000
0000
0100
0000
,
1000
0000
0010
0100
0001
0000
0010
0000
0200
0000
0000
0310
0000
0000
0001
0000
,
1000
0000
0100
0000
0010
0001
0000
0001
0200
0000
0000
0310
0000
0000
0100
0000
,
0001
0000
1000
0100
0000
0010
0001
0000
2000
0000
3010
0100
0001
1000
0001
1000
,
0100
0000
1000
0000
0010
1000
0000
1000
0200
0000
0000
0301
0000
0000
0100
0000
,
1000
0000
0010
0100
0000
0100
0001
0000
0020
0000
0000
1030
0000
0000
0010
0000
,
0001
0000
0100
0000
1000
0100
0000
0100
0002
0000
0000
0013
0000
0000
0100
1000
,
0010
0000
0100
0000
0001
0000
1000
0000
0200
0000
0000
0000
0000
0000
1300
0001
,
1000
0000
0010
0100
0010
0000
1000
0000
0100
0000
0001
0000
0100
0000
0010
0100
,
0010
0000
0100
0000
1000
0000
0001
0100
0001
0000
0010
0000
0100
0000
1000
0000
,
0010
0000
0001
0000
0010
0000
1000
0001
1000
0000
0100
0000
0001
0000
0100
1000
,
0100
0000
0010
0000
0001
0000
0100
0010
1000
0000
0100
0000
0010
0000
0001
1000
,
0001
1000
0001
0000
0100
0000
1000
0100
1000
0000
0100
0000
0001
0000
0010
0100
,
0010
0100
1000
0010
0001
1000
0100
0001
,
0010
0000
0100
1000
0100
0000
0010
0001
0010
0000
0001
0000
0100
0000
0001
1000
,
0001
0010
0100
1000
0002
0000
1003
0000
,
0101
0000
1010
0000
0011
1100
1100
0000
;

//---------------dance-single - ----------------
#NOTES:
     dance-single:
     :
     Hard:
     11:
     0.489650,0.538808,0.166958,0.383021,0.122763,349.000000,332.000000,17.000000,39.000000,0.000000,0.000000,0.489650,0.538808,0.166958,0.383021,0.122763,349.000000,332.000000,17.000000,39.000000,0.000000,0.000000:
0000
0000
0000
0000
,
0000
0000
0000
0000
,
0000
0000
0000
0000
,
0000
0000
0000
0000
,
1000
0100
0010
0000
0002
0000
0103
0000
,
0001
0000
1000
0010
0000
0010
1000
0000
0002
0000
0000
0000
0103
0000
0000
0000
,
0001
0000
1000
0000
0100
0000
0000
0000
0020
0000
0000
0000
0130
0000
0000
0010
,
0001
0000
0100
0000
0010
0000
1000
0000
0100
0000
0000
0100
0000
0000
0100
0000
,
1001
0000
0000
1000
,
1002
0000
0000
1003
0010
0000
1000
0000
,
2000
0000
0000
3001
0010
0000
0001
0000
,
0200
0000
0000
1300
0100
0000
0001
0000
,
0020
0000
0230
0000
0310
0001
0100
0010
,
2000
0000
0000
3001
0100
0000
0001
0000
,
0020
0000
0000
1030
0010
0000
0001
0000
,
0200
0000
0000
0310
1000
0000
0100
0000
,
0010
0001
2000
3001
,
2001
0000
0000
0000
3010
0000
1000
0000
0100
0000
0000
1000
0100
0000
0010
0000
,
0002
0000
0000
0000
0013
0000
0001
0000
0100
0000
0000
0001
0100
0000
0010
0000
,
2000
0000
0000
0000
3010
0000
1000
0000
0001
0000
0000
1000
0001
0000
0010
0000
,
0200
0000
0320
0000
0031
0010
1000
0010
,
0002
0000
0000
0000
0103
0000
0001
0000
0010
0000
0000
0100
0010
0000
0001
0000
,
0200
0000
0000
0000
1300
0000
0100
0000
0001
0000
0000
1000
0010
0000
0100
0000
,
0002
0000
0000
0000
0013
0000
0100
0000
1000
0001
0000
0001
0100
0000
0000
0000
,
1010
0000
0110
0000
0102
1000
1003
0000
,
0001
1000
0100
0010
0100
1000
0001
0100
,
0010
0100
0001
1000
0001
0010
0100
1000
,
0010
0100
0001
0010
0001
0100
0010
1000
,
0100
0001
0100
1000
0010
0100
0000
0010
,
1000
0001
0010
0100
1000
0001
0100
0010
,
1000
0001
0100
0001
1000
0100
0010
0001
,
1000
0010
0100
0001
0010
1000
0010
0001
,
1000
0000
0010
0000
0100
0000
0010
0000
1000
0001
1000
0001
1000
0000
0000
0000
,
0001
0001
0000
0001
0010
0000
1020
0000
,
1030
1000
0000
1000
0100
0000
0201
0000
,
0301
0001
0000
0001
0100
0000
2100
0000
,
3020
0000
0031
0010
1000
0000
1002
0000
,
0013
0010
0000
0001
0100
0000
2010
0000
,
3001
0001
1000
0100
0010
0000
0012
0000
,
1003
1000
0010
0100
0001
0000
0110
0000
,
2002
0000
0000
0000
3003
0000
0000
0001
,
1000
0000
0100
0000
0000
1000
0000
0000
0020
0000
0000
0130
0000
0000
0001
0000
,
1000
0000
0100
0000
1000
0000
0010
0000
0200
0000
0000
0301
0000
0000
1000
0000
,
0001
0000
0010
0000
0000
0001
0000
0000
0200
0000
0000
0310
0000
0000
1000
0000
,
0200
0000
0000
0310
0000
0000
0001
0000
0100
0000
0010
0000
1000
0000
1000
0000
,
0001
0000
0010
0000
0000
0100
0000
0000
0002
0000
0000
0103
0000
0000
0010
0000
,
0001
0000
0000
0100
0000
0000
0010
0000
0200
0000
0000
1300
0000
0000
0100
0000
,
0010
0000
1000
0000
0000
0100
0000
0000
0002
0000
0000
0103
0000
0000
1000
0000
,
0100
0010
0001
0100
0020
0000
0000
0030
,
1000
0001
0100
0010
0100
0001
1000
0100
,
0010
0100
1000
0001
1000
0010
0100
0001
,
0010
0100
1000
0010
1000
0100
0010
0001
,
0100
1000
0100
0001
0010
0100
0000
0010
,
0001
0100
0010
1000
0100
1000
0010
0100
,
0001
0010
0100
1000
0010
0001
0010
1000
,
0001
0010
1000
0010
0001
0100
0010
1000
,
0001
1000
0100
0010
0002
0000
0103
0000
,
1010
0000
0101
0000
1001
0100
0100
0000
;

//---------------dance-single - ----------------
#NOTES:
     dance-single:
     :
     Medium:
     8:
     0.405469,0.397016,0.157137,0.392842,0.014732,289.000000,273.000000,16.000000,40.000000,0.000000,0.000000,0.405469,0.397016,0.157137,0.392842,0.014732,289.000000,273.000000,16.000000,40.000000,0.000000,0.000000:
0000
0000
0000
0000
,
0000
0000
0000
0000
,
0000
0000
0000
0000
,
0000
0000
0000
0000
,
1000
0010
1000
0000
0002
0000
0013
0000
,
0001
0000
0000
1000
0000
0000
0010
0000
2000
0000
0000
0000
3001
0000
0000
0000
,
1000
0100
0010
0000
0002
0000
0103
0000
,
0010
0000
1000
0000
0010
0000
1000
0000
0001
0000
0000
0001
0000
0000
1000
0000
,
0100
0000
0000
1000
,
1002
0000
0000
1003
0001
0000
0001
0000
,
2000
0000
0000
3001
1000
0000
1000
0000
,
0200
0000
0000
0310
0100
0000
1000
0000
,
0002
0000
0203
0000
0301
0100
0010
1000
,
0002
0000
0000
1003
0001
0000
0010
0000
,
0200
0000
0000
0310
0100
0000
1000
0000
,
0020
0000
0000
0130
0010
0000
1000
0000
,
0100
0010
0002
1003
,
2001
0000
3010
1000
0100
0000
0010
0000
,
0002
0000
0013
0001
0100
0000
1000
0000
,
0200
0000
0301
1000
0100
0000
0010
0000
,
0002
0000
2003
0000
3001
0100
0010
1000
,
0002
0000
0013
0001
0100
0000
0001
0000
,
0020
0000
1030
0010
0001
0000
1000
0000
,
0020
0000
0031
0010
1000
0000
0100
0000
,
1100
0110
0022
0033
,
0001
0100
0001
0000
1000
0010
1000
0000
,
0001
0000
1000
0000
0100
0010
0001
1000
,
0010
0000
0100
0000
0010
1000
0100
0000
,
0010
0001
0100
0010
1000
0000
0001
0000
,
1000
0100
1000
0000
0001
0010
0001
0000
,
1000
0000
0010
0000
0100
0001
0010
0100
,
1000
0000
0010
0000
1000
0100
0010
0000
,
0001
1000
0010
1000
0001
0000
1001
0000
,
1000
0100
0000
1000
0100
0000
0021
0000
,
0031
0100
0000
0001
0100
0000
1020
0000
,
1030
0001
0000
1000
0001
0000
2001
0000
,
3200
0000
0310
0001
0100
0000
1002
0000
,
0013
0001
0000
0001
0100
0000
2010
0000
,
3010
1000
0000
1000
0100
0000
0012
0000
,
1003
0010
0000
0100
0001
0000
1001
0000
,
0220
0000
0330
0000
,
1000
0100
0010
0000
0002
0000
1003
0000
,
0001
0100
0010
1000
0002
0000
1003
0000
,
0001
0010
0100
0000
2000
0000
3001
0000
,
0200
0000
0310
0000
1000
0001
0010
0010
,
0001
1000
0010
0000
2000
0000
3100
0000
,
0010
0000
0000
0001
0000
0000
1000
0000
0020
0000
0000
0000
0130
0000
0000
0000
,
1000
0100
0001
0000
0020
0000
0130
0000
,
0010
0100
0010
0100
2000
0000
3000
0001
,
1000
0100
1000
0000
0001
0010
0001
0000
,
1000
0000
0001
0000
0100
0010
1000
0001
,
0010
0000
0100
0000
0010
0001
0100
0000
,
0010
1000
0100
0010
0001
0000
1000
0000
,
0001
0100
1000
0000
1000
0100
0001
0000
,
0010
0000
0100
0000
0010
0001
1000
0010
,
0100
0000
0001
0000
1000
0100
0010
0000
,
0100
1000
0010
0100
0002
0000
1003
0000
,
0110
0000
1001
0000
1000
0100
0001
0000
;

//---------------dance-single - ----------------
#NOTES:
     dance-single:
     :
     Easy:
     5:
     0.290423,0.368658,0.147316,0.373200,0.000000,207.000000,192.000000,15.000000,38.000000,0.000000,0.000000,0.290423,0.368658,0.147316,0.373200,0.000000,207.000000,192.000000,15.000000,38.000000,0.000000,0.000000:
0000
0000
0000
0000
,
0000
0000
0000
0000
,
0000
0000
0000
0000
,
0000
0000
0000
0000
,
1000
0001
0020
0130
,
0010
0010
0020
0031
,
1000
0010
0200
0310
,
1000
0001
2002
3003
,
0110
0000
0000
0000
,
2001
0000
3010
0100
,
0002
0000
0103
0010
,
2000
0000
3100
0010
,
0002
2003
3020
0230
,
0302
0000
0013
0001
,
0200
0000
0310
1000
,
0200
0000
0310
0001
,
0100
0010
2000
3001
,
2000
0100
3100
0010
,
0002
0100
0103
0010
,
2000
0001
3001
0010
,
0002
0203
0320
2030
,
3002
0010
0013
0001
,
0200
0010
0310
1000
,
0200
0010
0310
0100
,
1000
0010
0200
0300
,
0001
0100
0010
1000
,
0001
1000
0100
0010
,
0001
1000
0001
0100
,
0010
1000
0001
0000
,
1000
0100
0010
0100
,
1000
0010
0100
0001
,
0010
0100
0010
0001
,
0100
0010
1000
0001
,
1001
0000
1000
0100
,
1001
0000
0001
0100
,
1001
0000
1000
0010
,
1001
0000
0001
0010
,
1001
0000
1000
0100
,
0011
0000
0001
0100
,
1010
0000
1000
0001
,
0220
0000
0330
0000
,
1000
0001
0020
0130
,
0010
0001
0200
0310
,
1000
0100
0020
0130
,
2000
3001
0100
0100
,
0001
1000
0020
0130
,
0010
0010
0020
1030
,
0001
0010
0200
0310
,
0001
0001
0002
0003
,
1000
0100
0010
0001
,
1000
0001
0100
0010
,
1000
0001
1000
0100
,
0010
0001
1000
0000
,
0001
0100
1000
0100
,
0001
0010
0100
1000
,
0010
0001
0010
1000
,
0100
0010
0002
1003
,
1010
0101
0011
1100
;

//---------------dance-single - ----------------
#NOTES:
     dance-single:
     :
     Beginner:
     3:
     0.172570,0.283583,0.049105,0.068747,0.000000,123.000000,118.000000,5.000000,7.000000,0.000000,0.000000,0.172570,0.283583,0.049105,0.068747,0.000000,123.000000,118.000000,5.000000,7.000000,0.000000,0.000000:
0000
0000
0000
0000
,
0000
0000
0000
0000
,
0000
0000
0000
0000
,
0000
0000
0000
0000
,
1000
0000
0001
0000
,
0001
0000
0001
0000
,
1000
0000
0100
0000
,
0010
0000
0001
0000
,
1001
0000
0000
0000
,
2000
0000
3000
0000
,
0020
0000
0030
0000
,
0200
0000
0300
0000
,
0001
0000
1000
0000
,
0002
0000
0003
0000
,
0020
0000
0030
0000
,
0200
0000
0300
0000
,
1000
1000
1000
0000
,
0001
0000
0100
0100
,
0100
0000
0010
0010
,
0010
0000
1000
1000
,
1000
0000
0001
0000
,
1000
0000
0100
0100
,
0100
0000
0010
0010
,
0010
0000
0001
0000
,
1000
1000
1000
0000
,
0010
0000
0010
0000
,
0100
0000
0100
0000
,
0001
0000
0001
0000
,
1000
0000
1000
0000
,
0100
0000
0100
0000
,
0010
0000
0010
0000
,
0001
0000
0001
0000
,
1000
0000
1000
0000
,
0001
0000
0001
0001
,
0001
0000
0100
0100
,
0100
0000
0010
0010
,
0010
0000
1000
1000
,
1000
0000
0100
0100
,
0100
0000
0010
0010
,
0010
0000
0001
0001
,
0002
0000
0003
0000
,
0001
0000
1000
0000
,
0001
0000
1000
0000
,
0010
0000
0100
0000
,
0010
0000
0100
0100
,
0100
0000
0001
0000
,
1000
0000
1000
0000
,
0100
0000
0010
0000
,
0100
0100
0100
0000
,
0010
0000
0010
0000
,
0100
0000
0100
0000
,
1000
0000
1000
0000
,
0001
0000
0001
0000
,
0010
0000
0010
0000
,
0001
0000
0001
0000
,
0100
0000
0100
0000
,
0010
0000
1000
0000
,
1001
1001
1001
1001
;
