#VERSION:0.83;
#TITLE:D;
#SUBTITLE:;
#ARTIST:Eagle;
#TITLETRANSLIT:;
#SUBTITLETRANSLIT:;
#ARTISTTRANSLIT:;
#GENRE:Next Skool Breakbeats;
#ORIGIN:;
#CREDIT:;
#BANNER:D.png;
#BACKGROUND:D-bg.png;
#PREVIEWVID:;
#JACKET:D-jacket.png;
#CDIMAGE:;
#DISCIMAGE:;
#LYRICSPATH:;
#CDTITLE:cdtitle.png;
#MUSIC:D.ogg;
#OFFSET:-0.066574;
#SAMPLESTART:16.068575;
#SAMPLELENGTH:15.999998;
#SELECTABLE:YES;
#BPMS:0.000=120.000,
68.000=130.000,
72.000=140.000,
76.000=150.000,
80.000=160.000,
82.000=170.000,
84.000=180.000,
86.000=190.000,
88.000=200.000,
89.000=210.000,
90.000=220.000,
91.000=240.000,
92.000=87.500,
101.000=175.000,
213.000=170.000,
215.000=160.000,
217.000=150.000,
219.000=140.000,
221.000=130.000,
225.000=60.000,
230.000=120.000;
#STOPS:;
#DELAYS:;
#WARPS:;
#TIMESIGNATURES:0.000=4=4;
#TICKCOUNTS:0.000=4;
#COMBOS:0.000=1;
#SPEEDS:0.000=1.000=0.000=0;
#SCROLLS:0.000=1.000,
225.000=2.000,
225.500=1.750,
226.000=1.500,
226.500=1.250,
227.000=1.000,
227.500=0.800,
228.000=0.600,
228.500=0.400,
229.000=0.200,
230.000=1.000;
#FAKES:;
#LABELS:0.000=Song Start;
#BGCHANGES:;
#KEYSOUNDS:;
#ATTACKS:
;

//---------------dance-single - ----------------
#NOTEDATA:;
#CHARTNAME:;
#STEPSTYPE:dance-single;
#DESCRIPTION:;
#CHARTSTYLE:;
#DIFFICULTY:Challenge;
#METER:16;
#RADARVALUES:0.761809,0.959127,0.217319,0.150451,0.990471,638.000000,612.000000,26.000000,18.000000,0.000000,0.000000,3.000000,0.000000,0.000000,0.761809,0.959127,0.217319,0.150451,0.990471,638.000000,612.000000,26.000000,18.000000,0.000000,0.000000,3.000000,0.000000,0.000000;
#CREDIT:;
#OFFSET:-0.066574;
#BPMS:0.000000=120.000000
,68.000000=130.000000
,72.000000=140.000000
,76.000000=150.000000
,80.000000=160.000000
,82.000000=170.000000
,84.000000=180.000000
,86.000000=190.000000
,88.000000=200.000000
,89.000000=210.000000
,90.000000=220.000000
,91.000000=240.000000
,92.000000=87.500000
,101.000000=175.000000
,213.000000=170.000000
,215.000000=160.000000
,217.000000=150.000000
,219.000000=140.000000
,221.000000=130.000000
,225.000000=60.000000
,230.000000=120.000000
;
#STOPS:;
#DELAYS:;
#WARPS:;
#TIMESIGNATURES:0.000000=4=4
;
#TICKCOUNTS:0.000000=4
;
#COMBOS:0.000000=1
;
#SPEEDS:0.000000=1.000000=0.000000=0
;
#SCROLLS:0.000000=1.000000
,225.000000=2.000000
,225.500000=1.750000
,226.000000=1.500000
,226.500000=1.250000
,227.000000=1.000000
,227.500000=0.800000
,228.000000=0.600000
,228.500000=0.400000
,229.000000=0.200000
,230.000000=1.000000
;
#FAKES:;
#LABELS:0.000000=Song Start
;
#NOTES:
0000
0000
0000
0000
,
0000
0000
0000
0000
,
0000
0000
0000
0000
,
0000
0000
0000
0000
,
0001
0010
0001
1000
0001
0100
0010
0100
0001
1000
0100
0010
0100
1000
0010
0100
,
0001
0010
0001
1000
0001
0100
0010
0100
0001
1000
0100
0010
0100
1000
0010
0100
,
0001
0000
0000
0010
0000
0000
0001
0000
0000
1000
0000
0000
0001
0000
0000
0100
0000
0000
0010
0000
0000
0100
0000
0000
0001
0000
0000
1000
0000
0000
0100
0000
0000
0010
0000
0000
0100
0000
0000
0010
0000
0000
0100
0000
0010
0000
0100
0000
,
0010
0000
0000
0000
0000
0000
0000
0000
0000
0000
0000
0000
1001
0000
0000
0000
0000
0000
0000
0000
0000
0000
0000
0000
1000
0000
0000
0000
0010
0000
0000
0000
0100
0000
0000
0000
0001
0000
0000
0000
0000
0000
0000
0000
1000
0000
0000
0000
0004
0000
0000
0000
0000
0000
0000
0000
0000
0000
0000
0000
0000
0000
0000
0003
,
1002
0000
0000
0000
0013
0000
0100
0010
0000
0100
0010
0000
0001
0000
0100
0000
,
0020
0000
0130
1000
0100
0010
2000
0000
3000
0010
0100
0001
0020
0000
1030
0010
,
0001
0000
0100
0000
0010
0000
1000
0001
0000
1000
0001
0000
0010
0001
0100
0000
,
0010
1000
0000
0010
1000
0100
0010
0002
0000
0000
0000
0000
0013
0100
1000
0001
,
0100
0000
0010
0000
1000
0000
0001
0010
0001
0010
0100
0000
1000
0000
0001
0000
,
1000
0010
0100
0010
0100
0010
1000
0000
0001
0010
0100
0010
2000
0000
3010
0000
,
0001
0000
0000
0000
0000
0000
0010
0000
0000
0100
0000
0000
1000
0000
0000
0000
0000
0000
0010
0000
0000
0100
0000
0000
0000
0000
0000
0010
0000
0000
0100
0000
0000
0000
0000
0000
0001
0000
0000
0000
0000
0000
1000
0000
0100
0000
0010
0000
,
0001
0000
0000
0000
0000
0000
0000
0000
0001
0000
0000
0000
0100
0000
0000
0000
0000
0000
0000
0000
0000
0000
0000
0000
0010
0000
0000
0000
1000
0000
0000
0000
0001
0000
0000
0000
0010
0000
0000
0000
0000
0000
0000
0000
0010
0000
0000
0000
0400
0000
0000
0000
0000
0000
0000
0000
0000
0000
0000
0000
0000
0000
0000
0300
,
0110
0000
0010
0000
0001
0000
1000
0010
1000
0010
1000
0010
0100
0000
0010
0000
,
1000
0000
0001
0010
0001
0000
0100
0010
0000
0010
1000
0000
0001
0000
1000
0100
,
0010
0000
0001
0000
0100
0000
0010
1000
0000
0010
0100
0000
0001
1000
0000
0000
,
1010
0000
1000
0001
0000
0000
0011
0000
0001
1000
0000
0001
1000
0010
0100
0001
,
1000
0000
0100
0000
0010
0000
0001
1000
0001
1000
0001
0000
0200
0000
0000
0000
,
0301
0000
0100
0000
0010
0000
1000
0001
1000
0001
1000
0000
0200
0000
0000
0000
,
0301
0100
1000
0010
0001
0010
1000
0001
,
2002
0000
0000
0000
,
0000
0000
3003
0000
,
0000
0000
0000
0000
1000
0000
0010
0000
1000
0000
0010
0000
0000
1000
0000
0000
,
0010
1000
0000
0001
0010
0000
0000
0001
0000
0000
1000
0000
0000
0001
0000
0100
,
0000
0000
0001
0000
0010
0000
0100
0000
0010
0000
0100
1000
0000
0100
0000
1000
,
0100
0000
0010
0000
0001
0000
0000
1000
0000
0000
0001
0000
0000
0100
0000
0000
,
0010
0000
1000
0000
0001
0000
0010
0000
0001
0000
0010
0000
0000
0001
0000
0000
,
0010
0001
0000
1000
0010
0000
0000
1000
0000
0000
0001
0000
0000
1000
0000
0100
,
0000
0000
1000
0000
0010
0000
0100
0000
0010
0000
0100
0001
0000
0100
0000
0001
,
0010
0000
0100
0000
1000
0000
0000
1000
0000
0000
0001
0010
0100
0010
0100
0010
,
0100
1000
0010
0100
0001
0000
1000
0000
0010
0000
1000
0000
0001
0010
0000
0001
,
1000
0010
0000
1000
0001
0000
1000
0100
0000
0010
0001
0000
1000
0001
0000
0100
,
0000
0010
1000
0000
0001
0000
1000
0000
0010
0000
1000
0100
0000
0010
0000
0001
,
0100
0000
0010
0000
1000
0000
0100
0010
0000
0001
0100
0000
0010
1000
0000
0100
,
1000
0000
0010
0000
1000
0000
0001
0000
0010
0000
0001
0000
1000
0010
0000
1000
,
0001
0010
0000
0001
1000
0000
0001
0100
0000
0010
1000
0000
0001
1000
0000
0100
,
0000
0010
0001
0000
1000
0001
1000
0001
0010
0001
1000
0010
0100
0010
0100
0001
,
1000
0001
0010
0100
2000
0000
0000
0000
0000
0000
0002
0000
0000
0000
3003
0000
,
1001
0000
0000
0000
0001
0000
0100
0000
0010
0000
1000
0010
0100
0001
0000
1000
,
0001
1000
0000
0100
0010
0000
0100
0001
0000
0100
0010
0000
0100
1000
0000
0010
,
0000
1000
0001
1000
0100
0000
0010
0000
0001
0000
1000
0010
0100
0001
0000
0001
,
0010
0100
1000
0000
0010
0000
0100
0010
0000
0001
0010
0000
0100
0010
0100
0010
,
1000
0000
0100
0010
0001
0000
1000
0000
0010
0000
0100
0001
1000
0100
0000
1000
,
0001
1000
0000
0001
0100
0000
0010
0100
0000
1000
0100
0000
0010
0100
0000
0001
,
0000
0010
0100
1000
0001
0100
0001
0100
0010
0100
0001
1000
0100
0010
0100
0010
,
0001
1000
0010
0100
0002
0000
0100
0000
0103
0000
0010
1000
0001
1000
0200
0000
,
0000
1300
1001
0000
0001
0101
0000
0100
,
0010
0000
1000
0000
1001
0000
1001
0000
0001
0000
1000
0010
1000
0000
0100
0000
,
0010
0000
0001
0000
0011
0000
0000
0000
1000
0000
1010
0000
0000
0000
0010
1000
,
0001
1000
0100
0000
1100
0000
0001
0000
0001
0000
0101
0000
1000
0000
1000
0000
,
0100
0010
1001
0000
1000
1010
0000
0010
,
0100
0001
1001
1000
0100
0110
0010
0001
,
1000
0010
0110
0000
0100
0101
0000
0001
,
0100
0020
2000
0000
0000
0000
0000
0000
,
0000
0000
0000
0000
0000
0000
3030
0000
1001
0000
0000
1100
0000
0000
0010
0001
,
1000
0000
0000
0000
0010
0000
0000
0000
0000
0000
0000
0000
0100
0000
0000
0000
0004
0000
0000
0000
0000
0000
0000
0000
0000
0000
0000
0000
0000
0000
0000
0003
1001
0000
0000
0000
0000
0000
0000
0000
0001
0000
0000
0000
0000
0000
0000
0000
0010
0000
0000
0000
0000
0000
0000
0000
0100
0000
0000
0000
0010
0000
0000
0000
,
0000
0010
0000
0100
1000
0010
0100
0000
0001
0000
0001
1000
0010
0000
0100
0010
,
0000
0010
0000
0001
0010
1000
0100
0000
0010
0000
0100
0000
1000
0000
0001
1000
,
0000
0000
1000
0000
0000
0000
0010
0000
1000
0000
0001
0000
0010
0000
0000
0000
0100
0010
0100
0000
0010
0000
0100
0000
1000
0000
0000
0000
1000
0000
0010
0000
,
0000
0000
0001
0000
0000
0000
1000
0000
0100
0010
0100
0000
0001
0000
0000
0000
1001
0000
0000
0000
1000
0000
0000
0000
0100
0000
0010
0000
0100
0000
1000
0000
,
0001
1000
0001
0100
0010
1000
0100
0010
0001
1000
0001
1000
0100
0010
0001
0100
,
0001
0100
0010
0100
1000
0100
0001
0010
0100
0010
0100
0010
0001
1000
0001
0100
,
0010
0100
0010
1000
0100
0010
0001
0000
1000
0010
0001
1000
0100
0001
1000
0100
,
0001
1000
0010
0001
1000
0010
0100
0001
2002
0000
0000
0000
0000
0000
0000
0000
,
0000
0000
3003
0000
;

//---------------dance-single - ----------------
#NOTEDATA:;
#CHARTNAME:;
#STEPSTYPE:dance-single;
#DESCRIPTION:;
#CHARTSTYLE:;
#DIFFICULTY:Hard;
#METER:14;
#RADARVALUES:0.611358,0.648821,0.175527,0.183885,0.551655,512.000000,491.000000,21.000000,22.000000,0.000000,0.000000,3.000000,0.000000,0.000000,0.611358,0.648821,0.175527,0.183885,0.551655,512.000000,491.000000,21.000000,22.000000,0.000000,0.000000,3.000000,0.000000,0.000000;
#CREDIT:;
#OFFSET:-0.066574;
#BPMS:0.000000=120.000000
,68.000000=130.000000
,72.000000=140.000000
,76.000000=150.000000
,80.000000=160.000000
,82.000000=170.000000
,84.000000=180.000000
,86.000000=190.000000
,88.000000=200.000000
,89.000000=210.000000
,90.000000=220.000000
,91.000000=240.000000
,92.000000=87.500000
,101.000000=175.000000
,213.000000=170.000000
,215.000000=160.000000
,217.000000=150.000000
,219.000000=140.000000
,221.000000=130.000000
,225.000000=60.000000
,230.000000=120.000000
;
#STOPS:;
#DELAYS:;
#WARPS:;
#TIMESIGNATURES:0.000000=4=4
;
#TICKCOUNTS:0.000000=4
;
#COMBOS:0.000000=1
;
#SPEEDS:0.000000=1.000000=0.000000=0
;
#SCROLLS:0.000000=1.000000
,225.000000=2.000000
,225.500000=1.750000
,226.000000=1.500000
,226.500000=1.250000
,227.000000=1.000000
,227.500000=0.900000
,228.000000=0.800000
,228.500000=0.650000
,229.000000=0.500000
,230.000000=1.000000
;
#FAKES:;
#LABELS:0.000000=Song Start
;
#NOTES:
0000
0000
0000
0000
,
0000
0000
0000
0000
,
0000
0000
0000
0000
,
0000
0000
0000
0000
,
0001
0010
0001
1000
0001
0100
1000
0100
,
0001
0010
0001
1000
0001
0100
1000
0100
,
0001
0010
0001
1000
0001
0100
0100
0100
,
0101
0000
0000
0000
0000
0000
0000
0000
0000
0000
0000
0000
1010
0000
0000
0000
0000
0000
0000
0000
0000
0000
0000
0000
1000
0000
0000
0000
0100
0000
0000
0000
1000
0000
0000
0000
0100
0000
0000
0000
0000
0000
0000
0000
0010
0000
0000
0000
0004
0000
0000
0000
0000
0000
0000
0000
0000
0000
0000
0000
0000
0000
0000
0003
,
2001
0000
0000
0000
3010
0000
0100
0010
0000
0010
2000
0000
0001
0000
0000
0000
,
3100
0000
0010
0100
1000
0001
0200
0000
0000
0301
0100
0010
2000
0000
0000
0000
,
3001
0000
1000
0000
0100
0000
0010
0001
0000
0001
1000
0000
0001
0100
0000
0000
,
0010
1000
0000
0010
1000
0010
1000
0002
0000
0000
0000
0000
1003
0100
0010
0001
,
1000
0000
0100
0000
0010
0000
0001
0100
0000
0100
0010
0000
1000
0000
0000
0000
,
0001
0010
0001
0000
1000
0100
1000
0000
0001
0000
1000
0000
0220
0000
0330
0000
,
1001
0000
0001
0000
0100
0000
0010
1000
0000
1000
0001
0000
1000
0000
0100
0000
,
0010
0000
0000
0000
0000
0000
0000
0000
0100
0000
0000
0000
0020
0000
0000
0000
0000
0000
0000
0000
0030
0000
0000
0000
0001
0000
0000
0000
1000
0000
0000
0000
0001
0000
0000
0000
1000
0000
0000
0000
0000
0000
0000
0000
0001
0000
0000
0000
0400
0000
0000
0000
0000
0000
0000
0000
0000
0000
0000
0000
0000
0000
0000
0300
,
0110
0000
0010
0000
1000
0000
0001
1000
0001
1000
0001
1000
0001
0000
0010
0000
,
0001
0000
1000
0000
0001
0000
0100
0010
0000
0100
0010
0000
1000
0000
0001
0000
,
1000
0000
0100
0000
0010
0000
0001
1000
0000
1000
0001
0000
0100
0000
0010
0000
,
1000
0000
0001
0100
0000
0000
0001
0000
1000
0100
0000
0000
0010
0000
0001
0000
,
1000
0000
0010
0000
0100
0000
0010
0000
1000
0001
1000
0000
0200
0000
0000
0000
,
0310
0000
0001
0000
0100
0000
0010
0000
1000
0001
1000
0000
0020
0000
0000
0000
,
1030
0010
0100
0001
0010
0100
1000
0010
,
2002
0000
0000
0000
,
0000
0000
3003
0000
,
0000
0000
0000
0000
1000
0000
0010
0000
1000
0000
0010
0000
0000
0100
0000
0000
,
0001
0000
0000
0000
0010
0000
0000
0001
0000
0000
0100
0000
0000
0010
0000
1000
,
0000
0000
0001
0000
0010
0000
0100
0000
0010
0000
0000
0100
0000
1000
0000
0000
,
0010
0000
0100
0000
0001
0000
0000
0010
0000
0000
0001
0000
0000
1000
0000
0000
,
0010
0000
1000
0000
0001
0000
0010
0000
0001
0000
0010
0000
0000
0100
0000
0000
,
1000
0000
0000
0000
0010
0000
0000
1000
0000
0000
0100
0000
0000
0010
0000
0001
,
0000
0000
1000
0000
0010
0000
0100
0000
0010
0000
0000
0100
0000
0001
0000
0000
,
0010
0000
0100
0000
1000
0000
0000
0010
0000
0000
1000
0000
0010
0000
0001
0000
,
0010
0000
1000
0000
0001
0000
0010
0000
0100
0000
1000
0000
0000
0001
0000
0000
,
0010
0001
0000
0001
1000
0000
0000
0010
0000
0000
0100
0000
0000
0001
0000
0001
,
0000
0000
1000
0000
0100
0000
0010
0000
0100
0000
0010
0001
0000
0100
0000
0010
,
1000
0000
0100
0000
0001
0000
0000
0100
0000
0000
0010
0000
0000
0100
0000
0000
,
1000
0000
0001
0000
1000
0000
0010
0000
0100
0000
0001
0000
0000
1000
0000
0000
,
0010
1000
0000
1000
0001
0000
0000
0010
0000
0000
0100
0000
0000
1000
0000
1000
,
0000
0000
0001
0000
1000
0000
0010
0000
0100
0000
0001
0010
0000
0100
0000
1000
,
0010
0100
0002
0000
0000
2000
0000
3003
,
1001
0000
0000
0000
0001
0000
0100
0000
1000
0000
0100
0000
0001
0100
0001
0100
,
0001
0000
0010
0000
0100
0000
1000
0001
1000
0000
0001
0000
0100
0010
0000
0010
,
1000
0000
0001
0000
1000
0000
0100
0000
0001
0000
0100
0000
1000
0100
1000
0100
,
1000
0000
0010
0000
0100
0000
0001
0010
0001
0000
0100
0000
0010
1000
0010
0000
,
0100
0000
0001
0000
0010
0000
1000
0000
0010
0000
0001
0000
0010
0100
0010
0100
,
0010
0000
0100
0000
1000
0000
0001
0100
0001
0000
1000
0000
0100
0010
0000
0010
,
0100
0000
1000
0000
0010
0000
0001
0000
0010
0000
1000
0000
0100
0010
0100
0010
,
0100
0000
0010
0000
0002
0000
0000
0000
0103
0000
0010
0100
0010
0000
2000
0000
,
0000
3100
1001
0000
0001
1001
0000
1000
,
0001
0100
1000
1000
0100
0001
0010
0100
,
1000
0010
1010
0000
0001
0011
0000
1000
,
0010
1000
0100
0001
0001
0100
0001
0001
,
0100
1000
1100
0000
0100
0110
0000
0010
,
0001
0100
0010
0010
1000
0001
0100
0010
,
1000
0100
0011
0000
0100
1010
0000
0001
,
0010
0002
2000
0000
0000
0000
0000
0000
,
0000
0000
0000
0000
0000
0000
3003
0000
1100
0000
0000
0011
0000
0000
0001
0100
,
0001
0000
0000
0000
0100
0000
0000
0000
0000
0000
0000
0000
0010
0000
0000
0000
4000
0000
0000
0000
0000
0000
0000
0000
0000
0000
0000
0000
0000
0000
0000
3000
1001
0000
0000
0000
0000
0000
0000
0000
0001
0000
0000
0000
0000
0000
0000
0000
0100
0000
0000
0000
0000
0000
0000
0000
0010
0000
0000
0000
0100
0000
0000
0000
,
0000
0100
0000
0010
1000
0001
1000
0000
0001
0000
0001
1000
0100
0000
1000
0100
,
0000
0100
0000
0010
0001
1000
0001
0000
1000
0000
1000
0000
0001
0000
0100
0010
,
0000
0010
0000
1000
0001
0100
0001
0000
1000
0100
1000
0100
0020
0000
0031
0010
,
0000
2000
0000
3010
0100
0010
0001
0000
0100
0000
0010
0000
1000
0000
0001
0010
,
0000
0010
0000
0100
0010
0001
0100
0000
0001
0000
0001
1000
0100
0000
1000
0010
,
0000
0010
0000
0100
0010
1000
0100
0000
0001
0000
0100
0000
1000
0000
0010
0100
,
0000
0100
0000
0001
0010
0100
1000
0000
1001
0000
0001
0100
0000
0100
1000
0000
,
1000
0010
0000
0010
0001
0000
0100
0000
0220
0000
0000
0000
0000
0000
0000
0000
,
0000
0000
0330
0000
;

//---------------dance-single - ----------------
#NOTEDATA:;
#CHARTNAME:;
#STEPSTYPE:dance-single;
#DESCRIPTION:;
#CHARTSTYLE:;
#DIFFICULTY:Medium;
#METER:10;
#RADARVALUES:0.396427,0.564193,0.225677,0.334336,0.121197,332.000000,305.000000,27.000000,40.000000,0.000000,0.000000,0.000000,0.000000,0.000000,0.396427,0.564193,0.225677,0.334336,0.121197,332.000000,305.000000,27.000000,40.000000,0.000000,0.000000,0.000000,0.000000,0.000000;
#CREDIT:;
#OFFSET:-0.066574;
#BPMS:0.000000=120.000000
,68.000000=130.000000
,72.000000=140.000000
,76.000000=150.000000
,80.000000=160.000000
,82.000000=170.000000
,84.000000=180.000000
,86.000000=190.000000
,88.000000=200.000000
,89.000000=210.000000
,90.000000=220.000000
,91.000000=240.000000
,92.000000=87.500000
,101.000000=175.000000
,213.000000=170.000000
,215.000000=160.000000
,217.000000=150.000000
,219.000000=140.000000
,221.000000=130.000000
,225.000000=60.000000
,230.000000=120.000000
;
#STOPS:;
#DELAYS:;
#WARPS:;
#TIMESIGNATURES:0.000000=4=4
;
#TICKCOUNTS:0.000000=4
;
#COMBOS:0.000000=1
;
#SPEEDS:0.000000=1.000000=0.000000=0
;
#SCROLLS:0.000000=1.000000
,225.000000=2.000000
,225.500000=1.800000
,226.000000=1.600000
,226.500000=1.400000
,227.000000=1.200000
,227.500000=1.000000
;
#FAKES:;
#LABELS:0.000000=Song Start
;
#NOTES:
0000
0000
0000
0000
,
0000
0000
0000
0000
,
0000
0000
0000
0000
,
0000
0000
0000
0000
,
0001
0010
0001
1000
0001
0100
0010
1000
,
0001
0010
0001
1000
0001
0100
0010
1000
,
0001
0010
0001
1000
0001
0100
0010
0100
,
0110
0000
0000
1001
0000
0000
1000
0000
0100
0000
0000
0000
0220
0000
0330
0000
,
1002
0000
0000
0000
0103
0000
0000
0010
0000
0000
0010
0000
1000
0000
0000
0000
,
0010
1000
0100
0002
0003
0001
0200
0000
,
1300
0000
0100
0000
0010
0000
0000
0001
0000
0000
0001
0000
0100
0000
0000
0000
,
0010
0000
0000
0000
0010
0000
0000
0020
0000
0000
0000
0000
1030
0000
0010
0000
,
0001
0000
0010
0000
1000
0000
0000
0001
0000
0000
0100
0000
0010
0000
0000
0000
,
1000
0100
1000
0100
0010
0100
2000
3000
,
1001
0000
0001
0000
0100
0000
0000
0010
0000
0000
0010
0000
1000
0000
0001
0000
,
0010
0000
0000
0010
0000
0000
0001
0000
0100
0000
0000
0000
0220
0000
0330
0000
,
1001
0000
0001
0000
1000
0010
0100
0001
,
1000
0000
0100
0010
0000
0010
0100
0000
,
1000
0000
0000
0000
0010
0000
0000
0100
0000
0000
0100
0000
0010
0000
0000
0000
,
1000
0000
0000
0100
0000
0000
0010
0000
0001
0000
0000
0000
1001
0000
0000
0000
,
0001
0000
0100
0000
0001
0100
0010
0000
,
1000
0000
0100
0000
1000
0100
0010
0000
,
0001
1000
0001
1000
0001
1000
0001
0000
,
2002
0000
0000
0000
,
0000
0000
3003
0000
,
0000
2001
0000
0000
,
0000
0000
3020
0000
0000
0230
0000
0000
,
0302
2003
0000
0000
,
0000
0000
3200
0000
0000
0320
0000
0000
,
0032
2003
0000
0000
,
0000
0000
3002
0000
0000
0203
0000
0000
,
0320
2030
0000
0000
,
0000
0000
3002
0000
0000
1003
0100
0010
,
0001
0000
1000
0001
1000
0000
0001
1000
,
0010
1000
0100
0001
,
0010
0000
1000
0001
1000
0000
0010
0100
,
0010
1000
0100
0010
,
0001
0000
0100
0010
0100
0000
0010
0100
,
0001
0010
1000
0100
,
0001
0000
1000
0010
1000
0000
0001
0010
,
0001
2002
0000
0000
,
3003
0000
0001
0100
1000
0000
1000
0100
,
0001
1000
0100
0010
,
0001
0000
1000
0100
0001
0000
0001
0100
,
1000
0010
0100
0001
,
1000
0000
0001
0010
1000
0000
1000
0010
,
0001
0100
0010
1000
,
0001
0000
1000
0010
0001
0000
0001
0010
,
1000
0220
0000
0000
,
0330
0000
1001
0000
0000
1001
0000
0000
,
1000
0000
0100
0010
0000
0100
0010
0000
,
0001
0000
0101
0000
0000
1100
0000
0000
,
1000
0000
0001
0100
0000
0010
1000
0000
,
0001
0000
1001
0000
0000
1001
0000
0000
,
0001
0000
0010
0100
0000
0010
0100
0000
,
1000
0000
1001
0000
0001
0010
0000
0001
,
0100
0020
2000
0000
0000
0000
0000
0000
,
0000
0000
0000
0000
0000
0000
3030
0000
0110
0000
0000
1001
0000
0000
0001
0000
,
0100
0000
0000
0000
0220
0000
0330
0000
0001
0000
0100
0000
0010
0000
0000
0100
,
0000
0100
0000
0010
1000
0000
0001
0000
1000
0000
0100
0000
0010
0000
0000
0100
,
0000
0100
0000
0010
0001
0000
1000
0000
0001
0000
1000
0000
0010
0000
0000
0100
,
0000
0100
0000
0010
1000
0000
0001
0000
1000
0000
0100
0000
0020
0000
0000
0230
,
0000
0320
0000
0000
0230
0000
0320
0000
0031
0000
1000
0000
0010
0000
0000
0100
,
0000
0100
0000
0001
1000
0000
0100
0000
0010
0000
0001
0000
1000
0000
0000
0010
,
0000
0010
0000
1000
0001
0000
0010
0000
0100
0000
1000
0000
0001
0000
0100
0000
,
0010
0000
1000
0000
0001
0000
0010
0000
0011
0000
0000
0110
0000
0000
1100
0000
,
0000
1001
0000
0000
0001
0000
0100
0000
0220
0000
0000
0000
0000
0000
0000
0000
,
0000
0000
0330
0000
;

//---------------dance-single - ----------------
#NOTEDATA:;
#CHARTNAME:;
#STEPSTYPE:dance-single;
#DESCRIPTION:;
#CHARTSTYLE:;
#DIFFICULTY:Easy;
#METER:6;
#RADARVALUES:0.269857,0.349799,0.117018,0.267469,0.004179,226.000000,212.000000,14.000000,32.000000,0.000000,0.000000,0.000000,0.000000,0.000000,0.269857,0.349799,0.117018,0.267469,0.004179,226.000000,212.000000,14.000000,32.000000,0.000000,0.000000,0.000000,0.000000,0.000000;
#CREDIT:;
#OFFSET:-0.066574;
#BPMS:0.000000=120.000000
,68.000000=130.000000
,72.000000=140.000000
,76.000000=150.000000
,80.000000=160.000000
,82.000000=170.000000
,84.000000=180.000000
,86.000000=190.000000
,88.000000=200.000000
,89.000000=210.000000
,90.000000=220.000000
,91.000000=240.000000
,92.000000=175.000000
,222.000000=170.000000
,224.000000=160.000000
,226.000000=150.000000
,228.000000=140.000000
,230.000000=130.000000
,234.000000=60.000000
,239.000000=120.000000
;
#STOPS:;
#DELAYS:;
#WARPS:;
#TIMESIGNATURES:0.000000=4=4
;
#TICKCOUNTS:0.000000=4
;
#COMBOS:0.000000=1
;
#SPEEDS:0.000000=1.000000=0.000000=0
;
#SCROLLS:0.000000=1.000000
;
#FAKES:;
#LABELS:0.000000=Song Start
;
#NOTES:
0000
0000
0000
0000
,
0000
0000
0000
0000
,
0000
0000
0000
0000
,
0000
0000
0000
0000
,
0001
0000
0010
0000
0001
1000
0001
0000
,
1000
0000
0010
0000
1000
0001
1000
0000
,
0100
0000
0010
0000
0001
1000
0001
2000
,
0002
0000
3003
0110
,
1001
0001
0100
0100
,
0010
0000
1000
0000
0001
1000
0001
0000
,
1000
0100
0010
0001
,
1000
0000
0000
0000
1000
0000
0000
2000
0000
0000
0000
0000
3001
0000
0000
0000
,
1000
1000
0010
0100
,
0001
0000
0001
0000
1000
0001
0020
0000
,
0031
0100
0010
1000
,
2002
0000
3003
0110
,
1001
1000
0200
0320
,
0031
0001
0100
0010
,
1000
0001
1000
0001
,
0010
0000
0010
0010
,
0100
1000
0002
0003
,
0100
0001
2000
3000
,
0100
0010
0100
0010
,
2002
0000
0000
0000
,
0000
0000
0000
0000
,
0000
0000
0000
0000
,
3003
0000
0000
0000
,
0000
0000
2001
0000
,
0000
0000
3020
0000
,
0000
0000
0230
0000
,
0000
0000
0302
0000
,
0000
0000
0023
0000
,
0000
0000
0230
0000
,
0000
0000
2300
0000
,
0000
0000
3002
0000
,
0103
0100
1001
0001
,
1000
1000
0010
1000
,
0100
0010
0001
0001
,
1000
1000
0001
0100
,
0010
1000
0100
0100
,
0010
0010
0001
0100
,
0010
1000
0001
0010
,
0100
1000
2002
0000
,
0000
3003
0001
0100
,
1000
0100
0001
0001
,
0100
0010
1000
0100
,
0001
0100
1000
1000
,
0010
0100
0001
0010
,
1000
0010
0001
0001
,
1000
0001
1000
0010
,
0100
0001
2002
0000
,
0000
0000
3003
0000
1000
0000
0000
1000
,
0000
0001
0100
0010
,
1000
0000
0001
0000
0010
0000
0000
0010
,
0000
0001
0100
0010
,
0100
0000
0010
0000
1000
0000
0000
1000
,
0000
0001
1000
0100
,
0100
0000
0000
0000
1001
0000
0001
1000
,
0000
1000
0002
0000
2000
0000
0000
0000
,
3003
0000
0000
2002
,
0000
3003
0110
1001
,
0001
0000
1000
0000
0001
1000
0100
0000
,
1000
0000
0001
0000
1000
0010
0100
0000
,
0001
0000
1000
0000
0001
0010
0100
0000
,
1000
0000
1000
0000
1000
0010
1000
0000
,
0001
0000
0010
0000
1000
0100
0001
0000
,
1000
0000
0010
0000
0001
0100
1000
0000
,
0001
0000
0000
0000
1000
0000
0000
0000
0010
0000
1000
0000
0200
0000
0000
0300
,
0000
0000
0020
0000
0000
0030
0000
0000
0001
0000
2000
0000
0002
0000
0000
0000
,
0000
0000
0000
3003
;

//---------------dance-single - ----------------
#NOTEDATA:;
#CHARTNAME:;
#STEPSTYPE:dance-single;
#DESCRIPTION:;
#CHARTSTYLE:;
#DIFFICULTY:Beginner;
#METER:3;
#RADARVALUES:0.174333,0.267051,0.133735,0.208960,0.000000,146.000000,130.000000,16.000000,25.000000,0.000000,0.000000,0.000000,0.000000,0.000000,0.174333,0.267051,0.133735,0.208960,0.000000,146.000000,130.000000,16.000000,25.000000,0.000000,0.000000,0.000000,0.000000,0.000000;
#CREDIT:;
#OFFSET:-0.066574;
#BPMS:0.000000=120.000000
,68.000000=130.000000
,72.000000=140.000000
,76.000000=150.000000
,80.000000=160.000000
,82.000000=170.000000
,84.000000=180.000000
,86.000000=190.000000
,88.000000=200.000000
,89.000000=210.000000
,90.000000=220.000000
,91.000000=240.000000
,92.000000=175.000000
,222.000000=170.000000
,224.000000=160.000000
,226.000000=150.000000
,228.000000=140.000000
,230.000000=130.000000
,234.000000=120.000000
;
#STOPS:;
#DELAYS:;
#WARPS:;
#TIMESIGNATURES:0.000000=4=4
;
#TICKCOUNTS:0.000000=4
;
#COMBOS:0.000000=1
;
#SPEEDS:0.000000=1.000000=0.000000=0
;
#SCROLLS:0.000000=1.458333
,68.000000=1.346153
,72.000000=1.250000
,76.000000=1.166666
,80.000000=1.093750
,82.000000=1.029411
,84.000000=0.972222
,86.000000=0.921052
,88.000000=0.875000
,89.000000=0.833333
,90.000000=0.795454
,91.000000=0.729166
,92.000000=1.000000
,222.000000=1.029411
,224.000000=1.093750
,226.000000=1.166666
,228.000000=1.250000
,230.000000=1.296300
,234.000000=1.458330
;
#FAKES:;
#LABELS:0.000000=Song Start
;
#NOTES:
0000
0000
0000
0000
,
0000
0000
0000
0000
,
0000
0000
0000
0000
,
0000
0000
0000
0000
,
0001
0000
1000
0000
,
0001
0000
1000
0000
,
0001
0000
1000
0001
,
2002
0000
3003
0110
,
1001
0000
0001
0000
,
0100
0000
0010
0010
,
0010
0000
1000
0000
,
0100
0100
0200
0300
,
1000
0000
0001
0000
,
1000
0000
0010
0020
,
0130
0000
0010
0000
,
2002
0000
3003
0110
,
1001
0000
0100
0000
,
0010
0000
0001
0000
,
0010
0000
0100
0000
,
1000
0000
1000
1000
,
0001
0000
1000
0000
,
0001
0000
1000
0000
,
0001
0000
1000
0000
,
2002
0000
0000
0000
,
0000
0000
3003
0000
,
0000
0000
0000
0000
,
0000
0000
0000
0000
,
0000
0000
2001
0000
,
0000
3000
0020
0000
,
0000
0030
0200
0000
,
0000
0300
0002
0000
,
0000
0003
0020
0000
,
0000
0030
0200
0000
,
0000
0300
2000
0000
,
0000
3000
0002
0000
,
1003
0000
0001
0000
,
0001
0000
0100
0100
,
0100
0000
0010
0000
,
0010
0000
1000
1000
,
1000
0000
0100
0000
,
0100
0000
0010
0010
,
0010
0000
0001
0000
,
1000
0000
2002
0000
,
0000
3003
0001
0000
,
0100
0000
0001
1000
,
0001
0000
1000
0000
,
0100
0000
1000
0001
,
1000
0000
0010
0000
,
0100
0000
0001
1000
,
0001
0000
0010
0000
,
0100
0000
2002
0000
,
0000
3003
1000
0000
,
1000
0000
0001
0000
,
0001
0000
0100
0000
,
0010
0000
0100
0000
,
0001
0000
1000
0000
,
1000
0000
0100
0000
,
0100
0000
0010
0000
,
0001
0000
2000
0000
,
0000
0000
0000
0000
0000
0000
0000
3000
,
0000
0000
0000
0000
,
2002
0000
3003
0110
,
1001
1000
1000
0000
,
0100
0100
0100
0000
,
0010
0010
0010
0000
,
0001
0001
0001
0000
,
0100
0010
0100
0000
,
0010
0100
0010
0000
,
1000
0001
1000
0000
,
1001
0000
0110
0000
,
2002
0000
0000
0000
,
3003
0000
0000
0000
;
