#VERSION:0.83;
#TITLE:カーテンコール・メモリーズ;
#SUBTITLE:;
#ARTIST:DJ TOTTO & Qrispy Joybox;
#TITLETRANSLIT:Curtain call memories;
#SUBTITLETRANSLIT:;
#ARTISTTRANSLIT:;
#GENRE:Happy Pop;
#ORIGIN:;
#CREDIT:;
#BANNER:Curtain call memories.png;
#BACKGROUND:Curtain call memories-bg.png;
#PREVIEWVID:;
#JACKET:Curtain call memories-jacket.png;
#CDIMAGE:;
#DISCIMAGE:;
#LYRICSPATH:;
#CDTITLE:cdtitle.png;
#MUSIC:Curtain call memories.ogg;
#OFFSET:-0.009085;
#SAMPLESTART:52.727848;
#SAMPLELENGTH:11.098267;
#SELECTABLE:YES;
#BPMS:0.000=173.000,
148.000=86.500,
150.000=173.000,
214.000=86.500,
228.000=173.000;
#STOPS:;
#DELAYS:;
#WARPS:;
#TIMESIGNATURES:0.000=4=4;
#TICKCOUNTS:0.000=4;
#COMBOS:0.000=1;
#SPEEDS:0.000=1.000=0.000=0;
#SCROLLS:0.000=1.000;
#FAKES:;
#LABELS:0.000=Song Start;
#BGCHANGES:;
#KEYSOUNDS:;
#ATTACKS:
;

//---------------dance-single - ----------------
#NOTEDATA:;
#CHARTNAME:;
#STEPSTYPE:dance-single;
#DESCRIPTION:;
#CHARTSTYLE:;
#DIFFICULTY:Challenge;
#METER:15;
#RADARVALUES:0.811271,1.205505,0.302752,0.522936,0.715596,619.000000,586.000000,33.000000,57.000000,0.000000,0.000000,0.000000,0.000000,0.000000,0.811271,1.205505,0.302752,0.522936,0.715596,619.000000,586.000000,33.000000,57.000000,0.000000,0.000000,0.000000,0.000000,0.000000;
#CREDIT:;
#OFFSET:-0.009085;
#BPMS:0.000000=173.000000
,148.000000=86.500000
,150.000000=173.000000
,214.000000=86.500000
,228.000000=173.000000
;
#STOPS:;
#DELAYS:;
#WARPS:;
#TIMESIGNATURES:0.000000=4=4
;
#TICKCOUNTS:0.000000=4
;
#COMBOS:0.000000=1
;
#SPEEDS:0.000000=1.000000=0.000000=0
;
#SCROLLS:0.000000=1.000000
,147.750000=0.500000
,148.000000=1.000000
,212.500000=0.500000
,214.000000=1.000000
;
#FAKES:;
#LABELS:0.000000=Song Start
;
#NOTES:
// measure 0
0000
0000
0000
0000
,  // measure 1
0000
0000
0000
0000
,  // measure 2
0000
0000
0000
0000
,  // measure 3
0000
0000
0000
0000
,  // measure 4
0000
0000
0000
0000
,  // measure 5
0000
0000
0000
0000
,  // measure 6
1000
0000
0010
1000
0010
0000
0100
0000
0001
0000
0010
0000
0100
0000
0010
0001
,  // measure 7
1000
0000
0000
0010
0000
0000
0100
0000
0000
0000
0000
0000
0001
0000
0000
0000
0000
0000
1000
0000
0000
0000
0000
0000
0001
0000
0000
0000
0010
0000
0000
0000
0100
0000
0000
0000
1000
0000
0000
0000
0010
0000
0000
0000
0100
0000
0000
0000
,  // measure 8
0002
0000
0000
0000
0000
0000
1003
0100
0010
0000
0010
0100
1000
0000
1000
0001
,  // measure 9
0200
0000
0000
0000
0000
0000
0301
1000
0200
0000
0000
0000
0300
0000
0000
0000
,  // measure 10
1000
0000
0010
0100
0010
0000
1000
0000
0001
0000
0010
0000
0100
0000
0010
0100
,  // measure 11
0010
0001
0100
1000
0100
1000
0100
0001
,  // measure 12
1000
0000
0100
0010
0100
0000
1000
0000
0001
0000
0100
0000
0010
0000
0100
0010
,  // measure 13
0100
0000
0001
0000
0010
0000
1000
0000
0010
0000
0001
0100
0001
0100
0010
1000
,  // measure 14
0001
0000
0010
0000
0100
0000
0010
0000
0001
0000
0100
0010
0100
0000
0001
0000
,  // measure 15
1000
0000
0001
0000
0010
0000
0100
0000
0010
0001
1000
0000
0001
0000
0100
0000
,  // measure 16
0102
0000
1003
1200
0000
0310
0021
0000
,  // measure 17
0000
2030
0000
3010
0001
0100
1000
0100
,  // measure 18
0001
0000
0010
0100
0010
0000
0001
0000
1000
0000
0010
0000
0100
0000
0010
0100
,  // measure 19
0010
1000
0100
0001
0100
0001
0100
1000
,  // measure 20
0001
0000
0100
0010
0100
0000
0001
0000
1000
0000
0100
0000
0010
0000
0100
0010
,  // measure 21
0100
0000
1000
0000
0010
0000
0001
0000
0010
0000
1000
0100
1000
0100
0010
0001
,  // measure 22
1000
0000
0010
0000
0100
0000
0010
0000
1000
0000
0100
0010
0100
0000
1000
0000
,  // measure 23
0001
0000
1000
0000
0010
0000
0100
0000
0010
1000
0001
0000
1000
0000
0100
0000
,  // measure 24
2100
0000
3001
0201
0000
0310
1020
0000
,  // measure 25
0000
0000
0032
0000
0000
0000
2003
0000
0000
0000
3100
0000
0001
0000
0010
0100
,  // measure 26
1000
0000
0001
0010
0001
0000
1000
0001
1000
0000
0001
0100
0001
0000
1000
0000
,  // measure 27
0100
0000
0001
0000
0100
0000
1000
0000
0100
0000
1000
0001
0100
0010
0100
0001
,  // measure 28
1000
0000
0001
0100
0001
0000
1000
0001
1000
0000
0100
1000
0100
0000
0010
0001
,  // measure 29
1000
0010
0100
1000
0100
0001
0010
0010
,  // measure 30
0001
0000
1000
0010
1000
0000
0001
1000
0001
0000
1000
0100
1000
0000
0001
0000
,  // measure 31
0100
0000
1000
0000
0100
0000
0001
0000
0100
0000
0001
1000
0100
0010
0100
1000
,  // measure 32
0001
0000
0100
0001
0100
0000
0001
1000
0001
0000
1000
0100
1000
0000
0001
0100
,  // measure 33
0010
1000
0010
1000
0010
1000
0001
0000
0000
0000
1000
0000
0100
0000
0000
0000
,  // measure 34
0210
0000
0000
0000
0310
0000
0100
1000
0002
0000
0000
0000
1003
0000
0001
0100
,  // measure 35
0020
0000
0000
0000
0130
0000
0010
1000
0002
0000
0000
0000
1003
0000
0100
0010
,  // measure 36
0001
1000
0001
1000
0010
1000
0010
1000
0001
1000
0001
1000
0001
0010
0001
0010
,  // measure 37
0000
0000
0000
0000
0000
0000
0000
0000
0000
0001
0000
0000
0100
0000
0000
0010
1000
0010
1000
0000
0000
0001
0000
0000
0010
0000
0000
0000
0000
0000
0100
0000
0010
0000
0100
0000
0010
0000
0000
0000
0000
0000
0001
0000
0000
0000
0000
0000
,  // measure 38
0200
0000
0000
0000
1300
0000
0200
0000
0000
0000
0301
1000
0002
0000
0000
0000
,  // measure 39
1003
0100
1000
0100
0010
0001
0010
0001
1000
0000
0010
0100
0010
0000
1000
0000
,  // measure 40
0002
0000
0000
0000
0013
0000
2000
0000
3000
0000
0010
0100
0020
0000
0000
0000
,  // measure 41
0130
0010
0001
0000
0100
0000
0010
0000
1000
0000
0100
0000
0001
0000
0100
0010
,  // measure 42
0200
0000
0000
0000
1300
0000
0020
0000
0000
0000
0032
0000
0003
0000
0010
0100
,  // measure 43
0010
0000
1000
0000
0001
0000
0010
0000
0100
0000
1000
0200
0000
0000
0310
0000
,  // measure 44
0001
0000
1000
0020
0000
0000
0031
0000
0010
0000
1000
0200
0000
0000
0310
0000
,  // measure 45
0002
0000
0000
0000
0000
0000
1003
0000
0000
0000
0000
0000
0100
0000
0000
0010
0000
0000
0001
0000
0000
1000
0000
0000
0010
0000
0000
0000
0000
0000
0100
0000
0010
0000
0100
0000
0010
0000
0000
0000
0000
0000
1000
0000
0000
0000
0000
0000
,  // measure 46
0200
0000
0000
0000
0301
0000
0200
0000
0000
0000
1300
0001
2000
0000
0000
0000
,  // measure 47
3001
0100
0001
0100
0010
1000
0010
1000
0001
0000
0010
0100
0010
0000
0001
0000
,  // measure 48
2000
0000
0000
0000
3010
0000
0002
0000
0003
0000
0010
0100
0020
0000
0000
0000
,  // measure 49
0130
0010
1000
0000
0100
0000
0010
0000
0012
0000
0000
0000
0103
0000
1010
0000
,  // measure 50
0000
0000
1001
0000
0000
0000
0012
0000
0000
0000
0013
0100
1000
0001
0200
0000
,  // measure 51
0000
1300
0100
0001
0102
0000
0013
1100
,  // measure 52
0000
0000
1010
0000
0000
0000
0102
0000
0000
0000
1003
0100
0010
0001
1000
0010
,  // measure 53
0100
0000
0000
0000
0110
0000
0000
0000
0000
0000
0000
0000
0000
0000
0000
0000
0001
0000
0100
0001
0100
0000
0010
0000
1000
0000
0000
0000
1000
0000
0100
0000
,  // measure 54
0000
0000
0100
1000
0001
0000
0000
0000
1000
0010
0100
0001
1000
0010
0100
0001
1000
0000
0100
1000
0100
0000
0010
0000
0001
0000
0000
0000
1000
0000
0010
0000
,  // measure 55
0000
0000
0100
0001
1000
0000
0000
0000
0100
0010
0100
0000
0010
0000
0001
0000
0100
0000
1000
0000
0100
0000
0001
0000
0010
0000
0000
0000
0100
0000
1000
0000
,  // measure 56
0000
0000
0001
0000
0000
0000
1000
0010
1000
0000
0010
0000
0100
0000
0001
0000
1000
0000
0000
0000
0100
0000
0000
0000
0010
0000
0000
0000
0001
1000
0010
0000
,  // measure 57
1010
0101
0011
1100
,  // measure 58
1002
0000
0103
0001
0020
0000
1030
0020
,  // measure 59
0000
0000
0031
1000
0002
0000
0000
0000
1003
0010
1000
0010
0100
0001
0100
0001
,  // measure 60
1000
0000
0100
0010
0100
0000
1000
0000
0002
0000
0000
0000
0103
0000
2000
0000
,  // measure 61
3000
0000
0100
0010
0200
0000
0000
0000
0310
0100
0001
0000
1000
0000
0100
0000
,  // measure 62
0120
0000
0031
1001
0000
0101
0000
2010
,  // measure 63
0000
0000
3001
0100
0010
1000
0200
0000
0000
0000
0301
0000
0100
0000
1000
0000
,  // measure 64
2100
0000
3010
1001
0000
1100
0000
0012
,  // measure 65
0000
0000
1003
0010
1000
0000
0001
0010
0001
0000
0100
0000
1000
0000
0100
0000
,  // measure 66
0120
0000
1030
1001
0000
1100
0000
0021
,  // measure 67
0000
0000
0130
0010
0001
1000
0010
0100
0001
0000
0010
0000
1000
0000
0010
0000
,  // measure 68
0001
0000
0100
0010
1000
0000
0001
0000
0010
0000
0100
0000
0001
0000
0100
0000
,  // measure 69
0010
0000
0000
0001
0000
0000
1000
0000
0000
0000
0000
0000
0010
0000
0000
0000
0000
0000
0001
0000
0000
0000
0000
0000
0010
0000
0000
0000
1000
0000
0000
0000
0100
0000
0000
0000
0010
0000
0000
0000
0001
0000
0000
0000
0100
0000
0000
0000
,  // measure 70
0020
0000
0000
0000
0000
0000
1030
0001
0020
0000
0000
0000
0000
0000
0130
1000
,  // measure 71
0002
0000
0000
0000
,  // measure 72
0000
0000
0000
0000
,  // measure 73
0003
0000
0000
0000
;

//---------------dance-single - ----------------
#NOTEDATA:;
#CHARTNAME:;
#STEPSTYPE:dance-single;
#DESCRIPTION:;
#CHARTSTYLE:;
#DIFFICULTY:Hard;
#METER:12;
#RADARVALUES:0.615990,0.904128,0.357798,0.587156,0.128440,470.000000,431.000000,39.000000,64.000000,0.000000,0.000000,0.000000,0.000000,0.000000,0.615990,0.904128,0.357798,0.587156,0.128440,470.000000,431.000000,39.000000,64.000000,0.000000,0.000000,0.000000,0.000000,0.000000;
#CREDIT:;
#OFFSET:-0.009085;
#BPMS:0.000000=173.000000
,148.000000=86.500000
,150.000000=173.000000
,214.000000=86.500000
,228.000000=173.000000
;
#STOPS:;
#DELAYS:;
#WARPS:;
#TIMESIGNATURES:0.000000=4=4
;
#TICKCOUNTS:0.000000=4
;
#COMBOS:0.000000=1
;
#SPEEDS:0.000000=1.000000=0.000000=0
;
#SCROLLS:0.000000=1.000000
,147.500000=0.500000
,148.000000=1.000000
,212.500000=0.500000
,214.000000=1.000000
;
#FAKES:;
#LABELS:0.000000=Song Start
;
#NOTES:
// measure 0
0000
0000
0000
0000
,  // measure 1
0000
0000
0000
0000
,  // measure 2
0000
0000
0000
0000
,  // measure 3
0000
0000
0000
0000
,  // measure 4
0000
0000
0000
0000
,  // measure 5
0000
0000
0000
0000
,  // measure 6
1000
0100
0010
0001
0100
0010
1000
0001
,  // measure 7
0010
1000
0010
0001
0100
0010
1000
0001
,  // measure 8
0020
0000
0030
0100
0010
0001
1000
0010
,  // measure 9
0200
0000
0000
0001
0002
0000
0303
0000
,  // measure 10
0001
1000
0100
0010
0100
1000
0000
1000
,  // measure 11
0010
0100
0010
0001
0000
0001
0010
1000
,  // measure 12
0000
0001
0010
0100
0010
0001
0000
0001
,  // measure 13
0100
0010
0100
1000
0000
1000
0100
0001
,  // measure 14
0010
0000
0000
0000
0011
0000
0000
0000
1100
0000
0000
0001
0000
0000
0201
0000
,  // measure 15
0000
0000
0310
0000
1000
0010
0100
0001
,  // measure 16
2001
0000
3001
0021
0000
0031
2001
0000
,  // measure 17
0000
3010
0000
0010
1000
0001
1000
0100
,  // measure 18
0010
0001
0100
0010
0100
0001
0000
0001
,  // measure 19
0010
0100
0010
1000
0000
1000
0010
0001
,  // measure 20
0000
1000
0010
0100
0010
1000
0000
1000
,  // measure 21
0100
0010
0100
0001
0000
0001
0100
1000
,  // measure 22
0010
0000
0000
0000
1010
0000
0000
0000
0101
0000
0000
1000
0000
0000
1200
0000
,  // measure 23
0000
0000
0310
0000
0001
0010
0100
1000
,  // measure 24
1002
0000
1003
1020
0000
1030
1002
0000
,  // measure 25
0000
0023
0000
2030
0000
3010
0100
0010
,  // measure 26
0001
1000
1000
0010
0010
0100
0100
0001
,  // measure 27
1000
0100
0010
0001
0000
0100
0010
1000
,  // measure 28
0001
0010
0010
0100
0100
1000
1000
0010
,  // measure 29
0001
0010
1000
0100
0000
0100
1000
0010
,  // measure 30
0100
0001
0001
0010
0010
0100
0100
1000
,  // measure 31
0001
0100
0010
1000
0000
0100
0010
0001
,  // measure 32
1000
0010
0010
0100
0100
0001
0001
1000
,  // measure 33
0100
0010
0100
0010
0000
0001
0100
0000
,  // measure 34
2001
0000
3010
1000
0200
0000
1300
0100
,  // measure 35
0002
0000
0103
0001
0020
0000
0031
0010
,  // measure 36
1000
0100
1000
0100
0010
0001
1000
0010
,  // measure 37
0000
0000
0000
1000
0010
0100
0001
1000
0100
0000
0010
0000
0100
0000
1000
0000
,  // measure 38
0002
0000
0103
0020
0030
0100
0002
0000
,  // measure 39
0103
0010
1000
0001
0010
0100
0010
0001
,  // measure 40
2000
0000
3010
0002
0003
0010
2000
0000
,  // measure 41
3010
1000
0001
0010
0100
1000
0010
0100
,  // measure 42
0002
0000
0013
0200
0000
0302
0003
0100
,  // measure 43
0010
0000
0001
0000
0100
0000
0010
0000
2000
0000
0000
3200
0000
0000
0320
0000
,  // measure 44
0032
0000
0000
0203
0000
0000
0302
0000
0023
0000
0000
2030
0000
0000
3020
0000
,  // measure 45
0032
0000
1003
0001
0100
0010
0100
0001
,  // measure 46
2000
0000
3100
0020
0030
0100
2000
0000
,  // measure 47
3100
0010
0001
1000
0010
0100
0010
1000
,  // measure 48
0002
0000
0013
2000
3000
0010
0002
0000
,  // measure 49
0013
0001
1000
0001
0102
0000
1003
1100
,  // measure 50
0000
0011
0000
2001
0000
3010
1000
0200
,  // measure 51
0000
0310
0001
0100
2010
0000
3001
0011
,  // measure 52
0000
1100
0000
1002
0000
0103
0010
1000
,  // measure 53
0001
0000
1001
0000
0000
0000
0000
0000
0001
0100
0001
0100
0010
0000
0100
0001
,  // measure 54
0000
1000
0100
0000
0010
0001
0100
0010
1000
0100
1000
0100
0010
0000
0001
0100
,  // measure 55
0000
0010
1000
0000
0001
0010
0100
0010
0001
1000
0010
0100
0001
0000
1000
0100
,  // measure 56
0000
0010
0000
0100
1000
0001
0100
0010
1000
0000
0001
0000
0010
0000
0100
0010
,  // measure 57
0011
0101
1010
1100
,  // measure 58
1002
0000
0103
0001
0020
0000
0130
0002
,  // measure 59
0003
0100
0020
0000
0031
0100
0010
1000
,  // measure 60
0001
0010
0100
1000
0020
0000
0130
2000
,  // measure 61
3000
0100
0020
0000
0130
0001
1000
0100
,  // measure 62
0120
0000
0031
1001
0000
1010
0000
0102
,  // measure 63
0000
1003
0100
0020
0000
0031
0100
0010
,  // measure 64
1020
0000
1030
1001
0000
0011
0000
2100
,  // measure 65
0000
3100
0010
0001
1000
0001
0100
0001
,  // measure 66
1002
0000
1003
1100
0000
0011
0000
1002
,  // measure 67
0000
1003
0010
0100
0001
1000
0100
0010
,  // measure 68
0001
0100
0010
1000
0001
0010
0100
1000
,  // measure 69
0001
0010
1000
0010
0001
0100
1000
0100
,  // measure 70
0002
0000
0000
0013
0200
0000
0000
1300
,  // measure 71
0002
0000
0000
0000
,  // measure 72
0000
0000
0000
0000
,  // measure 73
0003
0000
0000
0000
;

//---------------dance-single - ----------------
#NOTEDATA:;
#CHARTNAME:;
#STEPSTYPE:dance-single;
#DESCRIPTION:;
#CHARTSTYLE:;
#DIFFICULTY:Medium;
#METER:8;
#RADARVALUES:0.423329,0.567316,0.183486,0.587156,0.027523,323.000000,303.000000,20.000000,64.000000,0.000000,0.000000,0.000000,0.000000,0.000000,0.423329,0.567316,0.183486,0.587156,0.027523,323.000000,303.000000,20.000000,64.000000,0.000000,0.000000,0.000000,0.000000,0.000000;
#CREDIT:;
#OFFSET:-0.009085;
#BPMS:0.000000=173.000000
,213.000000=86.500000
,227.000000=173.000000
;
#STOPS:148.000000=1.040463
;
#DELAYS:;
#WARPS:;
#TIMESIGNATURES:0.000000=4=4
;
#TICKCOUNTS:0.000000=4
;
#COMBOS:0.000000=1
;
#SPEEDS:0.000000=1.000000=0.000000=0
;
#SCROLLS:0.000000=1.000000
,211.500000=0.500000
,213.000000=1.000000
;
#FAKES:;
#LABELS:0.000000=Song Start
;
#NOTES:
// measure 0
0000
0000
0000
0000
,  // measure 1
0000
0000
0000
0000
,  // measure 2
0000
0000
0000
0000
,  // measure 3
0000
0000
0000
0000
,  // measure 4
0000
0000
0000
0000
,  // measure 5
0000
0000
0000
0000
,  // measure 6
2000
0000
0000
3020
0000
0000
0230
0000
,  // measure 7
0000
0302
0000
0000
2003
0000
3001
1000
,  // measure 8
0200
0000
0300
0010
0001
0000
1000
0001
,  // measure 9
0200
0000
0000
0010
0020
0000
0330
0000
,  // measure 10
1000
0000
0001
0000
1000
0100
0000
0100
,  // measure 11
1000
0000
0010
0100
0000
0100
0001
0000
,  // measure 12
1000
0000
0001
0000
0010
0100
0000
0100
,  // measure 13
1000
0000
0001
0100
0000
0100
0010
0000
,  // measure 14
1000
0000
0000
0000
1000
0000
0000
0000
1000
0000
0000
0001
0000
0000
0020
0000
,  // measure 15
0000
0000
0130
0000
0010
0001
1000
0000
,  // measure 16
2020
0000
3030
0220
0000
0330
0202
0000
,  // measure 17
0303
1001
0000
0001
0010
0100
1000
0000
,  // measure 18
0001
0000
1000
0000
0001
0100
0000
0100
,  // measure 19
0001
0000
0010
0100
0000
0100
1000
0000
,  // measure 20
0001
0000
1000
0000
0010
0100
0000
0100
,  // measure 21
0001
0000
1000
0100
0000
0100
0010
0000
,  // measure 22
0001
0000
0000
0000
0001
0000
0000
0000
0001
0000
0000
1000
0000
0000
0020
0000
,  // measure 23
0000
0000
0130
0000
0010
1000
0001
0000
,  // measure 24
0022
0000
0033
0220
0000
0330
2200
0000
,  // measure 25
3300
1002
0000
0203
0000
0310
1000
0001
,  // measure 26
0010
0001
0100
1000
,  // measure 27
0100
0010
0100
0010
0000
0100
0001
0000
,  // measure 28
1000
0100
0010
0001
,  // measure 29
1000
0010
0100
0001
0000
0001
1000
0000
,  // measure 30
0010
1000
0100
0001
,  // measure 31
0100
0010
0100
0010
0000
0100
1000
0000
,  // measure 32
1002
0000
0000
0203
0000
0000
0320
0000
,  // measure 33
0000
2030
0000
0000
3001
0000
1000
0000
,  // measure 34
1002
0000
0003
1000
0200
0000
0300
0010
,  // measure 35
0002
0000
0003
1000
0020
0000
0030
0100
,  // measure 36
0002
0100
0100
0200
,  // measure 37
0303
1000
0001
0200
,  // measure 38
0310
1000
0000
0010
2000
0000
3001
0100
,  // measure 39
0001
0100
0001
0000
1000
0000
0200
0000
,  // measure 40
0310
0001
0000
0010
0002
0000
1003
0010
,  // measure 41
1000
0001
0010
0200
,  // measure 42
0310
0002
0000
1003
0000
1000
0010
0000
,  // measure 43
0100
0001
0001
1000
,  // measure 44
1000
0001
0010
1000
,  // measure 45
0100
0001
1000
0200
,  // measure 46
0310
0001
0000
0010
0002
0000
1003
0100
,  // measure 47
1000
0100
1000
0000
0001
0000
0200
0000
,  // measure 48
0310
1000
0000
0010
2000
0000
3001
0010
,  // measure 49
0001
0000
1002
0000
0000
1000
0000
1000
,  // measure 50
0000
0203
0000
0310
0100
0020
0000
1030
,  // measure 51
0001
0000
2001
0000
0000
0001
0000
0001
,  // measure 52
0000
3200
0000
0310
0001
0000
1000
1000
,  // measure 53
0000
0000
0000
0000
0001
0000
0100
0000
0010
0000
0000
1000
0000
0000
0001
0000
,  // measure 54
0010
0000
0100
0000
1000
0000
0010
0000
0100
0000
0000
0001
0000
0000
1000
0000
,  // measure 55
0100
0000
0010
0000
0100
0000
1000
0000
0001
0000
0000
0100
0000
0010
0000
0000
,  // measure 56
0100
0001
1000
0100
0010
0001
0101
0000
,  // measure 57
0110
1010
1001
0021
,  // measure 58
0031
1000
0002
0000
0103
0010
0000
0010
,  // measure 59
2000
0000
3001
0010
0001
0010
0001
0000
,  // measure 60
1000
0000
0020
0000
0130
0001
0000
0001
,  // measure 61
2000
0000
3100
0010
0100
0000
2001
0000
,  // measure 62
0000
0010
0000
0010
0000
3002
0000
0013
,  // measure 63
0001
0020
0000
0130
1000
0000
1002
0000
,  // measure 64
0000
0010
0000
0010
0000
2003
0000
3010
,  // measure 65
1000
0001
0010
2100
,  // measure 66
0000
0001
0000
0001
0000
3020
0000
0130
,  // measure 67
0001
0000
0010
0000
0100
1000
0001
0000
,  // measure 68
0100
1000
0100
0001
,  // measure 69
0010
1000
0100
0002
,  // measure 70
0000
1003
0200
0000
0000
0310
0002
0000
,  // measure 71
0000
0000
0000
0000
,  // measure 72
0000
0000
0000
0003
;

//---------------dance-single - ----------------
#NOTEDATA:;
#CHARTNAME:;
#STEPSTYPE:dance-single;
#DESCRIPTION:;
#CHARTSTYLE:;
#DIFFICULTY:Easy;
#METER:5;
#RADARVALUES:0.283093,0.467202,0.110092,0.321101,0.000000,216.000000,204.000000,12.000000,35.000000,0.000000,0.000000,0.000000,0.000000,0.000000,0.283093,0.467202,0.110092,0.321101,0.000000,216.000000,204.000000,12.000000,35.000000,0.000000,0.000000,0.000000,0.000000,0.000000;
#CREDIT:;
#OFFSET:-0.009085;
#BPMS:0.000000=173.000000
,213.000000=86.500000
,227.000000=173.000000
;
#STOPS:148.000000=1.040463
;
#DELAYS:;
#WARPS:;
#TIMESIGNATURES:0.000000=4=4
;
#TICKCOUNTS:0.000000=4
;
#COMBOS:0.000000=1
;
#SPEEDS:0.000000=1.000000=0.000000=0
;
#SCROLLS:0.000000=1.000000
,211.000000=0.500000
,213.000000=1.000000
;
#FAKES:;
#LABELS:0.000000=Song Start
;
#NOTES:
// measure 0
0000
0000
0000
0000
,  // measure 1
0000
0000
0000
0000
,  // measure 2
0000
0000
0000
0000
,  // measure 3
0000
0000
0000
0000
,  // measure 4
0000
0000
0000
0000
,  // measure 5
0000
0000
0000
0000
,  // measure 6
1000
0010
1000
0000
,  // measure 7
0001
0010
0001
0000
,  // measure 8
0200
0300
0001
1000
,  // measure 9
0200
0000
0020
0330
,  // measure 10
0001
0100
0001
0000
,  // measure 11
0100
0010
1000
0001
,  // measure 12
1000
0100
1000
0000
,  // measure 13
0100
0010
0001
1000
,  // measure 14
0010
0010
0100
0000
,  // measure 15
0010
1000
0001
0010
,  // measure 16
2200
0000
0000
3300
0000
0000
0022
0000
,  // measure 17
0000
0033
0000
0000
1001
0000
0000
0000
,  // measure 18
1000
0010
1000
0000
,  // measure 19
0010
0100
0001
1000
,  // measure 20
0001
0010
0001
0000
,  // measure 21
0010
0100
1000
0001
,  // measure 22
0100
0100
0010
0000
,  // measure 23
0100
0001
1000
0100
,  // measure 24
0022
0000
0000
0033
0000
0000
2002
0000
,  // measure 25
0000
3003
0000
0000
1010
0000
0000
0000
,  // measure 26
1000
0010
0100
0000
,  // measure 27
0100
0010
1000
0000
,  // measure 28
0001
1000
0001
1000
,  // measure 29
0010
0100
0001
0000
,  // measure 30
0001
0010
0100
0000
,  // measure 31
0100
0010
0001
0000
,  // measure 32
0100
0000
0010
0000
,  // measure 33
1000
0001
0100
0010
,  // measure 34
2000
3000
0200
0300
,  // measure 35
0002
0003
0020
0030
,  // measure 36
1000
0001
1000
0001
,  // measure 37
0000
1000
0100
0020
,  // measure 38
0030
0001
0000
0001
,  // measure 39
1000
0001
0100
0020
,  // measure 40
0030
1000
0000
0010
,  // measure 41
1000
0100
0010
0100
,  // measure 42
0010
0002
0003
1000
,  // measure 43
0001
0100
0000
0010
,  // measure 44
0000
1000
0001
1000
,  // measure 45
0000
0001
0100
0020
,  // measure 46
0030
1000
0000
1000
,  // measure 47
0001
1000
0100
0020
,  // measure 48
0030
0001
0000
0001
,  // measure 49
0100
0000
2010
0000
0000
0001
0000
0001
,  // measure 50
0000
0002
0000
0000
3003
0000
1000
0000
,  // measure 51
0100
0000
0012
0000
0000
1000
0000
1000
,  // measure 52
0000
2000
0000
0000
3003
0000
0110
0000
,  // measure 53
0000
0000
0001
0100
0010
0000
1000
0000
,  // measure 54
0001
0001
1000
0100
0010
0000
0100
0000
,  // measure 55
0010
0001
0100
0010
1000
0000
0001
0000
,  // measure 56
1000
0100
0010
0001
0100
0010
1000
0000
,  // measure 57
1000
0001
0001
0010
,  // measure 58
0100
2000
3000
0001
,  // measure 59
0000
0001
0100
0010
,  // measure 60
0100
0002
0003
1000
,  // measure 61
0000
1000
0100
0012
,  // measure 62
0000
1000
0000
1000
0000
2000
0000
0000
,  // measure 63
3003
0001
0100
2010
,  // measure 64
0000
0001
0000
0001
0000
0002
0000
0000
,  // measure 65
3003
1000
0100
0120
,  // measure 66
0000
0100
0000
0100
0000
0200
0000
0000
,  // measure 67
0330
1000
0001
0100
,  // measure 68
0000
0010
0000
1000
,  // measure 69
0100
0010
0001
2000
,  // measure 70
3000
0002
0003
0200
,  // measure 71
0000
0000
0000
0000
,  // measure 72
0000
0000
0000
0300
;

//---------------dance-single - ----------------
#NOTEDATA:;
#CHARTNAME:;
#STEPSTYPE:dance-single;
#DESCRIPTION:;
#CHARTSTYLE:;
#DIFFICULTY:Beginner;
#METER:3;
#RADARVALUES:0.162516,0.247248,0.082569,0.201835,0.000000,124.000000,115.000000,9.000000,22.000000,0.000000,0.000000,0.000000,0.000000,0.000000,0.162516,0.247248,0.082569,0.201835,0.000000,124.000000,115.000000,9.000000,22.000000,0.000000,0.000000,0.000000,0.000000,0.000000;
#CREDIT:;
#OFFSET:-0.009085;
#BPMS:0.000000=173.000000
;
#STOPS:;
#DELAYS:;
#WARPS:;
#TIMESIGNATURES:0.000000=4=4
;
#TICKCOUNTS:0.000000=4
;
#COMBOS:0.000000=1
;
#SPEEDS:0.000000=1.000000=0.000000=0
;
#SCROLLS:0.000000=1.000000
;
#FAKES:;
#LABELS:0.000000=Song Start
;
#NOTES:
// measure 0
0000
0000
0000
0000
,  // measure 1
0000
0000
0000
0000
,  // measure 2
0000
0000
0000
0000
,  // measure 3
0000
0000
0000
0000
,  // measure 4
0000
0000
0000
0000
,  // measure 5
0000
0000
0000
0000
,  // measure 6
1000
0000
1000
0000
,  // measure 7
0001
0000
0001
0000
,  // measure 8
0020
0000
0030
0000
,  // measure 9
0200
0000
0300
0000
,  // measure 10
0010
0000
0010
0000
,  // measure 11
0001
0000
1000
0000
,  // measure 12
0010
0000
0010
0000
,  // measure 13
1000
0000
0001
0000
,  // measure 14
0010
0010
0010
0000
,  // measure 15
0100
0000
0010
0000
,  // measure 16
2002
0000
0000
0000
,  // measure 17
0000
0000
3003
0000
,  // measure 18
1000
0000
1000
0000
,  // measure 19
0010
0000
1000
0000
,  // measure 20
0001
0000
0001
0000
,  // measure 21
0010
0000
0001
0000
,  // measure 22
0100
0100
0100
0000
,  // measure 23
0010
0000
0100
0000
,  // measure 24
2002
0000
0000
0000
,  // measure 25
0000
0000
3003
0000
,  // measure 26
1000
0000
1000
0000
,  // measure 27
0100
0000
0100
0000
,  // measure 28
0010
0000
0001
0000
,  // measure 29
1000
0000
0001
0000
,  // measure 30
0100
0000
0100
0000
,  // measure 31
0010
0000
0010
0000
,  // measure 32
2000
0000
3000
0000
,  // measure 33
0002
0000
0003
0000
,  // measure 34
1000
0000
1000
0000
,  // measure 35
0001
0000
0001
0000
,  // measure 36
0020
0000
0000
0000
,  // measure 37
0030
0000
0000
0000
,  // measure 38
0001
0001
0001
0000
,  // measure 39
0100
0000
0100
0000
,  // measure 40
0001
0001
0001
0000
,  // measure 41
0010
0000
0010
0000
,  // measure 42
0001
0000
1000
0000
,  // measure 43
0010
0000
0100
0100
,  // measure 44
0100
0000
0010
0000
,  // measure 45
0100
0000
0001
0000
,  // measure 46
1000
1000
1000
0000
,  // measure 47
0100
0000
0100
0000
,  // measure 48
1000
1000
1000
0000
,  // measure 49
0010
0000
0010
0000
,  // measure 50
2002
0000
0000
0000
,  // measure 51
0000
0000
3003
0000
,  // measure 52
0220
0000
0000
0000
,  // measure 53
0330
0000
1001
0000
,  // measure 54
1000
0000
0000
0000
,  // measure 55
0100
0000
0000
0000
,  // measure 56
0010
0000
0000
0000
,  // measure 57
0001
0000
0000
0000
,  // measure 58
0100
0000
0000
0000
,  // measure 59
0010
0000
0000
0000
,  // measure 60
1000
0000
0000
0000
,  // measure 61
2002
0000
3003
0000
,  // measure 62
1000
1000
1000
0000
,  // measure 63
0100
0000
0010
0000
,  // measure 64
0001
0001
0001
0000
,  // measure 65
0100
0000
0010
0000
,  // measure 66
2002
0000
0000
0000
,  // measure 67
0000
0000
3003
0000
,  // measure 68
0220
0000
0000
0000
,  // measure 69
0000
0000
0330
0000
,  // measure 70
2002
0000
0000
0000
,  // measure 71
0000
0000
3003
0000
,  // measure 72
1000
1000
1000
0000
,  // measure 73
0001
0001
0001
0000
,  // measure 74
1000
0000
0100
0000
,  // measure 75
0020
0000
0000
0000
,  // measure 76
0000
0000
0000
0000
,  // measure 77
0030
0000
0000
0000
;
