#VERSION:0.83;
#TITLE:Cry Little Sister vs. Hello Zepp;
#SUBTITLE:;
#ARTIST:Celldweller;
#TITLETRANSLIT:;
#SUBTITLETRANSLIT:;
#ARTISTTRANSLIT:;
#GENRE:Industrial Dubstep;
#ORIGIN:;
#CREDIT:;
#BANNER:Cry Little Sister vs. Hello Zepp.png;
#BACKGROUND:Cry Little Sister vs. Hello Zepp-bg.png;
#PREVIEWVID:;
#JACKET:Cry Little Sister vs. Hello Zepp-jacket.png;
#CDIMAGE:;
#DISCIMAGE:;
#LYRICSPATH:;
#CDTITLE:cdtitle.png;
#MUSIC:Cry Little Sister vs. Hello Zepp.ogg;
#OFFSET:-0.232153;
#SAMPLESTART:17.377010;
#SAMPLELENGTH:13.714285;
#SELECTABLE:YES;
#BPMS:0.000=70.000,
16.000=35.000,
18.000=70.000,
54.000=140.000,
118.000=70.000,
122.000=140.000;
#STOPS:;
#DELAYS:;
#WARPS:;
#TIMESIGNATURES:0.000=4=4;
#TICKCOUNTS:0.000=4;
#COMBOS:0.000=1;
#SPEEDS:0.000=1.000=0.000=0,
210.000=0.100=10.000=0;
#SCROLLS:0.000=1.000,
17.500=1.500,
17.583=2.000,
17.667=2.500,
17.750=3.000,
17.833=3.500,
17.917=4.000,
18.000=1.000,
54.000=0.750,
118.000=4.000,
118.125=3.660,
118.250=3.330,
118.375=3.000,
118.500=2.660,
118.625=2.330,
118.750=2.000,
118.875=1.660,
119.000=1.330,
119.125=1.000,
119.250=0.660,
119.375=0.330,
119.500=0.000,
121.000=0.250,
121.125=0.500,
121.250=0.750,
121.375=1.000,
121.500=1.250,
121.625=1.500,
121.750=1.750,
121.875=2.000,
122.000=1.000,
202.000=2.000,
202.125=1.750,
202.250=1.500,
202.375=1.250,
202.500=1.000,
202.625=0.750,
202.750=0.500,
204.000=2.000,
204.125=1.750,
204.250=1.500,
204.375=1.250,
204.500=1.000,
204.625=0.750,
204.750=0.500,
206.000=2.000,
206.125=1.750,
206.250=1.500,
206.375=1.250,
206.500=1.000,
206.625=0.750,
206.750=0.500,
208.000=2.000,
208.125=1.750,
208.250=1.500,
208.375=1.250,
208.500=1.000,
208.625=0.750,
208.750=0.500,
210.000=2.000,
210.125=1.750,
210.250=1.500,
210.375=1.250,
210.500=1.000,
210.625=0.750,
210.750=0.500;
#FAKES:;
#LABELS:0.000=Song Start;
#BGCHANGES:;
#KEYSOUNDS:;
#ATTACKS:
;

//---------------dance-single - ----------------
#NOTEDATA:;
#CHARTNAME:;
#STEPSTYPE:dance-single;
#DESCRIPTION:;
#CHARTSTYLE:;
#DIFFICULTY:Challenge;
#METER:14;
#RADARVALUES:0.576032,0.882049,0.352020,1.008057,0.568032,504.000000,460.000000,44.000000,126.000000,64.000000,0.000000,0.000000,0.000000,0.000000,0.576032,0.882049,0.352020,1.008057,0.568032,504.000000,460.000000,44.000000,126.000000,64.000000,0.000000,0.000000,0.000000,0.000000;
#CREDIT:;
#NOTES:
// measure 0
0000
0000
0000
0000
,  // measure 1
0100
0001
0020
0000
0130
0000
0100
1000
0020
0000
0031
0010
1000
0100
0002
0000
,  // measure 2
0103
1000
0020
0000
0130
0000
0100
0001
0020
0000
1030
0010
0001
0100
2000
0000
,  // measure 3
3100
0001
0020
0000
0130
0000
0010
0001
0200
0000
1300
0100
0001
0010
2000
0000
,  // measure 4
3010
0000
0000
0000
0000
0000
0001
0000
0000
0000
0000
0000
0200
0000
0000
0000
0000
0000
0000
0000
0000
0000
0000
0000
0000
0000
0000
0000
0000
0000
0000
0000
0000
0000
0000
0000
0310
0000
0000
0000
0000
0000
0100
0000
0000
0000
0000
0000
0020
0000
0000
0000
0000
0000
0000
0000
0000
0000
0000
0000
0000
0000
0000
0000
0000
0000
0000
0000
0000
0000
0000
0000
0000
0000
0000
0000
0000
0000
0000
0000
0000
0000
0000
0000
0030
0000
0000
0000
0000
0000
0000
0000
0000
0000
0000
0000
2002
0000
0000
0000
0000
0000
0000
0000
0000
0000
0000
0000
0000
0000
0000
0000
0000
0000
0000
0000
0000
0000
0000
0000
3003
0000
0000
0000
0000
0000
0000
0000
0000
0000
0000
0000
0000
0000
0000
0000
0000
0000
0000
0000
0000
0000
0000
0000
1000
0000
0000
0000
0000
0000
0000
0000
0001
0000
0000
0000
0000
0000
0000
0000
1000
0000
0000
0000
0000
0000
0000
0000
0010
0000
0000
0000
0000
0000
0000
0000
1000
0000
0000
0000
0000
0000
0000
0000
0100
0000
0000
0000
0000
0000
0000
0000
,  // measure 5
0010
0000
0000
0000
0000
0000
0000
0000
0001
0000
0000
0000
0000
0000
0000
0000
0100
0000
0000
0000
0000
0000
0000
0000
0010
0000
0000
0000
0000
0000
1000
0000
0000
0000
0000
0000
0010
0000
0000
0000
0000
0000
0000
0000
0000
0000
0000
0000
1000
0000
0000
0000
0000
0000
0000
0000
0000
0000
0000
0000
1000
0000
0000
0000
0000
0000
0100
0000
0000
0000
0000
0000
0020
0000
0000
0000
0000
0000
0000
0000
0000
0000
0000
0000
0000
0000
0000
0000
0000
0000
0000
0000
0000
0030
0000
0000
0210
0000
0000
0000
0000
0000
0000
0000
0000
0000
0000
0000
0000
0000
0000
0000
0000
0000
0000
0000
0000
0300
0000
0000
0200
0000
0000
0000
0000
0000
0000
0000
0000
0000
0000
0000
0000
0000
0000
0000
0000
0000
0000
0000
0000
0000
0000
0000
2300
0000
0000
0000
0000
0000
0000
0000
0000
0000
0000
0000
0000
0000
0000
0000
0000
0000
0000
0000
0000
0000
0000
0000
3020
0000
0000
0000
0000
0000
0000
0000
0000
0000
0000
0000
0230
0000
0000
0000
0000
0000
0000
0000
0000
0000
0000
0000
,  // measure 6
0301
0000
0000
0000
0000
0000
0000
0000
0000
0000
0000
0000
0010
0000
0000
0000
0000
0000
0100
0000
0000
0000
0000
0000
0010
0000
0000
0000
0000
0000
0100
0000
0000
0000
0000
0000
0010
0000
0000
0000
0000
0000
0100
0000
0000
0000
0000
0000
1000
0000
0000
0000
0000
0000
0000
0000
0000
0000
0000
0000
0010
0000
0000
0000
0000
0000
0100
0000
0000
0000
0000
0000
0001
0000
0000
0000
0000
0000
0000
0000
0000
0000
0000
0000
0000
0000
0000
0000
0000
0000
0000
0000
0000
0000
0000
0000
2002
0000
0000
0000
0000
0000
0000
0000
0000
0000
0000
0000
0000
0000
0000
0000
0000
0000
0000
0000
0000
0000
0000
0000
3003
0000
0000
0000
0000
0000
0000
0000
0000
0000
0000
0000
0000
0000
0000
0000
0000
0000
0000
0000
0000
0000
0000
0000
1000
0000
0000
0000
0000
0000
0000
0000
0001
0000
0000
0000
0000
0000
0000
0000
1000
0000
0000
0000
0000
0000
0000
0000
0010
0000
0000
0000
0000
0000
0000
0000
0000
0000
0000
0000
0001
0000
0000
0000
0000
0000
0000
0000
0000
0000
0000
0000
,  // measure 7
0010
0000
1000
0100
0000
0100
0010
0000
0001
0000
0001
0100
0010
0000
0000
0000
2020
0000
0000
0000
3030
0000
0000
0000
2002
0000
0000
0000
3003
0000
0001
0000
,  // measure 8
0022
0000
0000
0000
0000
0000
0000
0000
0000
0000
0000
0000
0030
0000
0000
0000
0000
0000
0000
0000
0000
0000
0000
0000
1003
0000
0000
0000
0000
0000
0000
0000
0000
0000
0000
0000
0000
0000
0000
0000
0000
0000
0001
0000
0000
0200
0000
0000
0002
0000
0000
0000
0000
0000
0000
0000
0000
0000
0000
0000
0000
0000
0000
0000
0000
0000
0000
0000
0000
0000
0000
0000
0303
0000
0000
0000
0000
0000
0000
0000
0000
0000
0000
0000
0000
0000
0000
0000
0000
0000
0000
0000
0000
0000
0000
0000
2002
0000
0000
0000
0000
0000
0000
0000
0000
0000
0000
0000
0000
0000
0000
0000
0000
0000
0000
0000
0000
0000
0000
0000
3003
0000
0000
0000
0000
0000
0000
0000
0000
0000
0000
0000
0000
0000
0000
0000
0000
0000
0000
0000
0000
0000
0000
0000
1000
0000
0000
0000
0000
0000
0000
0000
0001
0000
0000
0000
0000
0000
0000
0000
1000
0000
0000
0000
0000
0000
0000
0000
0010
0000
0000
0000
0000
0000
0100
0000
0000
0000
0000
0000
0010
0000
0000
0000
0000
0000
0100
0000
0000
0000
0000
0000
,  // measure 9
0010
0000
0000
0000
1000
0000
0001
0000
0010
0000
0100
0000
0010
0000
0000
0000
0100
0000
0000
0000
0100
0000
1000
0000
0020
0000
0000
0000
0000
0000
0000
0030
0210
0000
0000
0000
0000
0000
0000
0300
0200
0000
0000
0000
0000
0000
0000
0000
0301
0000
0000
0000
0100
0000
0000
0000
0001
0000
0000
0000
1000
0000
0000
0000
,  // measure 10
1000
0000
0100
0010
0100
0010
0100
0010
0001
0000
0100
0000
0010
0000
0000
0000
1002
0000
0100
0000
0103
0000
0000
0000
2001
0000
0100
0000
3100
0000
1000
0000
,  // measure 11
0001
0000
0000
0000
0100
0000
0010
0000
0000
0000
0010
0000
1000
0000
0000
0000
0100
0000
0000
0000
0100
0000
0010
0000
0002
0000
0000
0000
0000
0000
0000
0003
0022
0000
0000
0000
0000
0000
0000
0000
0033
0000
0000
0000
0000
0000
0000
0000
2002
0000
0000
0000
0000
0000
0000
0000
3003
0000
0000
0000
1000
0000
0000
0000
,  // measure 12
2020
0000
0000
0000
0030
0000
0000
0000
3001
0000
0000
0000
0000
0000
1000
0100
1000
0000
0000
0000
0000
0000
0001
0100
0001
0000
0000
0000
0000
0000
0000
0000
2002
0000
0000
0000
0000
0000
0000
0000
3003
0000
0000
0000
0000
0000
0000
0000
2200
0000
0000
0000
0000
0000
0000
0000
3300
0000
0000
0000
0001
0000
0000
0000
,  // measure 13
0012
0000
0000
0000
0000
0000
0000
0000
1003
0000
0000
0000
0000
0000
0001
2000
0002
0000
0000
0000
0000
0000
0000
0000
3003
0000
0000
0000
0000
0000
0000
0000
1000
0000
0000
0000
0000
0000
0000
0000
0100
0000
0000
0000
0000
0000
0000
0000
0001
0000
0000
0000
0000
0000
0000
0000
0100
0000
0000
0000
0000
0000
0000
0000
,  // measure 14
2000
0010
3010
0100
0002
0100
0103
0001
,  // measure 15
2000
0100
3100
0010
0012
0000
0010
1000
,  // measure 16
0000
1000
0203
0000
0320
0000
0130
0001
,  // measure 17
1000
0100
0020
0000
0031
0100
1000
0100
,  // measure 18
0002
0010
0013
0100
2000
0100
3100
1000
,  // measure 19
0002
0100
0103
0010
2010
0000
0010
0001
,  // measure 20
0000
0001
3200
0000
0320
0000
0130
1000
,  // measure 21
0010
0100
0002
0000
1003
0100
0001
1000
,  // measure 22
0020
0001
0031
1000
0020
1000
1030
0001
,  // measure 23
0200
0001
0301
1000
0010
0001
1000
0100
,  // measure 24
0002
0010
0013
0001
2000
0010
3010
1000
,  // measure 25
0002
0100
0103
0001
0010
1000
0001
0100
,  // measure 26
2000
0010
3010
0100
0002
0010
0013
0001
,  // measure 27
0200
0010
0310
0000
1000
0000
0001
0000
,  // measure 28
1000
0000
0000
0000
0001
0000
0000
0000
1000
0000
0001
0000
1000
0000
0001
1000
,  // measure 29
0001
1000
0001
1000
0001
1000
0001
1000
2002
0000
0000
0000
0000
0000
3003
0000
,  // measure 30
0000
0000
0000
0000
1100
MM00
1100
MM00
,  // measure 31
2000
3200
0302
2003
3020
0230
2300
3020
,  // measure 32
0032
0000
0000
2003
0000
0000
3100
0000
0001
0000
0100
0000
0101
0000
0000
0M0M
0000
0000
1010
0000
0000
M0M0
0000
0000
,  // measure 33
0001
0000
0000
0000
0100
0000
0000
0000
0001
0000
0000
0000
1000
0000
0100
0000
1000
0000
0100
0000
0000
0010
0000
0000
0000
0000
0000
0010
0000
0000
0001
0000
0000
1000
0000
0000
0000
0000
0000
1000
0000
0000
0002
0000
0000
0000
0000
0000
,  // measure 34
0103
0000
0000
0002
0000
0000
1003
0010
1000
0010
0000
0000
1001
0000
0000
M00M
0000
0000
1001
0000
0000
M00M
0000
0000
,  // measure 35
1000
0100
1000
0001
0100
0001
1000
0010
1000
0001
0010
0001
,  // measure 36
0100
0000
0010
0000
1000
0000
0100
0000
0000
0000
0000
0000
2100
0000
0000
0000
0000
0000
3001
0000
0000
MMMM
0000
0000
,  // measure 37
0102
0000
1003
MMMM
2010
0000
3001
MMMM
,  // measure 38
0012
0000
1003
MMMM
0101
0M0M
0101
0M0M
,  // measure 39
0002
0203
2300
3002
0023
0230
0302
0023
,  // measure 40
2030
0000
0000
3020
0000
0000
0130
0000
1000
0000
0100
0000
1100
0000
0000
MM00
0000
0000
0011
0000
0000
00MM
0000
0000
,  // measure 41
1000
0000
0000
0000
0100
0000
0000
0000
1000
0000
0000
0000
0001
0000
0100
0000
0001
0000
0100
0000
0000
0010
0000
0000
2000
0000
0000
0000
0000
0000
3200
0000
0000
0000
0000
0000
0302
0000
0000
0000
0000
0000
2003
0000
0000
0000
0000
0000
,  // measure 42
3001
0000
0000
0000
0200
0000
0000
0000
2300
0000
0000
0000
3020
0000
0000
0030
1001
0000
0000
0000
M00M
0000
0000
0000
1001
0000
0000
0000
M00M
0000
0000
0000
,  // measure 43
0001
0010
0001
1000
0010
1000
0001
0100
0001
1000
0100
1000
,  // measure 44
0010
0000
0100
0000
0001
0000
0010
0000
0000
0000
0000
0000
0012
0000
0000
0000
0000
0000
1003
0000
0000
MMMM
0000
0000
,  // measure 45
2100
0000
3001
MMMM
0102
0000
1003
MMMM
,  // measure 46
2010
0000
3001
MMMM
2000
0010
0010
0010
,  // measure 47
30M2
0010
0010
0010
20M3
0100
0100
0100
,  // measure 48
3M02
0000
0100
0000
0100
0000
0100
0000
1M03
0010
1000
0010
1000
0010
1000
0010
,  // measure 49
1000
0100
1000
0100
1000
0100
1000
0100
0010
0001
0010
0001
0010
0001
0010
0001
,  // measure 50
0100
0001
0100
0001
0100
0001
0100
0001
2002
0000
0000
0000
3003
0000
0000
0000
,  // measure 51
2002
3003
2002
3003
,  // measure 52
2002
3003
2002
0000
,  // measure 53
0000
0000
0000
0000
,  // measure 54
0000
0000
0000
0000
,  // measure 55
3003
MMMM
0000
0000
0000
0000
0000
0000
;

//---------------dance-single - ----------------
#NOTEDATA:;
#CHARTNAME:;
#STEPSTYPE:dance-single;
#DESCRIPTION:;
#CHARTSTYLE:;
#DIFFICULTY:Hard;
#METER:11;
#RADARVALUES:0.458311,0.582433,0.368021,0.696039,0.172010,401.000000,355.000000,46.000000,87.000000,0.000000,0.000000,0.000000,0.000000,0.000000,0.458311,0.582433,0.368021,0.696039,0.172010,401.000000,355.000000,46.000000,87.000000,0.000000,0.000000,0.000000,0.000000,0.000000;
#CREDIT:;
#OFFSET:-0.232153;
#BPMS:0.000000=70.000000
,16.000000=35.000000
,18.000000=70.000000
,54.000000=140.000000
,199.000000=70.000000
;
#STOPS:118.000000=3.000000
;
#DELAYS:;
#WARPS:;
#TIMESIGNATURES:0.000000=4=4
;
#TICKCOUNTS:0.000000=4
;
#COMBOS:0.000000=1
;
#SPEEDS:0.000000=1.000000=0.000000=0
;
#SCROLLS:0.000000=1.000000
,54.000000=0.750000
,118.000000=1.000000
;
#FAKES:;
#LABELS:0.000000=Song Start
;
#NOTES:
0000
0000
0000
0000
,
1000
0010
2000
0000
3001
0000
0001
0010
0002
0000
1003
0010
0100
0001
2000
0000
,
3001
0010
0002
0000
1003
0000
1000
0010
2000
0000
3010
1000
0100
0010
0002
0000
,
1003
0100
2000
0000
3001
0000
0001
0100
0002
0000
1003
0100
0010
0001
2000
0000
,
3010
0020
0030
0010
0020
0000
0000
0030
2002
0000
3003
0000
2000
0000
3002
0000
,
2003
0000
3010
0010
1000
0001
0020
0000
0130
0000
0100
0000
1002
0000
0203
0320
,
1030
0100
0001
0000
0001
0010
1000
0000
2002
0000
3003
0000
0002
0000
2003
0000
,
3010
0000
0100
0100
0001
1000
0100
0000
2100
0000
3001
0000
2001
0000
3010
0000
,
2010
0000
3001
0000
2200
0000
3300
0000
2002
0000
3003
0000
2000
0000
3010
1000
,
0100
0000
0010
0010
0001
0100
0020
0000
0130
0000
0100
0000
1001
0000
0001
1000
,
0001
0100
1000
0000
1000
0010
0001
0000
0012
0000
0103
0000
2010
0000
3100
0000
,
1000
0100
0010
0001
1000
0010
0100
0000
0102
0000
1003
0000
1002
0000
0013
0000
,
0012
1003
0101
1001
2100
3001
2001
3010
,
2010
3001
2200
0300
3001
0100
0010
1000
,
0200
0000
0310
0001
0200
0000
1300
0100
,
0002
0000
0013
0100
2000
0000
0001
0001
,
0000
0001
3001
0000
2000
0000
3010
0100
,
0001
1000
0200
0000
1300
0100
0010
0001
,
0200
0000
0310
1000
0200
0000
0301
0100
,
2000
0000
3010
0100
0002
0000
1000
1000
,
0000
1000
1003
0000
0002
0000
0013
0100
,
1000
0001
0200
0000
0301
0100
0010
1000
,
0200
0000
0310
0001
0200
0000
0310
1000
,
0200
0000
0301
0100
2000
0000
3001
0100
,
0020
0000
1030
0100
0020
0000
0031
0100
,
0020
0000
0031
0010
2000
0000
3100
0010
,
0002
0000
0103
0010
2000
0000
3100
0010
,
0002
0000
1003
0010
0100
0000
0100
0000
,
0010
0000
0010
0000
0100
0010
0100
0010
,
1000
0100
0010
0001
1001
0000
1001
0000
,
1001
0000
1000
0100
1000
0100
0010
0100
,
0001
0100
0010
0100
1000
0000
1001
0000
,
1010
0000
0000
0000
1000
0000
0010
0000
0100
0000
0001
1000
0000
1000
0100
0000
,
0010
0001
0100
1000
0100
0001
1001
0000
,
1001
0000
0000
1000
0000
1000
0100
0000
0100
0010
0000
0010
,
0001
0000
0001
0100
0020
0000
0130
0000
0000
2010
0000
0000
,
3001
2001
3100
2100
,
3001
2010
3001
1001
,
1001
0000
0001
0100
0001
0100
0010
0100
,
1000
0100
0010
0100
0001
0000
1001
0000
,
0011
0000
0000
0000
0001
0000
0010
0000
1000
0000
0010
0100
0010
0000
0001
0000
,
0100
2000
0000
3100
0001
1000
1001
0000
,
1001
0000
0000
0001
0000
0001
0100
0000
0100
0010
0000
0010
,
1000
0000
1000
0100
0020
0000
0130
0000
0000
0012
0000
0000
,
1003
1002
0103
0102
,
1003
0000
0012
0000
1003
0000
1000
0010
,
1000
0010
0100
0001
0100
0001
0010
0001
,
0010
0001
1000
0100
1000
0100
0010
0001
,
0100
1000
0100
0001
0010
0100
1000
0010
,
0001
0010
1000
0100
0010
0001
2002
3003
,
2002
3003
2002
3003
2002
3003
2002
0000
,
0000
0000
0000
0000
,
3003
0000
0000
0000
;

//---------------dance-single - ----------------
#NOTEDATA:;
#CHARTNAME:;
#STEPSTYPE:dance-single;
#DESCRIPTION:;
#CHARTSTYLE:;
#DIFFICULTY:Medium;
#METER:8;
#RADARVALUES:0.378307,0.436824,0.400022,0.744042,0.068004,331.000000,281.000000,50.000000,93.000000,0.000000,0.000000,0.000000,0.000000,0.000000,0.378307,0.436824,0.400022,0.744042,0.068004,331.000000,281.000000,50.000000,93.000000,0.000000,0.000000,0.000000,0.000000,0.000000;
#CREDIT:;
#OFFSET:-0.232153;
#BPMS:0.000000=70.000000
,16.000000=35.000000
,18.000000=70.000000
,54.000000=140.000000
,199.000000=70.000000
;
#STOPS:118.000000=3.000000
;
#DELAYS:;
#WARPS:;
#TIMESIGNATURES:0.000000=4=4
;
#TICKCOUNTS:0.000000=4
;
#COMBOS:0.000000=1
;
#SPEEDS:0.000000=1.000000=0.000000=0
;
#SCROLLS:0.000000=1.000000
,54.000000=0.750000
,118.000000=1.000000
;
#FAKES:;
#LABELS:0.000000=Song Start
;
#NOTES:
0000
0000
0000
0000
,
1000
0100
2000
0000
0000
0000
3001
0100
0002
0000
0000
0000
1003
0100
2000
0000
,
3001
0100
0002
0000
0000
0000
1003
0010
2000
0000
3000
0000
0001
0010
0002
0000
,
1003
0010
2000
0000
0000
0000
3001
0100
0002
0000
0000
0000
1003
0100
2000
0000
,
3002
0000
0000
0000
2000
0000
0000
3003
2002
0000
3003
0000
1000
0000
0010
0000
,
0100
0000
0001
1000
0001
0000
0020
0000
0130
0000
0100
0000
1000
0000
0001
0000
,
0100
0001
0010
0000
0100
1000
0010
0000
2002
0000
3003
0000
0001
0000
0010
0000
,
0100
0000
1000
0001
1000
0000
0010
0000
2020
0000
3030
0000
2200
0000
3300
0000
,
0022
0033
0202
0303
2002
3003
0001
0100
,
0010
0000
1000
0001
1000
0000
0200
0000
0310
0000
0010
0000
0001
0000
1000
0000
,
0010
1000
0100
0000
0010
0001
0100
0000
2002
0000
3003
0000
2002
0000
3003
0000
,
1000
0000
0010
0000
0100
0001
0100
0000
2020
0000
3030
0000
2002
0000
3003
0000
,
0022
0033
1001
1001
2020
3030
0202
0303
,
0022
0033
2200
3300
1001
0000
0001
0100
,
0020
1030
2000
3001
,
0002
0000
0013
0000
0012
0000
1000
1000
,
0000
1000
1003
0000
0001
0000
1000
0010
,
0100
0001
1000
0000
1001
0000
1000
0100
,
0020
0031
0002
1003
,
2000
0000
3010
0000
2010
0000
0001
0001
,
0000
0001
3001
0000
1000
0000
0001
0010
,
0100
1000
0001
0000
1001
0000
1000
0010
,
0200
0301
0002
0013
,
0020
0000
0031
0000
2001
0000
3001
0010
,
0200
1300
2000
3010
,
0020
0000
1030
0000
1002
0000
1003
0100
,
0020
0031
0002
1003
,
2000
3010
0100
0100
,
0010
0000
0010
0000
0100
0010
0100
0010
,
1000
0001
1000
0001
0010
0000
1001
0000
,
1001
0000
1000
0100
1000
0100
1000
0001
,
1000
0001
1000
0010
1000
0000
1010
0000
,
0101
0000
0001
0100
1000
0000
1000
0100
,
0001
0000
0010
0100
0010
0000
1001
0000
,
1001
0002
0023
2030
,
3200
0302
0013
2100
,
3001
0102
1003
2010
,
3001
0012
1003
1001
,
1001
0000
0001
0100
0001
0100
0001
1000
,
0001
1000
0001
0010
0001
0000
0011
0000
,
1100
0000
1000
0100
0010
0000
0001
0100
,
0001
0200
0000
0310
1000
0000
1001
0000
,
1001
2000
3020
0032
,
0203
2300
3010
0102
,
1003
2100
3001
0012
,
1003
2010
3001
1000
,
1000
0100
0100
0001
,
0001
0000
0010
0000
0010
0000
1000
0100
,
1000
0100
1000
0001
1000
0001
0100
0001
,
0100
0001
1000
0001
1000
0000
2002
3003
,
2002
3003
2002
3003
2002
3003
2002
0000
,
0000
0000
0000
0000
,
3003
0000
0000
0000
;

//---------------dance-single - ----------------
#NOTEDATA:;
#CHARTNAME:;
#STEPSTYPE:dance-single;
#DESCRIPTION:;
#CHARTSTYLE:;
#DIFFICULTY:Easy;
#METER:5;
#RADARVALUES:0.256014,0.372321,0.352020,0.720040,0.000000,224.000000,180.000000,44.000000,90.000000,0.000000,0.000000,0.000000,0.000000,0.000000,0.256014,0.372321,0.352020,0.720040,0.000000,224.000000,180.000000,44.000000,90.000000,0.000000,0.000000,0.000000,0.000000,0.000000;
#CREDIT:;
#OFFSET:-0.232153;
#BPMS:0.000000=70.000000
,56.000000=140.000000
;
#STOPS:120.000000=3.000000
;
#DELAYS:;
#WARPS:;
#TIMESIGNATURES:0.000000=4=4
;
#TICKCOUNTS:0.000000=4
;
#COMBOS:0.000000=1
;
#SPEEDS:0.000000=1.000000=0.000000=0
;
#SCROLLS:0.000000=1.000000
,56.000000=0.750000
,120.000000=1.000000
;
#FAKES:;
#LABELS:0.000000=Song Start
;
#NOTES:
0000
0000
0000
0000
,
1000
0020
0000
1030
0020
0000
1030
1000
,
0001
0000
0020
0000
0000
0030
0001
0000
0020
0000
0000
0000
0130
0000
1000
0000
,
0001
0200
0000
0301
0200
0000
0301
1000
,
0200
0000
0000
0300
,
2002
3003
1000
0000
0100
0010
0100
0000
,
1000
1000
0002
0000
0103
0100
0010
0010
,
2002
3003
0001
0000
0010
0001
0100
0000
,
2020
3030
0202
0303
0022
0033
2200
3300
,
2002
3003
0001
0000
0100
0010
0100
0000
,
0001
0001
2000
0000
3100
0100
0010
0010
,
2002
3003
1000
0000
0010
1000
0100
0000
,
0022
0033
2002
3003
2020
3030
2002
3003
,
0022
0033
2200
3300
2020
3030
0202
0303
,
0001
1000
0002
0003
,
0020
0030
0002
0003
,
2010
0000
0010
0000
,
3010
1000
0200
0300
,
1000
0001
2000
3000
,
0020
0030
2000
3000
,
0012
0000
0010
0000
,
0013
0001
0200
0300
,
0001
1000
0200
0300
,
0020
0030
0002
0003
,
1000
0001
0200
0300
,
0020
0030
2000
3000
,
0001
0010
0200
0300
,
2000
3000
0002
0003
,
0100
0000
0100
0000
,
0100
0100
0100
0100
,
1001
1001
1001
1000
,
0100
0010
0001
0100
,
0001
1001
0110
1000
,
0010
0001
0100
1000
,
0001
1001
1001
0100
,
0100
0010
0010
0100
,
0100
2002
3003
2200
,
3300
0022
0033
2002
,
3003
1001
1001
0001
,
0100
0010
1000
0100
,
1000
1001
0110
0001
,
0100
0010
0010
1000
,
0100
1001
1001
0100
,
0100
0010
0010
0100
,
0100
2002
3003
0202
,
0303
2020
3030
2002
,
3003
0002
0000
0023
,
0000
2030
0000
3200
,
0000
0301
0010
1000
,
0100
0001
0010
1000
,
0100
2002
3003
2002
,
3003
2002
3003
2002
,
3003
2002
0000
0000
,
0000
0000
0000
0000
,
0000
0000
0000
3003
;

//---------------dance-single - ----------------
#NOTEDATA:;
#CHARTNAME:;
#STEPSTYPE:dance-single;
#DESCRIPTION:;
#CHARTSTYLE:;
#DIFFICULTY:Beginner;
#METER:2;
#RADARVALUES:0.138293,0.282016,0.080004,0.200011,0.000000,121.000000,111.000000,10.000000,25.000000,0.000000,0.000000,0.000000,0.000000,0.000000,0.138293,0.282016,0.080004,0.200011,0.000000,121.000000,111.000000,10.000000,25.000000,0.000000,0.000000,0.000000,0.000000,0.000000;
#CREDIT:;
#OFFSET:-0.232153;
#BPMS:0.000000=140.000000
;
#STOPS:;
#DELAYS:;
#WARPS:;
#TIMESIGNATURES:0.000000=4=4
;
#TICKCOUNTS:0.000000=4
;
#COMBOS:0.000000=1
;
#SPEEDS:0.000000=1.000000=0.000000=0
;
#SCROLLS:0.000000=1.000000
;
#FAKES:;
#LABELS:0.000000=Song Start
;
#NOTES:
0000
0000
0000
0000
,
0000
0000
0000
0000
,
1000
0000
0000
0000
,
0001
0000
0000
0000
,
1000
0000
0000
0000
,
0001
0000
0000
0000
,
0010
0000
0000
0000
,
0100
0000
0000
0000
,
0020
0000
0030
0000
,
0000
0000
0000
0000
,
2002
0000
3003
0000
,
0001
0000
0100
0000
,
0020
0000
0030
0000
,
0100
0000
0010
0000
,
2002
0000
3003
0000
,
0001
0000
0010
0000
,
0100
0000
0100
0000
,
0010
0000
0010
0000
,
2002
0000
3003
0000
,
1000
0000
0100
0000
,
0020
0000
0030
0000
,
0100
0000
0010
0000
,
2002
0000
3003
0000
,
1000
0000
0010
0000
,
0100
0000
0100
0000
,
0010
0000
0010
0000
,
1000
0000
1000
0000
,
0001
0000
0001
0000
,
1000
0000
0100
0000
,
0010
0000
0001
0000
,
2000
0000
3000
0000
,
0002
0000
0003
0000
,
1000
0000
0010
0000
,
0100
0000
0001
0000
,
2000
0000
3000
0000
,
0002
0000
0003
0000
,
2000
0000
3000
0000
,
0200
0000
0300
0000
,
0020
0000
0030
0000
,
0002
0000
0003
0000
,
0200
0000
0300
0000
,
0020
0000
0030
0000
,
1000
0000
0001
0000
,
1000
0000
0001
0000
,
2002
0000
3003
0000
,
0000
0000
0000
0000
,
1000
1000
1000
0000
,
1000
0000
1000
0000
,
0010
0010
0010
0000
,
0010
0000
0010
0000
,
0100
0100
0100
0000
,
0100
0000
0100
0000
,
0001
0000
0001
0000
,
1000
0000
1000
0000
,
0001
0001
0001
0000
,
0001
0000
0001
0000
,
0010
0010
0010
0000
,
0001
0000
1000
0000
,
0010
0010
0010
0000
,
0010
0000
0010
0000
,
1000
0000
1000
0000
,
0001
0000
0001
0000
,
1000
0000
0100
0000
,
0010
0000
0001
0000
,
0100
0000
0100
0000
,
0100
0000
0100
0000
,
1001
0000
1001
0000
,
1001
0000
1001
0000
,
2002
0000
0000
0000
,
0000
0000
0000
0000
,
0000
0000
3003
0000
;
