#VERSION:0.83;
#TITLE:Cleopatrysm;
#SUBTITLE:;
#ARTIST:ピラミッ℃;
#TITLETRANSLIT:;
#SUBTITLETRANSLIT:;
#ARTISTTRANSLIT:Pyrami℃;
#GENRE:Drumstep;
#ORIGIN:;
#CREDIT:;
#BANNER:Cleopatrysm.png;
#BACKGROUND:Cleopatrysm-bg.png;
#PREVIEWVID:;
#JACKET:Cleopatrysm-jacket.png;
#CDIMAGE:;
#DISCIMAGE:;
#LYRICSPATH:;
#CDTITLE:cdtitle.png;
#MUSIC:Cleopatrysm.ogg;
#OFFSET:-1.263000;
#SAMPLESTART:36.629421;
#SAMPLELENGTH:20.210526;
#SELECTABLE:YES;
#DISPLAYBPM:190.000000;
#BPMS:0.000=95.000,
14.000=190.000,
81.000=95.000,
88.500=47.500,
89.000=190.000,
185.000=95.000,
201.000=190.000,
265.000=95.000,
266.000=190.000,
295.500=126.667,
300.500=95.000;
#STOPS:;
#DELAYS:;
#WARPS:;
#TIMESIGNATURES:0.000=4=4;
#TICKCOUNTS:0.000=4;
#COMBOS:0.000=1;
#SPEEDS:0.000=1.000=0.000=0;
#SCROLLS:0.000=1.000;
#FAKES:;
#LABELS:0.000=Song Start;
#BGCHANGES:;
#KEYSOUNDS:;
#ATTACKS:
;

//---------------dance-single - ----------------
#NOTEDATA:;
#CHARTNAME:;
#STEPSTYPE:dance-single;
#DESCRIPTION:;
#CHARTSTYLE:;
#DIFFICULTY:Challenge;
#METER:16;
#RADARVALUES:0.796536,1.310088,0.314966,0.638445,0.834234,655.000000,618.000000,37.000000,75.000000,34.000000,2.000000,0.000000,0.000000,1.000000,0.796536,1.310088,0.314966,0.638445,0.834234,655.000000,618.000000,37.000000,75.000000,34.000000,2.000000,0.000000,0.000000,1.000000;
#CREDIT:;
#OFFSET:-1.263000;
#BPMS:0.000000=95.000000
,14.000000=190.000000
,81.000000=95.000000
,88.500000=47.500000
,89.000000=190.000000
,185.000000=95.000000
,201.000000=190.000000
,265.000000=95.000000
,266.000000=190.000000
,281.000000=95.000000
,282.000000=190.000000
,312.000000=95.000000
;
#STOPS:;
#DELAYS:;
#WARPS:265.000000=16.000000
;
#TIMESIGNATURES:0.000000=4=4
;
#TICKCOUNTS:0.000000=4
;
#COMBOS:0.000000=1
;
#SPEEDS:0.000000=1.000000=0.000000=0
,265.000000=0.000000=0.000000=0
,281.000000=1.000000=1.000000=0
;
#SCROLLS:0.000000=1.000000
,311.500000=0.500000
,312.000000=1.000000
;
#FAKES:;
#LABELS:0.000000=Song Start
;
#DISPLAYBPM:190.000000;
#NOTES:
// measure 0
0000
0000
0000
0000
,  // measure 1
0000
0000
0000
0000
,  // measure 2
0000
0000
0000
0000
0000
0000
0000
0000
0000
0000
0000
0000
0000
0000
0000
0000
1000
0000
0001
0100
0001
0000
2000
0000
0000
0000
3100
0010
0100
0010
0002
0000
,  // measure 3
0000
0000
1003
0010
1000
0000
0200
0000
0000
0000
0310
0000
0001
0000
0100
0000
1010
0000
0000
0000
1000
0000
0001
0000
0010
0000
0000
0000
0011
0000
0000
0000
,  // measure 4
0000
0000
0001
1000
0001
0000
2002
0000
0000
0000
0000
0000
0000
0000
0010
0000
,  // measure 5
0000
0000
3003
0000
1000
0000
1000
0100
,  // measure 6
M000
0100
0001
0010
0000
0001
1000
0001
,  // measure 7
0000
0010
0001
0100
000M
0100
1000
0010
,  // measure 8
1000
0100
0010
0001
0000
0011
0000
1010
,  // measure 9
0000
1100
0000
0101
1001
0000
0001
0010
,  // measure 10
000M
0010
1000
0100
0000
0010
0100
0010
,  // measure 11
0001
0100
0010
1000
0000
0100
1000
0010
,  // measure 12
M000
0010
0001
0100
0000
0101
0000
0011
,  // measure 13
0000
1010
0000
1001
1200
0000
0000
0301
,  // measure 14
0100
1000
0010
0001
0010
0000
1000
0010
,  // measure 15
M000
0010
0001
0100
0000
0001
1000
0100
,  // measure 16
M000
0100
0001
0010
0000
1010
0000
1100
,  // measure 17
0000
0101
0000
0001
0010
0000
0001
0000
,  // measure 18
0100
1000
0100
0001
0010
0000
0100
1000
,  // measure 19
0010
0000
0001
0000
0010
0000
1000
0000
0100
0000
0000
0000
0100
1000
0100
1000
,  // measure 20
0001
0000
0000
0100
0000
0000
0010
0000
0000
1000
0000
0000
0002
0000
0000
0000
0000
0000
0000
0000
0000
0000
0000
0000
1003
0000
0000
0000
0000
0000
1001
0000
0000
0000
0000
0000
0001
0000
0100
0000
0000
0000
1000
0000
0100
0000
0000
0000
,  // measure 21
0001
0000
0000
0000
0110
0000
0000
0000
0000
0000
0000
0000
1000
0000
0100
0000
0010
0000
0001
0000
0100
0000
0010
0000
1000
0000
0001
0000
0010
0100
0010
0100
,  // measure 22
0010
0100
0010
0100
0020
0030
0000
0000
2002
0000
0000
0000
0000
0000
0000
0000
0003
0000
0000
0000
0000
0000
0000
0000
0100
0000
0000
0000
0000
0000
0000
0000
,  // measure 23
3001
1000
0001
1000
0001
0010
0100
1000
0002
0000
0000
0000
0200
0000
0000
0000
,  // measure 24
0303
MMMM
2020
0000
3000
0100
0100
0000
,  // measure 25
0031
0000
0000
0010
0000
0000
1000
0000
0100
0000
0010
0000
0001
0000
0100
0000
0020
0000
2000
0000
0000
0000
0000
0000
,  // measure 26
3030
MMMM
2200
0000
3000
0000
0001
0000
,  // measure 27
1300
0010
1000
0010
1000
0100
0010
0001
2000
0000
0000
0000
0020
0000
0000
0000
,  // measure 28
3030
MMMM
0202
0000
0300
0000
1000
0000
,  // measure 29
1003
0000
0000
0000
0011
0000
0000
1100
0000
0001
0100
0000
0010
1000
0001
1000
,  // measure 30
0100
0010
2002
0000
3000
0000
0100
0000
,  // measure 31
1003
0001
1000
0001
1000
0010
0100
0001
2000
0000
0000
0000
3200
0000
0000
0000
,  // measure 32
M3M1
0000
0100
0000
1000
0000
1000
0010
0100
0000
0002
0000
1000
0000
0000
0000
,  // measure 33
0103
0000
0000
1000
0000
0000
0100
0000
0001
0000
0010
0000
0100
0000
1000
0000
0020
0000
0002
0000
0000
0000
0000
0000
,  // measure 34
0033
MMMM
0220
0000
0300
0000
1000
0000
,  // measure 35
0130
0001
0100
0001
1000
0100
0010
0001
2000
0000
0000
0000
3001
0000
1000
0000
,  // measure 36
0001
MMMM
2002
0000
0000
0000
0000
0000
,  // measure 37
0000
0000
0000
0000
0010
0000
0000
0000
0000
0000
3003
0000
0000
0000
1000
0001
,  // measure 38
0010
0001
1000
0000
2001
0000
0000
0000
3010
0000
0002
0000
0000
0000
1003
0000
,  // measure 39
0200
0000
0000
0000
0310
0000
2000
0000
0000
0000
3100
0010
0001
0000
0010
0000
,  // measure 40
0100
0001
0200
0000
1300
0020
0000
0130
,  // measure 41
0002
0000
0000
0000
0013
0000
0200
0000
0000
0000
1300
0000
0010
0000
0100
0001
,  // measure 42
1000
0010
0100
0000
0002
0000
0000
0000
0013
0000
2000
0000
0000
0000
3001
0000
,  // measure 43
0200
0000
0000
0000
0310
0000
0002
0000
0000
0000
0103
0010
1000
0000
0010
0000
,  // measure 44
0100
1000
0200
0000
0301
0020
0000
1030
,  // measure 45
0002
0000
0000
0000
0000
0000
0000
0000
0000
0000
0000
0000
1003
0000
0000
0000
0000
0000
0000
0000
0000
0010
0000
0000
0000
0000
0000
0000
0000
0000
0001
0000
0000
0000
0000
0000
0100
0000
0000
0000
0000
0000
0000
0000
0110
0000
0000
0000
,  // measure 46
0000
0000
0000
0000
1010
0000
0000
0000
0000
0000
0000
0000
1002
0000
0000
0000
0000
0000
0000
0000
0000
0203
0000
0000
0000
0000
0000
0310
0000
0000
1000
0000
0000
0200
0000
0000
0000
0000
0000
0310
0000
0000
0100
0000
0000
2000
0000
0000
,  // measure 47
0000
0000
3001
0100
0001
0100
0001
0000
1000
0000
0001
0010
0001
0000
0200
0000
0000
0000
0310
0000
1000
0001
1000
0000
0100
0000
0010
0000
0001
0000
0200
0000
,  // measure 48
0000
0000
0301
1000
0100
1000
0001
0000
0100
0000
0010
1000
0100
0000
0002
0000
0000
0000
0103
0010
0100
0010
0002
0000
0000
0000
0103
0010
0100
0000
2000
0000
,  // measure 49
0000
0000
3100
0000
0001
0000
0010
0000
0100
1000
0100
1000
0010
0000
0200
0000
0000
0000
0301
1000
0100
0000
0020
0000
0000
0000
0100
0000
0130
0000
0000
0000
,  // measure 50
1000
0100
0010
0001
1000
0000
0001
0100
0001
0000
0000
0000
1000
0000
0010
0000
0100
0000
0000
0000
2000
0000
0000
0000
0000
0000
0000
0000
3100
0000
0010
0000
,  // measure 51
1000
0001
0020
0000
0000
0000
1030
0000
0010
0000
0002
0000
0000
0000
1003
0010
,  // measure 52
0100
0001
1000
0000
0100
0000
0010
0001
0100
0000
2000
0000
0000
0000
3100
0000
,  // measure 53
0100
0001
1000
0000
0001
0000
0010
0000
1000
0000
0020
0000
0000
0000
0031
1000
,  // measure 54
0010
0100
0001
0000
1000
0000
0001
0010
0100
0000
0002
0000
0000
0000
0103
0010
,  // measure 55
0001
1000
0020
0000
0000
0000
0031
0010
0100
0000
0002
0000
0000
0000
0013
0000
,  // measure 56
0001
0000
0100
0000
1010
0000
1000
0001
0010
0000
MM21
0000
0000
0000
0130
0000
,  // measure 57
0010
0000
2MM2
0000
0000
0000
0003
0000
3001
1000
0001
0000
1000
0001
1000
0001
,  // measure 58
1000
0100
0010
0001
1000
0000
0010
0000
0100
0000
0001
0000
1000
0100
1000
0000
,  // measure 59
0010
0000
0100
0001
0100
0001
1000
0001
0010
0000
0100
0000
1000
0001
1000
0000
,  // measure 60
0010
0100
0010
0100
0010
0000
0100
0000
0001
0000
0010
0000
0100
0010
0100
0000
,  // measure 61
1000
0000
0010
0100
0000
0001
0000
1000
0100
0000
0010
0001
0000
0010
0001
0000
,  // measure 62
1000
0000
0010
1000
0001
0000
0010
0000
0100
0000
1000
0000
0001
0100
0001
0000
,  // measure 63
0010
0000
0100
1000
0100
1000
0001
1000
0010
0000
0100
0000
0001
1000
0001
0000
,  // measure 64
0010
0100
0010
0100
0010
0000
0100
0000
1000
0000
0010
0000
0100
0010
0100
0000
,  // measure 65
0001
0000
1000
0000
1100
0000
0000
0011
0000
0001
1000
0000
0010
0100
0001
0100
,  // measure 66
0010
0000
0100
0001
1000
0000
0000
0000
0000
0000
0000
0000
0000
0000
0000
0000
,  // measure 67
0000
0000
0000
0000
,  // measure 68
0000
0000
0000
0000
,  // measure 69
0000
0000
0000
0000
,  // measure 70
0000
0000
0000
0000
2000
0M00
00M0
0000
3001
1000
0001
0000
0100
0000
0010
1000
,  // measure 71
0010
1000
0001
1000
0100
0000
1000
0000
0001
0100
0001
0000
1000
0010
1000
0010
,  // measure 72
1000
0000
0100
0000
0001
0000
0100
0000
1000
0010
1000
0000
0001
0000
1000
0100
,  // measure 73
0000
0010
0000
0001
0100
0000
0010
1000
0000
0010
1000
0000
0100
0000
0010
0001
,  // measure 74
1000
0000
0010
0000
0001
0000
0010
0000
1000
0001
1000
0000
0100
0000
0010
0001
,  // measure 75
0010
0001
1000
0001
0100
0000
0001
0000
1000
0100
1000
0000
0001
0010
0001
0010
,  // measure 76
0001
0000
0100
0000
1000
0000
0100
0001
0010
0000
0100
0000
1000
0000
0010
0000
,  // measure 77
1000
0001
1000
0001
0100
0010
0100
0010
1000
0000
0100
0010
0000
0000
2002
0000
,  // measure 78
0000
0000
0000
0000
0000
0000
0000
3003
,  // measure 79
0001
0010
0001
0100
0010
1000
0100
1000
0010
0001
0010
1000
0100
0010
0001
0200
,  // measure 80
0000
0000
0000
0000
,  // measure 81
0300
0000
0000
0000
;

//---------------dance-single - ----------------
#NOTEDATA:;
#CHARTNAME:;
#STEPSTYPE:dance-single;
#DESCRIPTION:;
#CHARTSTYLE:;
#DIFFICULTY:Hard;
#METER:14;
#RADARVALUES:0.645741,0.917658,0.314966,0.629932,0.366042,531.000000,494.000000,37.000000,74.000000,17.000000,0.000000,0.000000,0.000000,0.000000,0.645741,0.917658,0.314966,0.629932,0.366042,531.000000,494.000000,37.000000,74.000000,17.000000,0.000000,0.000000,0.000000,0.000000;
#CREDIT:;
#OFFSET:-1.263000;
#BPMS:0.000000=95.000000
,14.000000=190.000000
,81.000000=95.000000
,88.500000=47.500000
,89.000000=190.000000
,185.000000=95.000000
,201.000000=190.000000
,265.000000=95.000000
,266.000000=190.000000
,296.000000=95.000000
;
#STOPS:;
#DELAYS:;
#WARPS:;
#TIMESIGNATURES:0.000000=4=4
;
#TICKCOUNTS:0.000000=4
;
#COMBOS:0.000000=1
;
#SPEEDS:0.000000=1.000000=0.000000=0
;
#SCROLLS:0.000000=1.000000
,88.500000=2.000000
,89.000000=1.000000
,295.500000=0.500000
,296.000000=1.000000
;
#FAKES:;
#LABELS:0.000000=Song Start
;
#DISPLAYBPM:190.000000;
#NOTES:
// measure 0
0000
0000
0000
0000
,  // measure 1
0000
0000
0000
0000
,  // measure 2
0000
0000
0000
0000
0000
0000
0000
0000
1000
0100
0010
0002
0000
0103
0001
0020
,  // measure 3
0000
0130
1000
0020
0000
0130
0001
0000
1100
0000
0000
0000
0001
0000
0101
0000
,  // measure 4
0000
1010
0000
2002
0000
0000
3003
M00M
,  // measure 5
0000
0000
0000
0000
0000
0000
0000
0000
0000
0000
0000
0000
1000
0000
0000
0000
0000
M000
0000
0000
0000
1000
0000
0000
,  // measure 6
0000
0000
0000
0100
0000
0000
1000
0000
0000
0001
0000
0000
0100
0000
0000
0000
0000
0M00
0000
0000
0000
0100
0000
0000
,  // measure 7
0000
0010
1000
0100
0010
0001
0000
0010
,  // measure 8
0001
0100
0010
1000
0000
1010
0000
1001
,  // measure 9
0000
0000
0000
1100
0000
0000
0000
0000
0000
0010
0000
0000
0001
0000
0000
0000
0000
000M
0000
0000
0000
0001
0000
0000
,  // measure 10
0000
0000
0000
0100
0000
0000
0001
0000
0000
1000
0000
0000
0100
0000
0000
0000
0000
0M00
0000
0000
0000
0100
0000
0000
,  // measure 11
1000
0001
0100
0010
1000
0000
0010
0100
,  // measure 12
0001
0000
1000
0100
0000
0011
0000
1001
,  // measure 13
0000
0000
0000
0101
0000
0000
0000
0000
0000
0010
0000
0000
1000
0000
0000
0000
0000
M000
0000
0000
0000
1000
0000
0000
,  // measure 14
0010
0000
0000
0100
0000
0000
0001
0000
0000
0010
0000
0000
0001
0000
0000
0000
0000
000M
0000
0000
0000
0001
0000
0000
,  // measure 15
0010
0001
0100
0010
1000
0100
0000
1000
,  // measure 16
0100
0010
0001
0100
0000
0101
0000
1001
,  // measure 17
0000
0011
0000
0100
1000
0000
1000
0000
,  // measure 18
0010
1000
0010
0100
0001
0000
0001
0010
,  // measure 19
0100
1000
0010
0000
0100
0000
0001
0100
,  // measure 20
1000
0100
0002
0000
1003
1001
1000
0100
,  // measure 21
1000
0000
1001
0000
0000
0000
1000
0100
1000
0100
0001
0100
0001
0100
1000
0010
,  // measure 22
0001
0010
2000
3000
2002
0000
0000
0000
0003
0000
0000
0000
3020
0000
0000
0000
,  // measure 23
0031
0010
1000
0100
0002
0000
0200
0000
,  // measure 24
0303
0000
2100
0000
0000
3010
0200
0000
,  // measure 25
0310
0000
0000
0010
0000
0000
1000
0000
0001
0000
1000
0000
0001
0000
0000
0000
0000
0000
2002
0000
0000
0000
0000
0000
,  // measure 26
3003
0202
0300
0023
,  // measure 27
1030
0010
0001
0100
2000
0000
0200
0000
,  // measure 28
3300
0202
0300
0010
,  // measure 29
0103
0000
0000
0000
0101
0000
0000
0011
0000
0000
1001
0000
1000
0000
0010
0100
,  // measure 30
0010
1000
2002
0000
3000
0000
0023
0000
,  // measure 31
1030
0010
0001
0100
2000
0000
3200
0000
,  // measure 32
0301
0010
1000
0010
0001
0100
0020
0000
,  // measure 33
1030
0000
0000
1000
0000
0000
0100
0000
0010
0000
0100
0000
0010
0000
0000
0001
0000
0000
0200
0000
0000
0000
0000
0000
,  // measure 34
0300
2002
0003
3020
,  // measure 35
0031
0010
1000
0100
0002
0000
0103
1000
,  // measure 36
0010
0220
0000
0000
,  // measure 37
0330
M00M
0000
0000
1MM1
0000
0000
M00M
0000
0000
0000
0000
0000
0000
0001
1000
,  // measure 38
0001
1000
0002
0000
0103
0020
0000
0130
,  // measure 39
2000
0000
3100
0002
0000
0103
0100
0010
,  // measure 40
1000
0100
2000
0000
3100
0002
0000
0103
,  // measure 41
0020
0000
0000
0000
0130
0000
0100
0000
1000
0000
0000
0000
1000
0000
0001
1000
,  // measure 42
0001
1000
0002
0000
0013
0200
0000
0310
,  // measure 43
2000
0000
3010
0002
0000
0013
0010
0001
,  // measure 44
0100
0010
2000
0000
3010
0002
0000
0013
,  // measure 45
2000
0000
0000
0000
0000
0000
0000
0000
0000
0000
0000
0000
3100
0000
0000
0000
0000
0000
0000
0000
0000
0010
0000
0000
0000
0000
0000
0000
0000
0000
0001
0000
0000
0000
0000
0000
0100
0000
0000
0000
0000
0000
0000
0000
0101
0000
0000
0000
,  // measure 46
0000
0000
0000
0000
0110
0000
0000
0000
0000
0000
0000
0000
2010
0000
0000
0000
0000
0000
0000
0000
0000
3002
0000
0000
0000
0000
0000
0103
0000
0000
0010
0000
0000
2000
0000
0000
0000
0000
0000
3100
0000
0000
0010
0000
0000
0002
0000
0000
,  // measure 47
0000
0013
0100
1000
0001
0100
0010
2000
0000
3010
1000
0100
0010
0001
0100
0020
,  // measure 48
0000
0130
0001
0010
0100
1000
0010
0002
0000
0013
1000
0200
0000
0301
0100
2000
,  // measure 49
0000
3010
0001
0010
0100
1000
0100
0002
0000
0013
0100
2000
0000
0000
3001
0000
,  // measure 50
0110
1001
1000
0100
0010
0002
0000
0103
,  // measure 51
1000
0002
0000
1003
0100
0002
0000
0013
,  // measure 52
0001
1000
0001
0000
1000
0000
0010
0000
0100
0000
0020
0000
0000
0000
1030
0000
,  // measure 53
0001
1000
0001
0000
0010
0000
1000
0000
0010
0000
0200
0000
0000
0000
1300
0001
,  // measure 54
1000
0001
1000
0000
0001
0000
0100
0000
0010
0000
2000
0000
0000
0000
3100
0000
,  // measure 55
0001
2000
0000
3001
0100
2000
0000
3010
,  // measure 56
0100
0001
1001
0000
1000
1100
0000
0001
,  // measure 57
0010
0000
0000
1002
0000
0000
0000
M000
0000
0000
0000
0000
1000
0000
0000
0000
0000
0000
1000
0000
0000
0000
0000
0000
,  // measure 58
1000
1003
0001
0100
0001
0100
0010
0100
,  // measure 59
0010
0000
1000
0010
1000
0000
0001
0100
0001
0000
1000
0000
0010
0000
0100
0000
,  // measure 60
0001
0010
0100
1000
0100
1000
0100
0001
,  // measure 61
0100
0001
0100
0010
0001
0100
1000
0100
,  // measure 62
0001
1000
0001
0010
0001
0010
0100
0010
,  // measure 63
0100
0000
0010
0001
0010
0000
0100
1000
0100
0000
0010
0000
0001
0000
1000
0000
,  // measure 64
0001
0100
0010
1000
0010
1000
0010
0001
,  // measure 65
0010
0000
1000
0000
0100
0000
0000
0010
0000
0100
0010
0000
0001
0000
0100
0000
,  // measure 66
0010
0000
1000
0000
0002
0M00
0000
00M0
1003
0000
0100
0000
1000
0000
0001
0010
,  // measure 67
0001
0000
1000
0100
1000
0000
0001
0000
0100
0000
1000
0000
0100
0000
0001
0000
,  // measure 68
0010
1000
0010
1000
0010
0001
0010
0001
,  // measure 69
1000
0100
0001
0100
0010
0001
1000
0010
,  // measure 70
0001
0000
0010
0000
0001
0000
0010
0000
1000
0000
0010
0000
1000
0000
0001
0100
,  // measure 71
0001
0000
1000
0010
1000
0000
0001
0000
0010
0000
1000
0000
0010
0000
0001
0000
,  // measure 72
0100
0000
0010
0000
0010
0000
1000
0001
1000
0000
0001
0000
0001
0000
1000
0000
,  // measure 73
1000
0000
0010
0000
0100
0000
0001
0000
1000
0000
0000
0110
0000
0000
2002
0000
,  // measure 74
0000
0000
0000
0000
0000
0000
0000
3003
,  // measure 75
1000
0010
1000
0100
0010
0001
0100
0001
0010
1000
0010
0001
0100
0010
1000
0200
,  // measure 76
0000
0000
0000
0000
,  // measure 77
0300
0000
0000
0000
;

//---------------dance-single - ----------------
#NOTEDATA:;
#CHARTNAME:;
#STEPSTYPE:dance-single;
#DESCRIPTION:;
#CHARTSTYLE:;
#DIFFICULTY:Medium;
#METER:10;
#RADARVALUES:0.420765,0.524376,0.204302,0.629932,0.076613,346.000000,322.000000,24.000000,74.000000,0.000000,0.000000,0.000000,0.000000,0.000000,0.420765,0.524376,0.204302,0.629932,0.076613,346.000000,322.000000,24.000000,74.000000,0.000000,0.000000,0.000000,0.000000,0.000000;
#CREDIT:;
#OFFSET:-1.263000;
#BPMS:0.000000=95.000000
,14.000000=190.000000
,81.000000=95.000000
,88.500000=47.500000
,89.000000=190.000000
,185.000000=95.000000
,201.000000=190.000000
,265.000000=95.000000
,266.000000=190.000000
,296.000000=95.000000
;
#STOPS:;
#DELAYS:;
#WARPS:;
#TIMESIGNATURES:0.000000=4=4
;
#TICKCOUNTS:0.000000=4
;
#COMBOS:0.000000=1
;
#SPEEDS:0.000000=1.000000=0.000000=0
;
#SCROLLS:0.000000=1.000000
,88.500000=2.000000
,89.000000=1.000000
,295.500000=0.500000
,296.000000=1.000000
;
#FAKES:;
#LABELS:0.000000=Song Start
;
#DISPLAYBPM:190.000000;
#NOTES:
// measure 0
0000
0000
0000
0000
,  // measure 1
0000
0000
0000
0000
,  // measure 2
0000
0000
0000
0000
0000
0000
0000
0000
0001
0000
0000
0010
0000
0000
0000
0100
,  // measure 3
0000
0000
0000
1000
0000
0001
0100
0000
1010
0000
0000
0000
0000
0000
0101
0000
,  // measure 4
0000
0011
0000
2002
0000
0000
0000
3003
,  // measure 5
0000
0000
0000
0000
2000
0000
0000
3000
,  // measure 6
0000
0100
1000
0002
0000
0000
0000
0003
,  // measure 7
0000
0010
0001
2000
0000
0000
0000
3000
,  // measure 8
0001
0100
0001
0100
0000
0010
0000
1000
,  // measure 9
0000
0001
0000
0020
0000
0000
0000
0030
,  // measure 10
0000
0100
0010
0002
0000
0000
0000
0003
,  // measure 11
1000
0010
1000
0020
0000
0030
0100
0002
,  // measure 12
0000
0003
1000
0100
0000
0010
0000
0001
,  // measure 13
0000
1000
0000
0000
1002
0000
0000
0003
,  // measure 14
0100
0010
0100
0020
0000
0000
0000
0030
,  // measure 15
0000
1000
0001
0020
0000
0000
0000
0030
,  // measure 16
0100
1000
0100
1000
0000
0001
0000
0100
,  // measure 17
0000
0010
0000
1000
0001
0000
0001
0000
,  // measure 18
1000
0100
1000
0100
1000
0000
1000
0000
,  // measure 19
0001
0100
0001
0100
0001
0000
1000
0100
,  // measure 20
0000
0010
0002
0000
1003
0010
0100
0100
,  // measure 21
0100
0001
0000
1000
0100
0001
0010
1000
,  // measure 22
0100
0000
0020
0030
2002
0000
0000
0000
0003
0000
0000
0000
3100
0000
0000
0000
,  // measure 23
1000
0001
1000
0001
0200
0000
0002
0000
,  // measure 24
0303
2020
3000
0130
,  // measure 25
0020
1030
0001
2002
,  // measure 26
3003
0022
0030
1003
,  // measure 27
0001
0100
0001
0100
0020
0000
2000
0000
,  // measure 28
3030
2002
3003
1000
,  // measure 29
0100
0000
0010
0000
0001
0000
0100
0010
,  // measure 30
1000
2002
3000
0103
,  // measure 31
0001
1000
0001
1000
0200
0000
2300
0000
,  // measure 32
3010
0000
1000
0001
1000
0001
0010
0000
,  // measure 33
0200
0310
0001
2002
,  // measure 34
3003
2020
0030
3001
,  // measure 35
1000
0100
1000
0100
0020
0000
0032
0000
,  // measure 36
1003
2002
0000
3000
,  // measure 37
0000
0200
0000
0303
,  // measure 38
0001
0000
2000
0000
3000
0200
0000
0300
,  // measure 39
0002
0000
0003
0200
0000
0300
1000
0100
,  // measure 40
1000
0001
0200
0000
0300
2000
0000
3000
,  // measure 41
0200
0000
0301
0100
0001
0000
1000
0100
,  // measure 42
1000
0000
0002
0000
0003
0020
0000
0030
,  // measure 43
2000
0000
3000
0020
0000
0030
0001
1000
,  // measure 44
0001
1000
0020
0000
0030
0002
0000
0003
,  // measure 45
0020
1030
0100
0220
,  // measure 46
0330
0000
0000
0000
2001
0000
0000
3010
0000
0000
0000
0100
0000
0000
0000
0001
,  // measure 47
0000
0000
1000
0000
0100
0000
0000
0010
0000
0000
0000
0001
0000
0000
0000
0100
,  // measure 48
0000
0000
1000
0000
0100
0000
0000
0001
0000
0000
0000
0010
0000
0000
0000
1000
,  // measure 49
0000
0000
0010
0000
0001
0000
0000
0100
0000
0010
0000
2001
0000
0000
3100
0000
,  // measure 50
0110
1001
1000
0000
0001
0200
0000
0300
,  // measure 51
0010
2000
0000
3000
0001
0020
0000
0130
,  // measure 52
1000
0000
0001
0000
0100
0020
0000
1030
,  // measure 53
0001
0000
1000
0000
0100
0020
0000
0030
,  // measure 54
0100
1000
0001
0000
1000
0020
0000
0030
,  // measure 55
0100
0002
0000
0003
1000
0200
0000
0310
,  // measure 56
0001
0000
1001
0000
0000
1010
0000
0101
,  // measure 57
0000
2001
0000
0000
0001
0000
0001
0000
,  // measure 58
3001
1000
0100
0010
,  // measure 59
0001
1000
0010
1000
0001
0000
0100
0000
,  // measure 60
1000
0000
0100
0000
0001
0010
0100
0000
,  // measure 61
1000
0000
0010
0100
0001
0000
1000
0000
,  // measure 62
1000
0001
0100
0010
,  // measure 63
1000
0001
0010
0001
1000
0000
0100
0000
,  // measure 64
0001
0100
1000
0010
,  // measure 65
0100
0000
0001
0000
1000
0001
1000
0000
,  // measure 66
0100
0010
0002
0003
1001
0000
1000
0010
,  // measure 67
0100
0010
1000
0000
0100
0000
0001
0000
,  // measure 68
0100
0000
1000
0010
0100
0000
0001
0000
,  // measure 69
0010
0001
0100
0000
0010
0000
0010
0000
,  // measure 70
1000
0000
0001
0000
0100
0000
0001
0010
,  // measure 71
0100
0010
0001
0000
0100
0000
0010
0000
,  // measure 72
1000
0100
1000
0000
0001
0100
0001
0000
,  // measure 73
1000
0000
0000
0000
0100
0000
0000
0000
0010
0000
0000
0002
0000
0000
2000
0000
,  // measure 74
0000
0000
0000
0000
0000
0000
0000
3003
,  // measure 75
1000
0000
0010
0000
0001
0000
0010
0000
1000
0000
0100
0000
0001
0000
0100
2000
,  // measure 76
0000
0000
0000
0000
,  // measure 77
3000
0000
0000
0000
;

//---------------dance-single - ----------------
#NOTEDATA:;
#CHARTNAME:;
#STEPSTYPE:dance-single;
#DESCRIPTION:;
#CHARTSTYLE:;
#DIFFICULTY:Beginner;
#METER:4;
#RADARVALUES:0.209167,0.302836,0.110664,0.212815,0.000000,172.000000,159.000000,13.000000,25.000000,0.000000,0.000000,0.000000,0.000000,0.000000,0.209167,0.302836,0.110664,0.212815,0.000000,172.000000,159.000000,13.000000,25.000000,0.000000,0.000000,0.000000,0.000000,0.000000;
#CREDIT:;
#OFFSET:-1.263000;
#BPMS:0.000000=190.000000
;
#STOPS:;
#DELAYS:;
#WARPS:;
#TIMESIGNATURES:0.000000=4=4
;
#TICKCOUNTS:0.000000=4
;
#COMBOS:0.000000=1
;
#SPEEDS:0.000000=1.000000=0.000000=0
;
#SCROLLS:0.000000=1.000000
;
#FAKES:;
#LABELS:0.000000=Song Start
;
#DISPLAYBPM:190.000000;
#NOTES:
// measure 0
0000
0000
0000
0000
,  // measure 1
0000
0000
0000
0000
,  // measure 2
0000
0000
0000
0000
,  // measure 3
0000
0000
0000
0000
,  // measure 4
0000
0000
0000
0000
,  // measure 5
1000
0000
1000
0000
,  // measure 6
0001
0000
0001
0000
,  // measure 7
1000
0000
0000
0001
0000
0000
0000
2002
,  // measure 8
0000
0000
0000
3003
0000
0000
0000
0000
,  // measure 9
1000
0000
0000
0000
,  // measure 10
0100
0000
0000
0000
,  // measure 11
0010
0000
0001
0000
,  // measure 12
1000
0000
0001
0000
,  // measure 13
0100
0000
0000
0000
,  // measure 14
0010
0000
0000
0000
,  // measure 15
1000
0000
0001
0000
,  // measure 16
0010
0000
0100
0000
,  // measure 17
1000
0000
0000
0000
,  // measure 18
0001
0000
0000
0000
,  // measure 19
1000
0000
0010
0000
,  // measure 20
0100
0000
0001
0000
,  // measure 21
1000
0000
1000
0000
,  // measure 22
0001
0000
0001
0000
,  // measure 23
1000
0000
0000
1001
,  // measure 24
0000
0000
1000
0000
,  // measure 25
0000
0000
0001
0000
,  // measure 26
0100
0000
0100
0000
,  // measure 27
0200
0000
0300
0000
,  // measure 28
2002
0000
3003
0000
,  // measure 29
1000
1000
0100
0000
,  // measure 30
0220
0000
0330
0000
,  // measure 31
0001
0001
0100
0000
,  // measure 32
0220
0000
0330
0000
,  // measure 33
0001
1000
0001
0000
,  // measure 34
2002
0000
3003
0000
,  // measure 35
0100
0100
0100
0000
,  // measure 36
2002
0000
3003
0000
,  // measure 37
0001
0001
0010
0000
,  // measure 38
0100
0100
0100
0000
,  // measure 39
1000
1000
0001
0000
,  // measure 40
2002
0000
3003
0000
,  // measure 41
1000
1000
0010
0000
,  // measure 42
0220
0000
0000
0000
,  // measure 43
0330
0000
0000
0000
,  // measure 44
1000
0000
0010
0000
,  // measure 45
1000
0000
1000
0000
,  // measure 46
0001
0000
0010
0000
,  // measure 47
0001
0000
0001
0000
,  // measure 48
0100
0000
0010
0000
,  // measure 49
1000
0000
1000
0000
,  // measure 50
0100
0000
0010
0000
,  // measure 51
0100
0100
0100
0000
,  // measure 52
2002
0000
0000
0000
,  // measure 53
0000
0000
3003
0000
,  // measure 54
1000
0000
0000
0000
,  // measure 55
0001
0000
0000
0000
,  // measure 56
0100
0000
0100
0000
,  // measure 57
0010
0000
0010
0000
,  // measure 58
1000
0000
0001
0000
,  // measure 59
2000
0000
3000
0000
,  // measure 60
1000
1000
0100
0000
,  // measure 61
0010
0010
0001
0000
,  // measure 62
1000
1000
0010
0000
,  // measure 63
0100
0100
0001
0000
,  // measure 64
1000
0001
1000
0000
,  // measure 65
0100
0010
0100
0000
,  // measure 66
1000
0000
0000
0001
0000
0000
0000
2002
,  // measure 67
0000
0000
3003
0000
,  // measure 68
1000
0000
0010
0000
,  // measure 69
0100
0100
0010
0000
,  // measure 70
0100
0000
0001
0000
,  // measure 71
1000
1000
0001
0000
,  // measure 72
1000
0000
0100
0000
,  // measure 73
0010
0010
0001
0000
,  // measure 74
1000
0000
0001
0000
,  // measure 75
0100
0100
0100
0100
,  // measure 76
0100
0000
1001
0000
,  // measure 77
0001
0001
0010
0000
,  // measure 78
0001
0000
1000
0000
,  // measure 79
0010
0010
0100
0000
,  // measure 80
0010
0000
1000
0000
,  // measure 81
0001
0001
0010
0000
,  // measure 82
0001
0001
1000
1000
,  // measure 83
0001
0000
0000
0000
1000
0000
0000
2002
,  // measure 84
0000
0000
0000
0000
,  // measure 85
0000
0000
0000
3003
,  // measure 86
0000
0000
0000
0000
,  // measure 87
0000
0000
0000
0000
0000
0000
0000
0020
,  // measure 88
0000
0000
0000
0000
0000
0000
0000
0000
0000
0000
0000
0000
0000
0000
0000
0030
;

//---------------dance-single - ----------------
#NOTEDATA:;
#CHARTNAME:;
#STEPSTYPE:dance-single;
#DESCRIPTION:;
#CHARTSTYLE:;
#DIFFICULTY:Easy;
#METER:7;
#RADARVALUES:0.324695,0.493198,0.195790,0.612907,0.004256,267.000000,244.000000,23.000000,72.000000,0.000000,0.000000,0.000000,0.000000,0.000000,0.324695,0.493198,0.195790,0.612907,0.004256,267.000000,244.000000,23.000000,72.000000,0.000000,0.000000,0.000000,0.000000,0.000000;
#CREDIT:;
#OFFSET:-1.263000;
#BPMS:0.000000=95.000000
,14.000000=190.000000
,81.000000=95.000000
,88.500000=47.500000
,89.000000=190.000000
,185.000000=95.000000
,201.000000=190.000000
,297.000000=95.000000
;
#STOPS:;
#DELAYS:;
#WARPS:;
#TIMESIGNATURES:0.000000=4=4
;
#TICKCOUNTS:0.000000=4
;
#COMBOS:0.000000=1
;
#SPEEDS:0.000000=1.000000=0.000000=0
;
#SCROLLS:0.000000=1.000000
,88.500000=2.000000
,89.000000=1.000000
,296.500000=0.500000
,297.000000=1.000000
;
#FAKES:;
#LABELS:0.000000=Song Start
;
#DISPLAYBPM:190.000000;
#NOTES:
// measure 0
0000
0000
0000
0000
,  // measure 1
0000
0000
0000
0000
,  // measure 2
0000
0000
1000
0010
,  // measure 3
0100
0000
0001
0000
1001
0000
0000
0110
,  // measure 4
0000
0110
0000
2002
0000
0000
0000
3003
,  // measure 5
0000
0000
0000
0000
2000
0000
0000
3000
,  // measure 6
0000
0100
0000
0020
0000
0000
0000
0030
,  // measure 7
0000
0001
0000
2000
0000
0000
0000
3000
,  // measure 8
0001
0000
0000
0100
0000
0100
0000
0010
,  // measure 9
0000
1000
0000
0002
0000
0000
0000
0003
,  // measure 10
0000
0010
0000
0200
0000
0000
0000
0300
,  // measure 11
1000
0000
0000
0002
0000
0003
0000
0200
,  // measure 12
0000
0300
0000
0010
0000
0010
0000
1000
,  // measure 13
0000
0001
0000
0000
2001
0000
0000
3000
,  // measure 14
0001
0000
0000
0200
0000
0000
0000
0300
,  // measure 15
0000
0001
0000
2000
0000
0000
0000
3000
,  // measure 16
0100
0000
0000
0010
0000
0010
0000
0001
,  // measure 17
0000
1000
0000
0000
0001
0000
0001
0000
,  // measure 18
0100
0100
0010
0010
,  // measure 19
1000
0000
1000
0000
0100
0000
0000
0010
,  // measure 20
0000
0000
2002
0000
3003
1001
0000
0100
,  // measure 21
0000
1001
0000
1000
0100
0010
0001
0200
,  // measure 22
0000
0000
0020
0330
2001
0000
0000
0000
0000
0000
0000
0000
3100
0000
0000
0000
,  // measure 23
0010
0001
2000
0020
,  // measure 24
3030
0102
0000
1003
,  // measure 25
0100
0010
0002
0200
,  // measure 26
0303
1002
0000
0013
,  // measure 27
0001
1000
0020
0200
,  // measure 28
0330
2002
3003
1000
,  // measure 29
0100
0010
0100
1000
,  // measure 30
0001
1002
0000
0103
,  // measure 31
0010
1000
0002
0013
,  // measure 32
0001
2000
0001
3001
,  // measure 33
0100
0010
2000
0200
,  // measure 34
3300
2001
0000
3010
,  // measure 35
1000
0001
0020
0130
,  // measure 36
0010
2002
0000
0000
,  // measure 37
0000
3003
0000
0000
,  // measure 38
0001
0000
2000
0000
3000
0020
0000
0030
,  // measure 39
0200
0000
0300
0002
0000
0003
1000
0000
,  // measure 40
0100
0000
0020
0000
0030
0002
0000
0003
,  // measure 41
0200
0300
0010
1000
,  // measure 42
1000
0000
0002
0000
0003
0020
0000
0030
,  // measure 43
0200
0000
0300
2000
0000
3000
0001
0000
,  // measure 44
0100
0000
0002
0000
0003
0020
0000
0030
,  // measure 45
0200
0000
0300
2000
0000
0000
0001
0000
,  // measure 46
3001
2002
0000
0000
,  // measure 47
3003
0000
1000
1000
0100
0000
0001
0001
,  // measure 48
0100
0000
1000
0010
0100
0000
0001
0010
,  // measure 49
0100
0000
0010
0001
0100
0010
2000
0000
,  // measure 50
3001
0001
2000
0000
0000
3200
0000
0000
,  // measure 51
0000
0302
0000
0000
0000
0203
0000
0000
,  // measure 52
1300
0000
2000
0000
0000
3020
0000
0000
,  // measure 53
0130
0000
0002
0000
0000
0023
0000
0000
,  // measure 54
0031
0000
0002
0000
0000
0203
0000
0000
,  // measure 55
0000
2300
0000
0000
0000
3200
0000
0000
,  // measure 56
0301
0000
0011
0000
0000
1100
0000
1100
,  // measure 57
0000
1002
0000
0000
0100
0000
0103
0000
,  // measure 58
0001
1000
0100
0010
,  // measure 59
0100
1000
0010
1000
,  // measure 60
0100
0010
0001
0100
,  // measure 61
0010
0100
0001
0010
,  // measure 62
0100
1000
0010
0100
,  // measure 63
0010
1000
0100
1000
,  // measure 64
0010
0100
0001
0010
,  // measure 65
0001
0100
0100
0010
,  // measure 66
1000
2002
3003
1001
,  // measure 67
0001
0100
0001
1000
,  // measure 68
0100
1000
0001
0010
,  // measure 69
0001
1000
0010
0001
,  // measure 70
0010
1000
0001
1000
,  // measure 71
0100
0001
0100
1000
,  // measure 72
0001
0100
0100
0010
,  // measure 73
0010
1000
0001
1000
,  // measure 74
0000
2002
0000
0000
0000
0000
0000
0000
,  // measure 75
0000
3003
1000
0010
0100
0001
0010
0100
,  // measure 76
1000
0000
0000
0002
0000
0000
0000
0000
0000
0000
0000
0000
0000
0000
0000
0000
,  // measure 77
0000
0003
0000
0000
;
