#VERSION:0.83;
#TITLE:Clash;
#SUBTITLE:;
#ARTIST:Caravan Palace;
#TITLETRANSLIT:;
#SUBTITLETRANSLIT:;
#ARTISTTRANSLIT:;
#GENRE:Electro Swing;
#ORIGIN:;
#CREDIT:;
#BANNER:Clash.png;
#BACKGROUND:Clash-bg.png;
#PREVIEWVID:;
#JACKET:Clash-jacket.png;
#CDIMAGE:;
#DISCIMAGE:;
#LYRICSPATH:;
#CDTITLE:cdtitle.png;
#MUSIC:Clash.ogg;
#OFFSET:0.365833;
#SAMPLESTART:75.222397;
#SAMPLELENGTH:15.098110;
#SELECTABLE:YES;
#BPMS:0.000=127.000,
48.000=63.500,
54.000=127.000;
#STOPS:54.000=1.417;
#DELAYS:;
#WARPS:;
#TIMESIGNATURES:0.000=4=4;
#TICKCOUNTS:0.000=4;
#COMBOS:0.000=1;
#SPEEDS:0.000=1.000=0.000=0;
#SCROLLS:0.000=1.000;
#FAKES:;
#LABELS:0.000=Song Start;
#BGCHANGES:;
#KEYSOUNDS:;
#ATTACKS:
;

//---------------dance-single - ----------------
#NOTEDATA:;
#CHARTNAME:;
#STEPSTYPE:dance-single;
#DESCRIPTION:;
#CHARTSTYLE:;
#DIFFICULTY:Challenge;
#METER:15;
#RADARVALUES:0.728925,0.738731,0.264458,0.334461,0.676700,656.000000,622.000000,34.000000,43.000000,0.000000,0.000000,0.000000,0.000000,0.000000,0.728925,0.738731,0.264458,0.334461,0.676700,656.000000,622.000000,34.000000,43.000000,0.000000,0.000000,0.000000,0.000000,0.000000;
#CREDIT:;
#OFFSET:0.365833;
#BPMS:0.000000=126.999992
,48.000000=63.499996
,54.000000=126.999992
;
#STOPS:54.000000=1.417323
;
#DELAYS:;
#WARPS:;
#TIMESIGNATURES:0.000000=4=4
;
#TICKCOUNTS:0.000000=4
;
#COMBOS:0.000000=1
;
#SPEEDS:0.000000=1.000000=0.000000=0
;
#SCROLLS:0.000000=1.000000
;
#FAKES:;
#LABELS:0.000000=Song Start
;
#NOTES:
0000
0000
0000
0000
,
0000
0000
0000
0000
,
1000
0100
0010
0010
0100
1000
0010
0010
,
0100
0000
0000
0001
0000
0000
0010
0000
0000
0100
0000
0010
0001
0000
0200
0000
0000
0000
0310
0000
0000
1000
0000
0001
,
0000
0000
1000
0000
0000
0200
0000
0000
1300
0100
0000
0010
0001
0000
0100
0001
0000
0100
0001
0000
1000
0010
0000
0000
,
1000
0000
0000
0100
0000
0000
0001
0000
0000
0100
0000
0000
0001
0000
0000
0100
0000
0010
0100
0000
0000
1000
0000
0000
,
0001
0000
0100
0001
0000
0020
0000
0000
0130
1000
0000
1000
0001
0000
0200
0000
0000
0000
0301
0000
0100
0010
0000
0000
,
0100
0001
1000
0200
0320
0100
0100
0130
,
1000
0000
0010
0100
0000
0010
0100
0000
0001
1000
0000
0100
0010
0000
0100
0010
0000
0001
0100
0000
0010
1000
0000
0000
,
0001
0000
0000
0100
0000
0000
0010
0000
0010
1000
0000
1000
0001
0000
0000
0010
0000
0001
0010
0000
0000
0100
0000
0000
,
1000
0000
0100
1000
0000
0020
0000
0000
0130
0001
0000
0001
1000
0000
0200
0000
0000
0000
1300
0000
0100
0010
0000
0000
,
0001
0000
0000
0100
0000
0000
1000
0000
0000
0100
0000
0000
0001
0000
0100
0001
0000
0000
1000
0000
0000
0100
0000
0000
,
1200
0000
0000
0000
0010
0000
0000
0000
0000
0000
0000
0000
1300
0000
0000
0001
0200
0000
0000
0000
0010
0000
0000
0000
0000
0000
0000
0000
0301
0000
0000
0000
,
2010
0000
0000
0000
0000
0000
0000
0000
0000
0000
0000
0000
0000
0000
0000
0000
0000
0000
0000
0000
0000
0000
0000
0000
0001
0000
0000
0000
0000
0000
0000
0000
0000
0000
0000
0000
0000
0000
0000
0000
0000
0000
0000
0000
0000
0000
0000
0000
0000
0000
0000
0000
0000
0000
0000
0000
0000
0000
0000
0000
0000
0000
0000
0000
0000
0000
0000
0000
0000
0000
0000
0000
3100
0000
0000
0000
0000
0000
0000
0000
0000
0000
0000
0000
0000
0000
0000
0000
0000
0000
0010
0000
0000
0000
0000
0000
0001
0000
0000
0000
0000
0000
0000
0000
0000
0000
0000
0000
0000
0000
0000
0000
0001
0000
0000
0000
0000
0000
0000
0000
1000
0000
0000
0000
0000
0000
0000
0000
0000
0000
0000
0000
0000
0000
0000
0000
0000
0000
0000
0000
0000
0000
0000
0000
0001
0000
0000
0000
0000
0000
0000
0000
0000
0000
0000
0000
0000
0000
0000
0000
0000
0000
0000
0000
0000
0000
0000
0000
0100
0000
0000
0000
0000
0000
0000
0000
0000
0000
0000
0000
0000
0000
0000
0000
0000
0000
0000
0000
0000
0000
0000
0000
,
0020
0000
0000
0000
0030
0100
0010
0000
0000
0100
0000
0000
1000
0000
0000
0100
0000
0100
0001
0000
0000
0010
0000
0000
,
0200
0000
0000
0000
0300
0010
0100
0000
0000
1000
0000
1000
0001
0000
0000
1001
0000
0000
1000
0000
0000
0010
0000
0000
,
0200
0000
0000
0000
0300
0010
1000
0000
0000
0100
0000
0000
0001
0000
0000
0100
0000
0000
1000
0000
0000
1000
0000
0000
,
1020
0000
0000
0000
0130
0010
1000
0001
0010
0000
0110
0000
1000
0000
0100
0000
,
0020
0000
0000
0000
0030
0100
0010
0000
0000
0100
0000
0000
0001
0000
0000
0100
0000
0100
1000
0000
0000
0010
0000
0000
,
0200
0000
0000
0000
0300
0010
0100
0000
0000
0001
0000
0001
1000
0000
0000
1001
0000
0000
0001
0000
0000
0010
0000
0000
,
0200
0000
0000
0000
0300
0010
0001
0000
0000
0100
0000
0000
1000
0000
0000
0100
0000
0000
0002
0000
0000
0010
0000
0000
,
0010
0000
0000
0000
0003
0010
0001
0000
0000
0101
0000
0000
0110
0000
0000
1010
0000
0000
1000
0000
0100
0000
0000
0020
,
0000
0000
0130
1000
0000
0001
0100
0000
0010
1000
0000
0001
0010
0000
0100
1000
0000
0001
1000
0000
0010
1000
0000
0000
,
0100
0000
0000
0010
0000
0010
0100
0000
0000
1000
0000
1000
0001
0000
0000
1001
0000
0000
1000
0000
0010
0100
0000
0020
,
0000
0000
0031
0010
0000
0010
1000
0000
0002
0000
0000
0000
1003
0000
0100
0010
0000
0000
0001
0000
0000
0001
0000
0000
,
0201
0000
0000
0000
0000
0000
0000
0000
0000
0000
0000
0000
0310
0000
0000
1000
0000
0000
0001
0000
0000
0010
0000
0000
0100
0000
0000
0000
0000
0000
0110
0000
0000
0000
0000
0000
1000
0000
0000
0000
0001
0000
0010
0000
0000
0000
0001
0000
,
1000
0000
0001
0100
0000
0010
1000
0000
0001
0010
0000
0001
1000
0000
0010
1000
0000
0000
0001
0000
0010
0001
0000
0000
,
0100
0000
0000
0010
0000
0010
0100
0000
0000
0001
0000
0001
1000
0000
0000
1001
0000
0000
0001
0000
0010
0100
0000
0020
,
0000
0000
1030
0010
0000
0010
0001
0000
2000
0000
0000
0000
3001
0000
0100
0010
0000
0000
2000
0000
0000
0100
0000
0000
,
3100
0000
0000
1000
0000
0010
1000
0000
0000
1010
0000
0000
0110
0000
0000
0101
0000
0000
1000
0000
0000
1000
0000
0000
,
0100
0000
0000
0100
0000
0000
1000
0000
0000
1000
0000
0000
0100
0000
0000
0010
0000
0000
0011
0000
0000
0000
0000
2100
,
0000
0000
0000
3001
0000
1000
0010
0000
0000
1000
0000
0000
0010
0000
2000
0000
0000
3001
0000
0000
0000
0001
0000
0000
,
0010
0000
0000
0010
0000
0000
0001
0000
0010
0001
0000
0000
1000
0000
0010
0000
0000
2000
0000
0000
0000
3100
0000
0000
,
0100
0000
0000
0000
0000
0100
0010
0000
0000
0010
0000
0001
1000
0000
0000
0001
0000
0000
0100
0000
0000
0001
0000
0000
,
0100
0000
0010
0000
0000
0010
1000
0000
0000
0001
0000
1000
0100
0000
0010
0000
0000
0100
0000
0000
0010
0001
0000
0000
,
0100
0000
0000
0010
0000
1000
0010
0000
0000
0001
0000
0000
0010
0000
1000
0010
0000
0000
1000
0000
0100
0000
0000
0010
,
0000
0000
0100
0000
0000
1000
0001
0000
0000
0100
0000
0000
0010
0000
0010
0000
0000
0020
0000
0000
0000
1000
0000
0000
,
2030
0000
0000
3000
0000
0010
1000
0000
1000
0100
0000
0000
0010
0000
0000
0001
0000
0000
1000
0000
0010
0100
0000
0000
,
1000
0000
0000
0100
0000
0000
0001
0010
0001
0010
0000
0100
0000
0000
0100
1000
0000
0000
0001
0000
0100
0010
0000
0000
,
0001
0000
0000
0010
0000
0010
1000
0000
0000
0001
0000
0001
1000
0000
0000
1001
0000
0000
0001
0000
0010
0100
0000
0000
,
0001
0000
0000
0100
0000
0000
1000
0010
1000
0010
0000
0100
0000
0000
0100
0001
0000
0000
0010
0000
0000
0010
0000
0000
,
0120
0000
0000
0000
0000
0000
0000
0000
0000
0000
0000
0000
0130
0000
0000
1000
0000
0000
0001
0000
0000
0100
0000
0000
0010
0000
0000
0000
0000
0000
0110
0000
0000
0000
0000
0000
0001
0000
0000
0000
0100
0000
0010
0000
0000
0000
0000
0000
,
0001
0000
0000
0010
0000
0000
1000
0001
1000
0001
0000
0010
0000
0000
0010
0100
0000
0000
1000
0000
0010
0100
0000
0000
,
1000
0000
0000
0100
0000
0100
0001
0000
0000
1000
0000
1000
0001
0000
0000
1001
0000
0000
1000
0000
0100
0010
0000
0000
,
1000
0000
0000
0010
0000
0000
0100
1000
0100
1000
0000
0001
0000
0000
0001
0100
0000
0000
0010
0000
0000
0010
0000
0000
,
0120
0000
0000
0000
0130
0001
1000
0100
0010
0000
0100
1000
0001
0000
0100
0000
,
0010
0000
0000
0100
0000
0100
0001
0000
0000
0100
0000
0000
1000
0000
0000
0100
0000
0010
1000
0000
0000
0100
0000
0000
,
0010
0000
0000
0001
0000
0001
0100
0000
0000
0010
0000
0010
1000
0000
0000
1001
0000
0000
0001
0000
0000
0100
0000
0000
,
0010
0000
0000
1000
0000
1000
0100
0000
0000
0001
0000
0000
0100
0000
0000
1000
0000
0000
0010
0000
0000
0010
0000
0000
,
1020
0000
0000
0000
0130
0001
1000
0100
0010
0000
0110
0000
1000
0000
0100
0000
,
0010
0000
0000
0100
0000
0100
1000
0000
0000
0100
0000
0000
0001
0000
0000
0100
0000
0010
0001
0000
0000
0100
0000
0000
,
0010
0000
0000
1000
0000
1000
0100
0000
0000
0010
0000
0010
0001
0000
0000
1001
0000
0000
1000
0000
0000
0100
0000
0000
,
0010
0000
0000
0001
0000
0001
0100
0000
0000
1000
0000
0000
0100
0000
0000
0001
0000
0000
0020
0000
0000
0100
0000
0000
,
0130
0000
0000
0010
0000
0001
1000
0000
0000
1010
0000
0000
0110
0000
0000
0101
0000
0000
1000
0000
0000
0100
0000
0000
,
0200
0000
0000
0310
0000
0100
1000
0000
0000
0001
0000
0000
0001
0000
0000
1000
0000
0010
0100
0000
0000
0100
0000
0000
,
0002
0000
0000
1003
0000
0001
0010
0000
0000
0100
0000
0100
0010
0000
0000
0001
0000
0000
0100
0000
0000
0010
0000
0000
,
0020
0000
0000
0130
0000
0001
1000
0000
0000
0100
0000
0000
0100
0000
0000
1000
0000
0010
0100
0000
0000
0100
0000
0000
,
0002
0000
0000
1003
0000
0001
0010
0000
0000
0100
0000
0010
0100
0000
0000
1000
0000
0000
0001
0000
0000
0100
0000
0000
,
0200
0000
0000
1300
0000
0100
0010
0000
0000
0100
0000
0000
0100
0000
0000
0001
0000
0010
0100
0000
0000
0100
0000
0000
,
2000
0000
0000
3001
0000
1000
0010
0000
0000
0100
0000
0100
0001
0000
0000
1000
0000
0000
0100
0000
0000
0001
0000
0000
,
0002
0000
0000
0103
0000
0010
0100
0000
0000
1000
0000
0000
1000
0000
0000
0001
0000
0000
0100
0000
0000
0100
0000
0000
,
0210
0000
0000
0000
0310
1000
0001
0010
0100
0000
0110
0000
1001
0000
0000
0000
,
1000
0000
0000
0000
0000
1000
0000
0000
0000
0010
0000
0000
0100
0000
0000
0001
0000
1000
0000
0000
0000
0100
0000
0000
,
0100
1000
0000
1000
0100
0010
0110
0000
,
0001
0000
0000
0000
0000
0001
0000
0000
0000
0100
0000
0000
0010
0000
0000
1000
0000
0001
0000
0000
0000
0010
0000
0000
,
0000
0010
0000
0100
1000
0000
0000
0000
;

//---------------dance-single - ----------------
#NOTEDATA:;
#CHARTNAME:;
#STEPSTYPE:dance-single;
#DESCRIPTION:;
#CHARTSTYLE:;
#DIFFICULTY:Hard;
#METER:12;
#RADARVALUES:0.576696,0.534943,0.070004,0.350017,0.272236,519.000000,510.000000,9.000000,45.000000,0.000000,0.000000,0.000000,0.000000,0.000000,0.576696,0.534943,0.070004,0.350017,0.272236,519.000000,510.000000,9.000000,45.000000,0.000000,0.000000,0.000000,0.000000,0.000000;
#CREDIT:;
#OFFSET:0.365833;
#BPMS:0.000000=126.999992
,48.000000=63.499996
,54.000000=126.999992
;
#STOPS:54.000000=1.417323
;
#DELAYS:;
#WARPS:;
#TIMESIGNATURES:0.000000=4=4
;
#TICKCOUNTS:0.000000=4
;
#COMBOS:0.000000=1
;
#SPEEDS:0.000000=1.000000=0.000000=0
;
#SCROLLS:0.000000=1.000000
;
#FAKES:;
#LABELS:0.000000=Song Start
;
#NOTES:
0000
0000
0000
0000
,
0000
0000
0000
0000
,
1000
0100
1000
0100
0010
0001
0010
0001
,
0100
0000
0000
0001
0000
0000
0100
0000
0000
0001
0000
0000
1000
0000
0020
0000
0000
0000
1030
0000
0000
0001
0000
1000
,
0000
0000
0001
0000
0000
0200
0000
0000
0301
0100
0000
0000
0010
0000
0000
1000
0000
0000
0100
0000
0000
0001
0000
0000
,
0100
1000
0100
1000
0001
0100
0001
0100
,
0010
0000
0000
1000
0000
0002
0000
0000
1003
0001
0000
0000
0010
0000
0200
0000
0000
0000
0310
0000
0001
1000
0000
0000
,
0010
0100
0001
0020
0230
0010
0010
0310
,
0001
0010
1000
0010
0001
0100
1000
0100
,
0001
0010
0100
0100
1000
0010
0100
0001
,
0010
0000
0000
0001
0000
2000
0000
0000
3001
1000
0000
0000
0010
0000
0200
0000
0000
0000
0310
0000
1000
0001
0000
0000
,
1000
0100
0010
0100
0001
0100
0010
0100
,
2000
0010
0000
0010
3002
0100
0000
0100
,
2003
0100
0000
3100
0110
1000
0001
0001
,
0200
0000
0000
0000
0300
0010
0100
0000
0000
0010
0000
0000
1000
0000
0000
0100
0000
0000
0001
0000
0000
0100
0000
0000
,
0200
0000
0000
0000
0300
0010
0100
0000
0000
1000
0000
0000
0010
0000
0000
0001
0000
0000
0010
0000
0000
0010
0000
0000
,
2000
0000
0000
0000
3000
0010
1000
0000
0000
0100
0000
0000
0001
0000
0000
0100
0000
0000
0010
0000
0000
0010
0000
0000
,
0012
0000
0000
0000
1003
0010
1000
0010
1000
0000
0001
0000
1000
0000
1000
0000
,
0200
0000
0000
0000
0300
0010
0100
0000
0000
0010
0000
0000
0001
0000
0000
0100
0000
0000
1000
0000
0000
0100
0000
0000
,
0200
0000
0000
0000
0300
0010
0100
0000
0000
0001
0000
0000
0010
0000
0000
1000
0000
0000
0010
0000
0000
0010
0000
0000
,
0002
0000
0000
0000
0003
0010
0001
0000
0000
0100
0000
0000
1000
0000
0000
0100
0000
0000
0020
0000
0000
1000
0000
0000
,
1000
0000
0000
0000
0000
0000
1030
0000
0000
0010
0000
0000
0100
0000
0000
0001
0000
0000
1000
0000
0100
0000
0000
2000
,
0000
0000
3100
0010
0000
0000
0001
0000
0000
0100
0000
0000
1000
0000
0000
0100
0000
0000
0001
0000
0000
0010
0000
0000
,
0020
0000
0000
0000
0030
0100
0010
0000
0000
0001
0000
0000
0001
0000
0000
1000
0000
0000
0001
0000
0000
0100
0000
0020
,
0000
0000
0130
0001
0000
0000
1000
0000
0200
0000
0000
0000
0310
0000
0100
1000
0000
0000
0001
0000
0000
0001
0000
0000
,
0102
0000
0000
0000
1003
0010
1000
0010
1000
0000
0001
0000
1000
0000
0100
0000
,
0001
0100
1000
0010
0001
0010
1000
0100
,
0200
0000
0000
0000
0300
0010
0100
0000
0000
1000
0000
0000
1000
0000
0000
0001
0000
0000
1000
0000
0000
0010
0000
0200
,
0000
0000
0310
1000
0000
0000
0001
0000
0020
0000
0000
0000
0130
0000
0010
0001
0000
0000
2000
0000
0000
0010
0000
0000
,
0010
0000
3010
0100
0001
1000
0100
0010
,
0100
0000
0000
0010
0000
0000
0100
0000
0000
0010
0000
0000
0100
0000
0000
0010
0000
0000
0011
0000
0000
0000
0000
2100
,
0000
0000
0000
3001
0000
0000
0100
0000
0000
0010
0000
0000
0100
0000
0020
0000
0000
1030
0000
0000
0000
0001
0000
0000
,
1000
0000
0000
0001
0000
0000
1000
0000
0000
0001
0000
0000
1000
0000
0100
0000
0000
0020
0000
0000
0000
0130
0000
0000
,
0010
0100
0010
0010
0001
0100
0010
1000
,
0001
1000
0010
1000
0100
0001
0100
1000
,
0010
0100
0001
0010
0100
0010
0001
0100
,
1000
0000
0000
0100
0000
0000
0001
0000
0000
0100
0000
0000
0010
0000
1000
0000
0000
0002
0000
0000
0000
1000
0000
0000
,
2000
3003
1000
1000
0010
0100
0001
0010
,
1000
0000
0000
0010
0000
0000
0001
0000
0000
0100
0000
0010
0000
0000
0100
0010
0000
0000
1000
0000
0000
0010
0000
0000
,
0001
0010
1000
0100
0100
0010
0001
0100
,
1000
0000
0000
0100
0000
0000
0001
0000
0000
0010
0000
0100
0000
0000
0100
1000
0000
0000
0001
0000
0000
0001
0000
0000
,
0102
0000
0000
0000
1003
0100
1000
0100
1000
0000
0001
0000
1000
0000
0010
0000
,
0001
0000
0000
0010
0000
0000
1000
0000
0000
0100
0000
0010
0000
0000
0100
0010
0000
0000
0001
0000
0000
0010
0000
0000
,
1000
0010
0001
0100
0100
0010
1000
0100
,
0001
0000
0000
0100
0000
0000
1000
0000
0000
0010
0000
0100
0000
0000
0100
0001
0000
0000
1000
0000
0000
1000
0000
0000
,
2100
0000
0000
0000
3001
0100
0001
0100
0001
0000
1000
0000
0001
0000
0010
0000
,
0100
0010
0001
1000
0001
0100
0010
1000
,
0100
1000
0010
1000
0100
0001
0100
0010
,
0001
1000
0010
0100
0001
1000
0100
0100
,
0210
0000
0000
0000
1300
0001
1000
0001
1000
0000
0010
0000
1000
0000
0100
0000
,
0010
0100
1000
0001
0100
0010
0100
0001
,
0010
0100
1000
0001
0100
1000
0100
0010
,
1000
0001
0010
0001
0100
0010
2000
0001
,
0001
0000
3001
0010
0100
1000
0001
0001
,
0200
0000
0000
0000
0300
0010
1000
0000
0000
0010
0000
0000
0100
0000
0000
0001
0000
0000
0010
0000
0000
0100
0000
0000
,
0200
0000
0000
0000
0300
0010
0001
0000
0000
0100
0000
0000
0010
0000
0000
1000
0000
0000
0100
0000
0000
0010
0000
0000
,
0020
0000
0000
0000
0030
0100
0010
0000
0000
0100
0000
0000
0001
0000
0000
0100
0000
0000
1000
0000
0000
0010
0000
0000
,
0020
0000
0000
0000
0030
0100
0010
0000
0000
1000
0000
0000
0100
0000
0000
0010
0000
0000
0001
0000
0000
0100
0000
0000
,
0200
0000
0000
0000
0300
1000
0100
0000
0000
1000
0000
0000
0100
0000
0000
0001
0000
0000
0010
0000
0000
0100
0000
0000
,
0200
0000
0000
0000
0300
0001
0100
0000
0000
0010
0000
0000
0001
0000
0000
1000
0000
0000
0001
0000
0000
0001
0000
0000
,
0200
0000
0000
0000
0300
0010
1000
0000
0000
0100
0000
0000
0001
0000
0000
0100
0000
0000
1000
0000
0000
1000
0000
0000
,
0020
0000
0000
0000
1030
0001
1000
0001
1000
0000
1001
0000
0000
0000
0000
0000
,
1000
0000
0000
0000
0000
1000
0000
0000
0000
0100
0000
0000
0010
0000
0000
0000
0000
0001
0000
0000
0000
0100
0000
0000
,
0000
0001
0000
0100
0010
1000
0001
0000
,
0001
0000
0000
0000
0000
0001
0000
0000
0000
0100
0000
0000
0010
0000
0000
0000
0000
1000
0000
0000
0000
0100
0000
0000
,
0000
1000
0000
0100
0010
0000
0000
0000
;

//---------------dance-single - ----------------
#NOTEDATA:;
#CHARTNAME:;
#STEPSTYPE:dance-single;
#DESCRIPTION:;
#CHARTSTYLE:;
#DIFFICULTY:Medium;
#METER:9;
#RADARVALUES:0.390019,0.382102,0.023334,0.264458,0.000000,351.000000,348.000000,3.000000,34.000000,0.000000,0.000000,0.000000,0.000000,0.000000,0.390019,0.382102,0.023334,0.264458,0.000000,351.000000,348.000000,3.000000,34.000000,0.000000,0.000000,0.000000,0.000000,0.000000;
#CREDIT:;
#OFFSET:0.365833;
#BPMS:0.000000=126.999992
,48.000000=63.499996
,54.000000=126.999992
;
#STOPS:54.000000=1.417323
;
#DELAYS:;
#WARPS:;
#TIMESIGNATURES:0.000000=4=4
;
#TICKCOUNTS:0.000000=4
;
#COMBOS:0.000000=1
;
#SPEEDS:0.000000=1.000000=0.000000=0
;
#SCROLLS:0.000000=1.000000
;
#FAKES:;
#LABELS:0.000000=Song Start
;
#NOTES:
0000
0000
0000
0000
,
0000
0000
0000
0000
,
1000
0010
0010
0100
,
0100
0000
0001
0000
2000
0000
3001
1000
,
0100
0000
0100
0000
0010
0100
1000
0001
,
0100
0010
0010
1000
,
0001
0010
0100
0010
0001
0000
0001
0100
,
0010
0000
1000
0020
2030
0000
3001
0000
,
0010
0001
0100
0000
0010
1000
0100
0000
,
0010
0000
0100
0100
1000
0000
0001
0000
,
1000
0010
0100
0010
1000
0000
1000
0100
,
0010
0000
0001
0000
0010
0100
1000
0000
,
0002
0100
0000
0100
2003
0100
0000
0100
,
3002
0100
0000
0103
0110
0000
1000
0010
,
2000
0000
3010
1000
0100
0000
0010
0001
,
0200
0000
0301
0100
0001
0000
1000
0001
,
0200
0000
0301
1000
0100
0000
0010
0010
,
0002
0000
0103
0100
0010
1000
0001
0010
,
0002
0000
0013
0001
0100
0000
0010
1000
,
0200
0000
1300
0100
1000
0000
0001
1000
,
0200
0000
1300
0001
0100
0000
0020
0000
,
0100
0000
0130
0010
1000
0001
0010
0000
,
0010
0000
0001
0010
0100
1000
0010
0100
,
0001
0000
0010
0100
1000
0000
0001
0100
,
1000
0100
0001
0000
1000
0100
0010
0010
,
0002
0000
0103
0010
1000
0001
1000
1000
,
0100
0000
0010
0010
0001
0000
0010
0001
,
0200
0000
0310
1000
0100
0000
1000
0100
,
0001
0100
1000
0000
0001
0100
0020
0000
,
1000
0000
1030
0010
0100
0001
1000
0000
,
1000
1000
1000
0200
,
0020
0300
0030
0001
,
0001
0001
0200
0020
,
0300
0000
1030
1000
1000
0000
0001
0010
,
0100
0000
0010
0100
1000
0000
0001
0100
,
0010
0000
0100
0100
0100
0000
0010
1000
,
0100
0000
0010
0001
0100
0000
2002
0000
,
3003
0000
1000
0001
1000
0000
0001
0100
,
0010
0100
2000
0000
3100
0000
1000
0100
,
0010
0000
0010
0100
0001
0000
1000
0100
,
0010
0100
0002
0000
0103
0000
1000
1000
,
0020
0000
0130
0100
0001
1000
0001
0010
,
0100
0010
2000
0000
3010
0000
1000
0010
,
0100
0000
0100
0010
0001
0000
1000
0010
,
0100
0010
0002
0000
0013
0000
1000
1000
,
0200
0000
0310
0010
0001
1000
0001
0100
,
0010
0000
0010
0100
0001
0000
1000
0100
,
0010
0000
0010
0100
1000
0000
0010
0100
,
0001
0000
0010
0100
1000
0000
0001
0001
,
0200
0000
0310
1000
0100
0010
0001
0100
,
0010
0000
0010
1000
0100
0000
1000
0100
,
0010
0000
0010
0001
0100
0000
0001
0100
,
1000
0000
1000
0100
0001
0000
0020
0000
,
0100
0000
0130
0010
0001
1000
0010
0000
,
1000
0000
0010
1000
0100
0000
0010
0000
,
0001
0000
0010
0001
0100
0000
0201
0000
,
0000
0010
0000
1000
0000
0010
0010
0000
,
0001
0000
0301
0000
0100
0001
1000
0200
,
0000
0010
0000
0001
0000
0010
0010
0000
,
1000
0000
1300
0000
0100
1000
0020
0000
,
0000
0001
0000
1000
0000
0100
0130
0010
,
0100
0000
0001
1000
0100
0010
0001
0000
,
1000
0000
0100
0000
,
1000
0000
1000
0000
,
0001
0000
0100
0000
,
0001
0000
1000
0000
;

//---------------dance-single - ----------------
#NOTEDATA:;
#CHARTNAME:;
#STEPSTYPE:dance-single;
#DESCRIPTION:;
#CHARTSTYLE:;
#DIFFICULTY:Easy;
#METER:5;
#RADARVALUES:0.286681,0.280208,0.124451,0.186676,0.000000,258.000000,242.000000,16.000000,24.000000,0.000000,0.000000,0.000000,0.000000,0.000000,0.286681,0.280208,0.124451,0.186676,0.000000,258.000000,242.000000,16.000000,24.000000,0.000000,0.000000,0.000000,0.000000,0.000000;
#CREDIT:;
#OFFSET:0.365833;
#BPMS:0.000000=126.999992
,48.000000=63.499996
,54.000000=126.999992
;
#STOPS:54.000000=1.417323
;
#DELAYS:;
#WARPS:;
#TIMESIGNATURES:0.000000=4=4
;
#TICKCOUNTS:0.000000=4
;
#COMBOS:0.000000=1
;
#SPEEDS:0.000000=1.000000=0.000000=0
;
#SCROLLS:0.000000=1.000000
;
#FAKES:;
#LABELS:0.000000=Song Start
;
#NOTES:
0000
0000
0000
0000
,
0000
0000
0000
0000
,
1001
1000
0100
0100
,
1001
0001
0200
0300
,
0001
0001
0100
0010
,
1000
1000
0001
0001
,
0010
0100
0010
0001
,
1000
1000
0001
0001
,
1000
1000
0010
0100
,
0001
0001
1000
1000
,
0100
0010
0100
1000
,
0001
0001
1000
1000
,
0002
0103
0020
1030
,
0200
0310
1001
1000
,
1000
0010
1000
0001
,
0001
0010
0001
0100
,
0100
0010
1000
2100
,
3001
0102
1003
0001
,
0001
0010
0001
1000
,
1000
0010
1000
0100
,
0100
0010
0001
2000
,
0001
0001
3001
1000
,
1000
0010
0001
0010
,
1000
0100
0010
0001
,
0001
0100
0010
2010
,
3001
0012
1003
0001
,
0001
0100
1000
0100
,
0010
1000
0001
1000
,
1000
0100
0010
0002
,
1000
1000
1003
0010
,
0100
0010
0100
1001
,
0220
0000
0330
0100
,
0010
0100
0010
2002
,
3003
0001
0001
1000
,
0100
0010
0100
1000
,
0010
0001
0010
1000
,
0100
0010
0001
0200
,
0000
0310
0010
1000
,
0100
0001
0100
1000
,
0010
0100
0100
0001
,
0010
1000
0010
0012
,
1003
2010
3001
0001
,
0100
1000
0100
0001
,
0010
0100
0100
1000
,
0010
0001
0010
2010
,
3001
0012
1003
0001
,
0100
0010
0100
1000
,
0100
0010
0100
0001
,
0100
0010
0100
2010
,
3001
0012
1003
1000
,
0100
0010
0100
0001
,
0100
0010
0100
1000
,
0100
0010
0001
2000
,
0010
0010
3010
1000
,
1000
0100
0010
0001
,
0001
0100
1000
0100
,
0100
0010
1000
0001
,
0001
0010
0100
0010
,
0010
0001
0100
1000
,
1000
0100
0001
1000
,
1000
0100
0010
0002
,
1003
2000
3001
0000
,
1000
0000
0100
0000
,
0010
0000
0001
0000
,
1000
0000
0010
0000
,
0100
0000
0001
0000
;

//---------------dance-single - ----------------
#NOTEDATA:;
#CHARTNAME:;
#STEPSTYPE:dance-single;
#DESCRIPTION:;
#CHARTSTYLE:;
#DIFFICULTY:Beginner;
#METER:2;
#RADARVALUES:0.125562,0.131743,0.000000,0.163341,0.000000,113.000000,113.000000,0.000000,21.000000,0.000000,0.000000,0.000000,0.000000,0.000000,0.125562,0.131743,0.000000,0.163341,0.000000,113.000000,113.000000,0.000000,21.000000,0.000000,0.000000,0.000000,0.000000,0.000000;
#CREDIT:;
#OFFSET:0.365833;
#BPMS:0.000000=126.999992
;
#STOPS:;
#DELAYS:;
#WARPS:;
#TIMESIGNATURES:0.000000=4=4
;
#TICKCOUNTS:0.000000=4
;
#COMBOS:0.000000=1
;
#SPEEDS:0.000000=1.000000=0.000000=0
;
#SCROLLS:0.000000=1.000000
;
#FAKES:;
#LABELS:0.000000=Song Start
;
#NOTES:
0000
0000
0000
0000
,
0000
0000
0000
0000
,
1000
0000
0000
0000
,
0001
0000
0000
0000
,
1000
0000
0100
0000
,
0100
0000
0000
0000
,
0010
0000
0100
0000
,
0010
0000
0000
0000
,
0001
0000
0100
0000
,
0100
0000
0000
0000
,
0010
0000
0100
0000
,
0010
0000
0000
0000
,
2000
0000
3000
0000
,
0200
0000
0300
0000
,
0020
0000
0030
0000
,
0001
0000
0000
0000
,
1000
0000
0010
0000
,
1000
0000
0001
0000
,
1000
0000
1000
0000
,
0200
0300
0020
0030
,
0001
0000
0010
0000
,
0001
0000
1000
0000
,
0001
0000
0001
0000
,
0200
0000
0300
0000
,
0010
0000
1000
0000
,
0001
0000
0010
0000
,
0001
0000
1000
0000
,
0020
0030
0200
0300
,
0001
0000
0010
0000
,
0100
0000
1000
0000
,
0010
0000
0100
0000
,
0002
0000
0003
0000
,
1000
0000
1000
0000
,
2000
0000
3000
0000
,
0001
0000
0001
0000
,
0002
0000
0003
0000
,
1000
0000
0100
0000
,
0010
0000
0001
0000
,
0100
0000
0010
0000
,
2000
0000
3000
0000
,
1000
0000
0100
0000
,
0001
0000
0010
0000
,
1000
0000
0100
0000
,
0020
0030
0200
0300
,
1000
0000
0010
0000
,
0001
0000
0100
0000
,
1000
0000
0010
0000
,
0200
0300
0020
0030
,
1000
0000
0001
0000
,
1000
0000
0001
0000
,
1000
0000
0001
0000
,
0020
0030
0200
0300
,
1000
0000
0001
0000
,
1000
0000
0001
0000
,
1000
0000
0001
0000
,
0200
0000
0300
0000
,
0010
0000
0100
0000
,
0001
0000
1000
0000
,
0100
0000
0010
0000
,
0001
0000
1000
0000
,
0010
0000
1000
0000
,
0100
0000
0010
0000
,
0001
0000
1000
0000
,
0020
0030
0200
0300
,
0000
0010
0000
0010
,
0000
0000
0000
0000
,
0000
0010
0000
0010
,
0000
0000
0000
0100
;
