#VERSION:0.83;
#TITLE:Blew My Caramell;
#SUBTITLE:;
#ARTIST:Sota F. vs Caramell;
#TITLETRANSLIT:;
#SUBTITLETRANSLIT:;
#ARTISTTRANSLIT:;
#GENRE:Bubblegumcore;
#ORIGIN:;
#CREDIT:;
#BANNER:Blew My Caramell.png;
#BACKGROUND:Blew My Caramell-bg.png;
#PREVIEWVID:;
#JACKET:Blew My Caramell-jacket.png;
#CDIMAGE:;
#DISCIMAGE:;
#LYRICSPATH:;
#CDTITLE:cdtitle.png;
#MUSIC:Blew My Caramell.ogg;
#OFFSET:-0.078741;
#SAMPLESTART:44.292267;
#SAMPLELENGTH:10.105263;
#SELECTABLE:YES;
#BPMS:0.000=190.000;
#STOPS:;
#DELAYS:;
#WARPS:;
#TIMESIGNATURES:0.000=4=4;
#TICKCOUNTS:0.000=4;
#COMBOS:0.000=1;
#SPEEDS:0.000=1.000=0.000=0;
#SCROLLS:0.000=1.000;
#FAKES:;
#LABELS:0.000=Song Start;
#BGCHANGES:;
#KEYSOUNDS:;
#ATTACKS:
;

//---------------dance-single - ----------------
#NOTEDATA:;
#CHARTNAME:;
#STEPSTYPE:dance-single;
#DESCRIPTION:;
#CHARTSTYLE:;
#DIFFICULTY:Challenge;
#METER:15;
#RADARVALUES:0.886649,0.862187,0.593192,0.065910,0.406446,565.000000,511.000000,54.000000,6.000000,0.000000,0.000000,0.000000,0.000000,0.000000,0.886649,0.862187,0.593192,0.065910,0.406446,565.000000,511.000000,54.000000,6.000000,0.000000,0.000000,0.000000,0.000000,0.000000;
#CREDIT:;
#NOTES:
// measure 0
0000
0000
0000
0000
,  // measure 1
0000
0000
0000
0000
,  // measure 2
0000
0000
0000
0000
,  // measure 3
0000
0000
0000
0000
,  // measure 4
0000
0000
0000
0000
0010
1000
0100
0010
,  // measure 5
0001
0000
0000
0001
0000
0000
0001
0000
0000
0000
0100
0010
0100
0000
0020
0000
,  // measure 6
0000
2030
0000
3001
1000
0100
0010
0001
,  // measure 7
0100
0000
0001
0100
0010
1000
0100
0010
,  // measure 8
0001
0100
0001
0000
1000
0010
1000
0000
0001
0010
0001
0000
1000
0000
0001
0000
,  // measure 9
2002
0000
0000
0000
,  // measure 10
0000
0000
0000
0000
3003
0000
0000
0001
0100
0000
0010
0000
1001
0000
0000
0000
,  // measure 11
0001
0000
1000
0100
1000
0000
0001
0000
1000
0010
1000
0000
0001
0000
0001
0000
,  // measure 12
1000
0000
0001
0100
0001
0000
1000
0000
0001
0010
0001
0000
1000
0000
0010
0000
,  // measure 13
0100
0000
0001
1000
0001
0000
0100
0000
0001
1000
0001
0000
0010
0000
0001
0000
,  // measure 14
1000
0000
0010
0100
0010
0000
1000
0000
0100
0010
0100
0000
0010
0000
0001
0000
,  // measure 15
1001
0000
0000
1010
0000
0000
0101
0000
0000
0001
0010
0000
0100
0000
1000
0000
,  // measure 16
0001
0100
0000
0101
0000
0000
0010
0000
1010
0000
1000
0000
1001
0000
0001
0000
,  // measure 17
1000
0001
0000
1000
0100
0000
0010
0000
0001
0010
0001
0000
0100
0000
0010
0000
,  // measure 18
1001
0000
0000
0001
1000
0000
0010
0000
1000
0000
0100
0000
0001
0000
0100
0000
,  // measure 19
1000
0000
0001
1000
0010
0000
1000
0000
0001
1000
0100
0000
0010
0000
0001
0000
,  // measure 20
0100
0000
0010
1000
0001
0000
1000
0000
0001
1000
0001
0000
0100
0000
0010
0000
,  // measure 21
1000
0000
0001
0010
0100
0000
0010
0000
0001
0100
0010
0000
1000
0000
0001
0000
,  // measure 22
1000
0000
0100
1000
0010
0000
0100
0001
0100
0000
0001
0000
0010
0000
0100
0000
,  // measure 23
1000
0000
0001
1000
0100
0000
1000
0000
0001
1000
0100
0000
0010
0000
0001
0000
,  // measure 24
1000
0000
0001
1000
0100
0000
0010
0000
0100
0010
0100
0000
1000
0000
0001
0000
,  // measure 25
0100
0000
0010
1000
0100
0000
0010
0000
0001
0100
0010
0000
1000
0000
0001
0000
,  // measure 26
1000
0000
0001
0100
0010
0000
1000
0000
0001
0010
0001
0000
0011
0000
0000
0000
,  // measure 27
1001
0000
0001
1000
0010
0000
0100
0000
0010
1000
0001
0000
0010
0000
0100
0000
,  // measure 28
1000
0000
0010
0100
0001
0000
0010
0000
0100
1000
0100
0000
0001
0000
0100
0000
,  // measure 29
1000
0000
0001
0100
0010
0000
1000
0000
0100
0010
0001
0000
1000
0000
0001
0000
,  // measure 30
0100
0000
0001
0010
0100
0000
1000
0000
0010
1000
0010
0000
0001
0000
0010
0000
,  // measure 31
1000
0000
0100
0010
0001
0000
0010
0000
0100
1000
0010
0000
0100
0000
0001
0000
,  // measure 32
1000
0000
0010
0100
0001
0000
1000
0000
0100
1000
0100
0000
0001
0000
0100
0000
,  // measure 33
1000
0000
0100
1000
0100
0000
1000
0100
1000
0000
0100
0000
1000
0000
0000
0000
,  // measure 34
1001
0000
0000
0001
1000
0000
0010
0000
0100
0001
0100
0000
0001
0000
1000
0000
,  // measure 35
0100
0000
0011
0100
1000
0001
0100
1001
,  // measure 36
0000
1000
0100
0010
0001
0100
1000
0100
,  // measure 37
0001
0000
1010
0100
0001
1000
0100
1001
,  // measure 38
0000
0000
0001
0000
0100
0000
1000
0000
0100
0000
0001
0000
0010
0000
0100
1000
,  // measure 39
0001
0000
0101
0010
1000
0100
0010
1001
,  // measure 40
0000
0001
0010
1000
0010
0001
0100
0010
,  // measure 41
1000
0000
1010
0100
0001
0010
0100
1100
,  // measure 42
0000
0011
0011
0000
1010
0000
0101
0000
,  // measure 43
1000
0000
0001
0100
0001
0000
1000
0000
0001
0010
0001
0000
1000
0000
0001
0000
,  // measure 44
1000
0000
0010
0100
0001
0000
0100
0000
0001
1000
0100
0000
0110
0000
0000
0000
,  // measure 45
0001
0000
1000
0010
1000
0000
0001
0000
1000
0100
1000
0000
0010
0000
0001
0000
,  // measure 46
0010
0000
1000
0010
0100
0000
0010
0000
0100
0001
1000
0000
0001
0000
1000
0001
,  // measure 47
1000
0000
0100
0010
0100
0000
1000
0000
0010
0100
0010
0000
1000
0000
0001
0000
,  // measure 48
0010
0000
0100
1000
0001
0000
1000
0000
0010
0100
0001
0000
0101
0000
0000
0000
,  // measure 49
0001
0000
1000
0100
1000
0000
0010
0000
0100
0001
0100
0000
0010
0000
1000
0000
,  // measure 50
1001
0000
0000
0000
1010
0000
0000
0000
0101
0000
0000
0000
1001
0000
0001
1000
,  // measure 51
0001
0000
0101
1000
0010
1000
0100
0011
,  // measure 52
0000
0001
0100
0010
0001
0010
1000
0100
,  // measure 53
0010
0000
0011
0100
1000
0001
0100
1010
,  // measure 54
0000
0000
1000
0000
0100
0000
0010
0000
1000
0000
0010
0000
0100
0000
1000
0001
,  // measure 55
1000
0000
1010
0100
0001
0010
0001
1100
,  // measure 56
0000
1000
0100
0001
0100
0010
0001
1000
,  // measure 57
0010
0000
0101
0010
1000
0100
0010
0011
,  // measure 58
0000
1100
1100
0000
0101
0000
1010
0000
,  // measure 59
1001
0000
1010
0100
0001
0010
0100
1001
,  // measure 60
0000
0001
0100
1000
0001
0010
1000
0100
,  // measure 61
0010
0000
0011
0100
1000
0010
0100
1001
,  // measure 62
0000
0001
0100
1000
0001
0010
1000
0001
,  // measure 63
0100
0000
1010
0100
0001
0010
0100
1001
,  // measure 64
0000
1000
0010
0001
1000
0100
0001
0010
,  // measure 65
0100
0000
1100
0010
0001
0100
0010
1000
,  // measure 66
1001
0000
0000
0101
0000
0000
1100
0000
0010
0000
0001
0000
0100
0010
0100
0000
,  // measure 67
2002
0000
0000
0000
,  // measure 68
0000
3003
0000
0000
;

//---------------dance-single - ----------------
#NOTEDATA:;
#CHARTNAME:;
#STEPSTYPE:dance-single;
#DESCRIPTION:;
#CHARTSTYLE:;
#DIFFICULTY:Hard;
#METER:13;
#RADARVALUES:0.660671,0.674755,0.373491,0.197730,0.087880,421.000000,387.000000,34.000000,18.000000,0.000000,0.000000,0.000000,0.000000,0.000000,0.660671,0.674755,0.373491,0.197730,0.087880,421.000000,387.000000,34.000000,18.000000,0.000000,0.000000,0.000000,0.000000,0.000000;
#CREDIT:;
#NOTES:
// measure 0
0000
0000
0000
0000
,  // measure 1
0000
0000
0000
0000
,  // measure 2
0000
0000
0000
0000
,  // measure 3
0000
0000
0000
0000
,  // measure 4
0000
0000
0000
0000
0010
0001
0100
0010
,  // measure 5
1000
0000
0000
1000
0000
0000
1000
0000
0000
0000
0100
0000
0010
0000
0002
0000
,  // measure 6
0000
2003
0000
3001
1000
0010
0100
0001
,  // measure 7
1000
0000
0001
0100
0010
1000
0100
0010
,  // measure 8
0001
0000
1100
0000
0101
0000
0001
1000
,  // measure 9
2002
0000
0000
0000
,  // measure 10
0000
0000
3003
0000
0100
0010
1001
0000
,  // measure 11
1000
0000
0000
0001
0000
0000
0001
0000
0000
1000
0000
0000
0010
0000
0100
0000
,  // measure 12
0001
0000
0000
1000
0000
0000
1000
0000
0000
0001
0000
0000
0010
0000
0100
0000
,  // measure 13
1000
0000
0000
0001
0000
0000
0001
0000
0000
0001
0000
0000
1000
0000
0010
0000
,  // measure 14
0100
0000
0000
0010
0000
0000
0010
0000
0000
1000
0000
0000
0100
0000
0010
0000
,  // measure 15
0011
0000
0000
0001
0000
0000
0100
0000
0000
0000
0010
0000
0000
0000
1000
0000
,  // measure 16
0010
0100
0000
0001
0000
0000
0100
0000
0001
0000
0100
0000
1000
0000
0100
0000
,  // measure 17
0001
0010
0000
0001
0000
0000
0001
0000
0000
1000
0000
0000
0010
0000
1000
0000
,  // measure 18
0200
0310
1001
1001
,  // measure 19
1000
0100
1000
0100
0001
0100
1000
0100
,  // measure 20
1000
0010
0000
1010
0000
1000
0100
0010
,  // measure 21
0001
0000
0001
0100
1000
0100
0001
0100
,  // measure 22
0010
1000
0000
0001
0010
0001
0100
0010
,  // measure 23
1000
0000
0001
0010
0000
1100
0000
0001
,  // measure 24
0000
1000
0000
0101
0000
1000
0010
0100
,  // measure 25
0001
0000
0010
0100
0000
1001
0000
1000
,  // measure 26
0100
0000
0010
0001
0000
1001
0000
1000
,  // measure 27
0001
0010
0001
0010
1000
0010
0001
1000
,  // measure 28
0100
0100
0000
0011
0000
0001
0100
0010
,  // measure 29
1000
0010
1000
0010
0001
0010
1000
0001
,  // measure 30
0100
0100
0000
1001
0000
1000
0100
0010
,  // measure 31
0001
0000
0100
0010
0000
1001
0000
0001
,  // measure 32
0000
1000
0001
0100
0000
0010
1000
0100
,  // measure 33
0010
0001
0010
0001
0100
0001
1000
0000
,  // measure 34
1001
1010
0101
0011
,  // measure 35
1100
0000
0010
0001
0100
0000
0010
2000
,  // measure 36
0000
3010
0100
0001
0010
0100
1000
0010
,  // measure 37
0100
0000
0010
1000
0100
0000
0010
0002
,  // measure 38
0000
0013
0100
1000
0010
1000
0001
0100
,  // measure 39
0001
0000
0010
0001
0100
0000
0010
2000
,  // measure 40
0000
3010
0001
0010
1000
0100
0010
0001
,  // measure 41
1000
0000
0100
1000
0010
0000
0100
0002
,  // measure 42
0000
0013
0100
0000
0011
0000
1100
0000
,  // measure 43
1000
0001
1000
0001
0010
0001
0100
1000
,  // measure 44
0100
0001
0100
0001
0010
0001
0101
0000
,  // measure 45
0001
1000
0001
1000
0010
1000
0100
0001
,  // measure 46
0100
0010
0001
0100
0010
1000
0001
1000
,  // measure 47
0001
0010
0001
0010
0100
0010
1000
0010
,  // measure 48
0001
1000
0001
1000
0100
1000
1010
0000
,  // measure 49
1000
0001
1000
0001
0010
0001
0100
0010
,  // measure 50
1010
0101
0011
1100
,  // measure 51
1001
0000
0010
0001
0100
0000
0010
2000
,  // measure 52
0000
3100
0010
0100
1000
0010
0100
0001
,  // measure 53
1000
0000
0010
1000
0100
0000
0010
0002
,  // measure 54
0000
0103
0010
0100
0001
0010
0100
1000
,  // measure 55
0001
0000
0010
0001
0100
0000
0010
2000
,  // measure 56
0000
3100
0001
0100
1000
0010
0100
0001
,  // measure 57
0010
0000
0100
1000
0010
0000
0100
0002
,  // measure 58
0000
0013
0100
0000
1010
0000
0101
0000
,  // measure 59
1001
0000
1000
0100
0010
0000
0001
0200
,  // measure 60
0000
0310
0100
1000
0100
0010
0100
0001
,  // measure 61
1000
0000
0001
0100
0010
0000
1000
0200
,  // measure 62
0000
0310
0100
0001
0100
0010
0100
1000
,  // measure 63
0001
0000
0010
0001
0100
0000
0001
0020
,  // measure 64
0000
1030
0010
0100
0010
0001
0100
0010
,  // measure 65
1000
0000
0010
1000
0100
0000
0010
0001
,  // measure 66
1000
0000
0000
1001
0000
0000
0001
0000
0100
0000
1000
0000
0100
0000
0001
0000
,  // measure 67
0202
0000
0000
0000
,  // measure 68
0000
0303
0000
0000
;

//---------------dance-single - ----------------
#NOTEDATA:;
#CHARTNAME:;
#STEPSTYPE:dance-single;
#DESCRIPTION:;
#CHARTSTYLE:;
#DIFFICULTY:Medium;
#METER:11;
#RADARVALUES:0.571221,0.637269,0.681072,0.065910,0.000000,364.000000,302.000000,62.000000,6.000000,0.000000,0.000000,0.000000,0.000000,0.000000,0.571221,0.637269,0.681072,0.065910,0.000000,364.000000,302.000000,62.000000,6.000000,0.000000,0.000000,0.000000,0.000000,0.000000;
#CREDIT:;
#NOTES:
// measure 0
0000
0000
0000
0000
,  // measure 1
0000
0000
0000
0000
,  // measure 2
0000
0000
0000
0000
,  // measure 3
0000
0000
0000
0000
,  // measure 4
0000
0000
0000
0000
1000
0001
1000
0001
,  // measure 5
0010
0000
0011
0000
0010
0001
0100
0010
,  // measure 6
1000
0000
1010
0000
0010
1000
0010
0100
,  // measure 7
0001
0000
0101
0000
0001
1000
0010
1000
,  // measure 8
0100
1000
1100
0011
,  // measure 9
2002
0000
0000
0000
,  // measure 10
0000
3003
0001
0110
,  // measure 11
1001
0000
0001
0000
1000
0000
0010
1000
,  // measure 12
0001
0000
1000
0000
0001
0000
0010
0001
,  // measure 13
0100
0000
0010
0000
0100
0000
0001
1000
,  // measure 14
0100
0000
1000
0000
0010
0100
0001
1000
,  // measure 15
0001
0000
0101
0000
1100
0000
1000
0010
,  // measure 16
1000
0100
1001
1001
,  // measure 17
1000
0100
0010
0000
0001
0100
0010
0000
,  // measure 18
2002
0000
3003
0000
1000
0010
0100
0001
,  // measure 19
1000
1000
0001
1000
,  // measure 20
0001
0010
0000
0011
0000
0100
1000
0001
,  // measure 21
0100
0010
0010
1000
,  // measure 22
0001
0100
0000
0110
0000
0001
1000
0001
,  // measure 23
1000
0000
0100
0010
0100
0000
0010
0000
,  // measure 24
0010
0000
0001
1000
0000
1000
0001
0000
,  // measure 25
1000
0000
0010
0100
0010
0000
0100
0000
,  // measure 26
0001
0000
1000
0001
1000
0000
0001
0000
,  // measure 27
1000
0100
0010
0001
,  // measure 28
1000
0001
0000
1001
0000
1000
0001
1000
,  // measure 29
0100
0010
0001
1000
,  // measure 30
0010
1000
0000
0101
0000
0100
0001
1000
,  // measure 31
0001
0000
1000
0100
1000
0000
0001
0000
,  // measure 32
1000
0000
0001
0100
0000
0010
0100
0010
,  // measure 33
1000
1000
0001
0001
,  // measure 34
1001
1100
0011
1100
,  // measure 35
1001
0000
1000
0010
1000
0000
0000
1001
,  // measure 36
0000
0001
0100
0000
0010
0000
1000
0000
,  // measure 37
1001
0000
0001
0010
0001
0000
0000
1001
,  // measure 38
0000
1000
0100
0000
0010
0000
0001
0000
,  // measure 39
1001
0000
1000
0010
1000
0000
0000
0101
,  // measure 40
0000
0001
1000
0000
0100
0000
1000
0000
,  // measure 41
1010
0000
0001
0100
0001
0000
0000
1001
,  // measure 42
0000
0001
0010
0000
1100
0000
0101
0000
,  // measure 43
1001
0000
1001
0000
1000
0010
0100
0001
,  // measure 44
1000
0000
0001
0000
1000
0001
0100
0000
,  // measure 45
1001
0000
1001
0000
0001
0010
0100
1000
,  // measure 46
0001
1000
0100
0000
0010
0000
0100
0000
,  // measure 47
1001
0000
1001
0000
1000
0010
1000
0001
,  // measure 48
0010
0000
0001
0000
1000
0001
0100
0000
,  // measure 49
1001
0000
1001
0000
0100
0010
0100
0000
,  // measure 50
1001
0101
1010
0101
,  // measure 51
1001
0000
0001
0010
0001
0000
0000
1001
,  // measure 52
0000
1000
0100
0000
0010
0000
0001
0000
,  // measure 53
1001
0000
1000
0010
1000
0000
0000
1001
,  // measure 54
0000
0001
0100
0000
0010
0000
1000
0000
,  // measure 55
1001
0000
0001
0010
0001
0000
0000
1100
,  // measure 56
0000
1000
0010
0000
0100
0000
0001
0000
,  // measure 57
0011
0000
1000
0100
1000
0000
0000
1010
,  // measure 58
0000
1000
0100
0000
0011
0000
0101
0000
,  // measure 59
1001
0000
1000
0100
0010
0000
0000
0011
,  // measure 60
0000
0001
0100
0000
0010
0000
1000
0000
,  // measure 61
1001
0000
0001
0100
0010
0000
0000
1010
,  // measure 62
0000
1000
0100
0000
0010
0000
0001
0000
,  // measure 63
1001
0000
1000
0010
0100
0000
0000
0110
,  // measure 64
0000
0010
1000
0000
0001
0000
0010
0000
,  // measure 65
0011
0000
0100
1000
0001
0000
1000
0001
,  // measure 66
0100
0000
0101
0000
0010
1000
0100
0000
,  // measure 67
2002
0000
0000
0000
,  // measure 68
0000
3003
0000
0000
;

//---------------dance-single - ----------------
#NOTEDATA:;
#CHARTNAME:;
#STEPSTYPE:dance-single;
#DESCRIPTION:;
#CHARTSTYLE:;
#DIFFICULTY:Easy;
#METER:8;
#RADARVALUES:0.451955,0.599783,0.703042,0.087880,0.000000,288.000000,224.000000,64.000000,8.000000,0.000000,0.000000,0.000000,0.000000,0.000000,0.451955,0.599783,0.703042,0.087880,0.000000,288.000000,224.000000,64.000000,8.000000,0.000000,0.000000,0.000000,0.000000,0.000000;
#CREDIT:;
#NOTES:
// measure 0
0000
0000
0000
0000
,  // measure 1
0000
0000
0000
0000
,  // measure 2
0000
0000
0000
0000
,  // measure 3
0000
0000
0000
0000
,  // measure 4
0000
0000
1000
0001
,  // measure 5
0100
0100
0100
0010
,  // measure 6
2000
0000
3001
1000
,  // measure 7
0100
0100
0100
0010
,  // measure 8
0001
0001
1000
1000
,  // measure 9
2002
0000
0000
0000
,  // measure 10
0000
3003
1000
1001
,  // measure 11
0001
0100
0001
0010
,  // measure 12
0100
1000
0010
1000
,  // measure 13
0001
0100
0010
1000
,  // measure 14
0001
0010
0100
1000
,  // measure 15
0010
0010
0100
0001
,  // measure 16
1000
0100
1001
1001
,  // measure 17
0001
1000
0100
0010
,  // measure 18
2001
0000
0001
3001
,  // measure 19
1000
1000
0010
1000
,  // measure 20
0001
0010
0011
0000
,  // measure 21
0001
0100
0100
0010
,  // measure 22
1000
0001
1001
0000
,  // measure 23
1000
0001
0100
0000
,  // measure 24
0001
0000
1000
0100
,  // measure 25
0010
0001
0100
0000
,  // measure 26
0010
1000
0100
0000
,  // measure 27
1000
1000
0010
0100
,  // measure 28
0001
1000
0001
1001
,  // measure 29
1000
1000
0001
1000
,  // measure 30
0100
0010
0100
1001
,  // measure 31
0001
0100
0010
0000
,  // measure 32
1000
0001
0010
0110
,  // measure 33
2002
3003
0001
1000
,  // measure 34
1001
0010
0010
0010
,  // measure 35
1001
1010
0101
0000
,  // measure 36
0001
1000
0010
1000
,  // measure 37
1001
0011
1100
0000
,  // measure 38
1000
0010
0100
0001
,  // measure 39
1001
0110
1001
0000
,  // measure 40
0001
0010
0100
1000
,  // measure 41
1010
0110
0101
0000
,  // measure 42
0011
0110
1100
1001
,  // measure 43
0001
0001
0100
1000
,  // measure 44
0100
0010
0010
0110
,  // measure 45
0001
0001
0100
1000
,  // measure 46
0100
0001
0010
0100
,  // measure 47
1000
1000
0010
0001
,  // measure 48
0010
0100
0100
0110
,  // measure 49
1000
1000
0100
0010
,  // measure 50
1001
0010
0010
0010
,  // measure 51
1001
0011
1100
0000
,  // measure 52
0001
0010
0100
1000
,  // measure 53
1001
1010
0101
0000
,  // measure 54
1000
0010
0100
0001
,  // measure 55
1001
0110
1001
0000
,  // measure 56
1000
0010
0100
0001
,  // measure 57
0011
0110
1100
0000
,  // measure 58
1010
0110
0101
1001
,  // measure 59
1010
0101
0011
0000
,  // measure 60
0010
0001
0100
0001
,  // measure 61
0011
1100
1010
0000
,  // measure 62
0010
1000
0100
1000
,  // measure 63
1010
1001
0101
0000
,  // measure 64
1000
0010
0100
0001
,  // measure 65
0011
0110
1100
0000
,  // measure 66
1010
1100
0101
0011
,  // measure 67
2002
0000
0000
0000
,  // measure 68
0000
3003
0000
0000
;

//---------------dance-single - ----------------
#NOTEDATA:;
#CHARTNAME:;
#STEPSTYPE:dance-single;
#DESCRIPTION:;
#CHARTSTYLE:;
#DIFFICULTY:Beginner;
#METER:4;
#RADARVALUES:0.243240,0.374864,0.131820,0.065910,0.000000,155.000000,143.000000,12.000000,6.000000,0.000000,0.000000,0.000000,0.000000,0.000000,0.243240,0.374864,0.131820,0.065910,0.000000,155.000000,143.000000,12.000000,6.000000,0.000000,0.000000,0.000000,0.000000,0.000000;
#CREDIT:;
#NOTES:
// measure 0
0000
0000
0000
0000
,  // measure 1
0000
0000
0000
0000
,  // measure 2
0000
0000
0000
0000
,  // measure 3
0000
0000
0000
0000
,  // measure 4
0000
0000
0000
0000
,  // measure 5
1000
0000
1000
0000
,  // measure 6
0010
0000
0100
0000
,  // measure 7
0001
0000
0001
0000
,  // measure 8
1000
1000
1000
0000
,  // measure 9
2002
0000
0000
0000
,  // measure 10
0000
3003
0000
0000
,  // measure 11
0001
0000
0010
0000
,  // measure 12
0001
0000
0100
0000
,  // measure 13
0010
0000
1000
0000
,  // measure 14
0100
0000
1000
0000
,  // measure 15
0001
0000
0001
0000
,  // measure 16
1000
0000
1000
1000
,  // measure 17
1000
0000
0001
0000
,  // measure 18
2002
0000
3003
0000
,  // measure 19
0001
0000
1000
0000
,  // measure 20
0010
0010
0010
0000
,  // measure 21
1000
0000
0001
0000
,  // measure 22
0010
0010
0010
0000
,  // measure 23
0001
0000
1000
0000
,  // measure 24
0000
0000
1000
0000
,  // measure 25
0001
0000
0100
0000
,  // measure 26
0000
0000
0000
0000
,  // measure 27
0010
0000
0010
0000
,  // measure 28
1000
1000
1000
0000
,  // measure 29
0001
0000
0001
0000
,  // measure 30
0010
0010
0010
0000
,  // measure 31
0001
0000
1000
0000
,  // measure 32
0000
0000
0010
0010
,  // measure 33
0010
0000
0000
0000
,  // measure 34
0100
0100
0100
0100
,  // measure 35
0100
0000
0010
0000
,  // measure 36
1000
1000
1000
0000
,  // measure 37
0100
0000
0010
0000
,  // measure 38
0001
0001
0001
0000
,  // measure 39
1000
0000
0010
0000
,  // measure 40
0100
0100
0100
0000
,  // measure 41
0001
0000
1000
0000
,  // measure 42
1001
1001
1001
0000
,  // measure 43
0001
0001
0001
0000
,  // measure 44
1000
0000
1000
0000
,  // measure 45
0001
0001
0001
0000
,  // measure 46
1000
0000
0100
0000
,  // measure 47
1000
1000
1000
0000
,  // measure 48
0001
0000
0001
0000
,  // measure 49
1000
1000
1000
0000
,  // measure 50
0010
0010
0010
0010
,  // measure 51
0010
0000
0100
0000
,  // measure 52
0001
0001
0001
0000
,  // measure 53
0010
0000
0100
0000
,  // measure 54
1000
1000
1000
0000
,  // measure 55
0010
0000
1000
0000
,  // measure 56
0100
0100
0100
0000
,  // measure 57
0010
0000
0001
0000
,  // measure 58
1001
1001
1001
0000
,  // measure 59
1000
0000
0010
0000
,  // measure 60
1000
1000
1000
0000
,  // measure 61
0001
0000
0010
0000
,  // measure 62
0001
0001
0001
0000
,  // measure 63
0100
0000
0010
0000
,  // measure 64
0100
0100
0100
0000
,  // measure 65
0001
0000
1000
0000
,  // measure 66
1001
1001
1001
0000
,  // measure 67
2002
0000
0000
0000
,  // measure 68
0000
3003
0000
0000
;

//---------------dance-single - [B-SIDE] Bad Joke Alert----------------
#NOTEDATA:;
#CHARTNAME:[B-SIDE] Bad Joke Alert;
#STEPSTYPE:dance-single;
#DESCRIPTION:[B-SIDE] Bad Joke Alert;
#CHARTSTYLE:;
#DIFFICULTY:Edit;
#METER:18;
#RADARVALUES:1.087518,1.087106,0.648117,0.065910,0.939220,693.000000,634.000000,59.000000,6.000000,4.000000,0.000000,0.000000,0.000000,0.000000,1.087518,1.087106,0.648117,0.065910,0.939220,693.000000,634.000000,59.000000,6.000000,4.000000,0.000000,0.000000,0.000000,0.000000;
#CREDIT:[B-SIDE] Bad Joke Alert;
#NOTES:
// measure 0
0000
0000
0000
0000
,  // measure 1
0000
0000
0000
0000
,  // measure 2
0000
0000
0000
0000
,  // measure 3
0000
0000
0000
0000
,  // measure 4
0000
0000
0000
0000
0010
1000
0100
0010
,  // measure 5
0011
0000
0000
1001
0000
0000
0101
0000
0000
0000
0100
0010
0100
0000
0020
0000
,  // measure 6
0000
2030
0000
3001
1000
0100
0010
1001
,  // measure 7
0100
0000
0001
0101
1010
1001
0101
1001
,  // measure 8
1000
0100
1000
0000
0001
0010
0001
0000
0100
0010
0100
0001
1000
0100
0010
0000
,  // measure 9
2002
0000
0000
0000
,  // measure 10
0000
0000
0000
0000
3003
0000
0000
0001
0100
0000
0010
0000
1001
0000
MMMM
0000
,  // measure 11
0001
0000
0010
0001
0100
0000
0010
0000
0100
0001
0010
0000
0001
0000
0001
0000
,  // measure 12
1000
0000
0100
1000
0010
0000
0100
0000
0010
1000
0100
0000
1000
0000
0001
0000
,  // measure 13
0100
0000
0010
1000
0100
0000
0010
0000
0001
0100
0010
0000
0100
0000
0001
0000
,  // measure 14
1000
0000
0100
0010
0001
0000
0100
0000
0010
1000
0100
0000
0010
0000
0001
0000
,  // measure 15
1001
0000
0000
1010
0000
0000
0101
0000
0001
0000
0011
0000
0100
0000
1100
0000
,  // measure 16
0001
1000
0000
0101
0000
0000
0010
0000
1010
0000
1001
0000
1010
0000
1001
0000
,  // measure 17
1000
0001
0000
1000
0100
0000
0010
0000
0001
0010
0001
0000
0100
0000
0010
0000
,  // measure 18
1001
0000
0001
1000
0001
0010
0001
0100
0010
1000
0100
0010
0001
0100
0010
1000
,  // measure 19
0001
0000
1000
0001
0100
0000
1000
0000
0100
0001
1000
0000
0010
0000
1000
0000
,  // measure 20
0100
0000
0010
0001
1000
0000
0100
0000
0001
0100
1000
0000
0100
0000
0010
0000
,  // measure 21
0001
0000
1000
0010
0100
0000
0010
0000
0001
0010
1000
0000
0001
0000
1000
0000
,  // measure 22
0001
0000
0100
0001
0010
0000
0100
0001
0100
0000
1000
0000
0010
0000
0100
0000
,  // measure 23
0001
0000
1000
0100
0001
0000
0100
0000
1000
0100
0001
0000
0100
0000
1000
0000
,  // measure 24
0001
0000
1000
0100
0001
0000
0100
0000
1000
0010
1000
0000
0001
0000
1000
0000
,  // measure 25
0100
0000
0010
0001
0100
0000
1000
0000
0001
0010
1000
0000
0001
0000
1000
0000
,  // measure 26
0001
0000
1000
0100
0001
0000
1000
0000
0010
0001
0010
0000
0011
0000
0000
0000
,  // measure 27
1001
0000
0001
0100
0010
0000
0100
1000
0100
0001
0100
0000
0010
0000
1000
0000
,  // measure 28
1010
0000
0101
0000
0001
0000
0011
0000
0100
1000
0100
0000
1001
0000
1000
0000
,  // measure 29
0001
0000
1000
0010
0100
0000
0010
0001
0010
1000
0010
0000
1000
0000
0100
0000
,  // measure 30
0011
0000
1100
0000
1000
0000
1010
0000
0001
0100
0010
0000
1001
0000
0001
0000
,  // measure 31
1000
0000
0100
0010
0001
0000
0010
0100
1000
0001
0100
0000
0010
0000
1000
0000
,  // measure 32
0100
0000
0010
0100
1000
0000
0010
0100
0001
1000
0100
0000
0011
0000
0110
0000
,  // measure 33
1100
0000
1000
0100
0001
0000
0001
0100
1000
0000
1000
0100
0001
0100
1000
0000
,  // measure 34
1001
0000
0000
0001
1000
0000
0010
1000
0100
0010
0001
0000
0100
0001
1000
0100
,  // measure 35
0010
0000
0000
0000
0011
0000
0100
1000
0001
0000
0100
0000
0010
0000
1000
0001
,  // measure 36
1000
0001
0100
0000
0010
0000
1000
0000
0100
0010
0001
0000
0100
0010
1000
0000
,  // measure 37
0001
0000
0000
0000
1010
0000
0100
0001
1000
0000
0100
0000
0010
0000
0001
1000
,  // measure 38
0001
1000
0010
0000
0001
0000
0010
0000
0100
0010
1000
0000
0100
0010
0001
1000
,  // measure 39
0001
0000
0000
0000
0101
0000
0010
1000
0001
0000
0010
0000
0100
0000
1000
0001
,  // measure 40
1000
0001
0010
0000
0001
0000
0100
0000
0010
1000
0100
0000
0010
0001
0100
0000
,  // measure 41
0010
0000
0000
0000
1010
0000
0100
0001
1000
0000
0100
0000
0010
0000
0011
0000
,  // measure 42
0001
0101
0110
0010
1010
1000
1001
0000
,  // measure 43
1000
0010
1000
0000
1000
0010
1000
0000
0010
0100
0001
1000
0100
0010
0001
1000
,  // measure 44
0001
0000
1000
0100
0001
0000
1000
0000
0010
0001
1000
0000
0110
0000
0000
0000
,  // measure 45
0001
0100
0001
0000
0001
0100
0001
0000
0010
0100
1000
0001
0100
0010
1000
0001
,  // measure 46
0010
0000
0100
1000
0010
1000
0100
0000
0001
0100
1000
0000
0001
0000
1000
0001
,  // measure 47
0100
0010
0100
0000
0100
0010
0100
0000
0010
1000
0001
0010
0100
1000
0001
0100
,  // measure 48
0010
0000
1000
0010
0001
0000
1000
0000
0100
0001
1000
0000
0110
0000
0000
0000
,  // measure 49
0001
1000
0001
0000
0001
1000
0001
0000
1000
0100
0010
0001
0100
0010
1000
0000
,  // measure 50
1001
0000
0000
0000
1010
0000
0100
0001
0010
0000
0100
1000
0010
0000
1000
0001
,  // measure 51
1000
0000
0000
0000
0101
0000
0010
1000
0100
0000
0010
0000
0001
0000
0100
0010
,  // measure 52
0100
0010
0001
0000
1000
0000
0100
0000
0001
0010
0100
0000
1000
0010
0100
0000
,  // measure 53
0001
0000
0000
0000
0011
0000
0100
1000
0010
0000
0100
0000
0001
0000
0010
0100
,  // measure 54
0010
0100
0001
0000
1000
0000
0010
0000
0001
0010
0100
0000
1000
0010
0100
0001
,  // measure 55
1000
0000
0000
0000
1100
0000
0010
0001
0100
0000
0010
0000
0100
0000
1000
0100
,  // measure 56
1000
0100
0001
0000
0010
0000
0100
0000
1000
0010
0100
0000
0001
0010
0100
0000
,  // measure 57
1000
0000
0000
0000
1010
0000
0100
0001
0010
0000
0100
0000
1000
0000
1010
0000
,  // measure 58
0010
0011
0101
0100
0110
0010
1010
0000
,  // measure 59
1000
0010
1000
0000
0001
0100
0001
0010
0100
1000
0100
0000
0010
0000
0001
1000
,  // measure 60
0010
1000
0100
0000
0010
0000
0100
0000
1000
0100
0001
0000
0001
0100
1000
0000
,  // measure 61
0001
0100
0001
0000
1000
0010
0100
0001
0010
0100
0010
0000
0001
0000
0100
0010
,  // measure 62
0100
0001
1000
0000
0100
0000
1000
0000
0001
0010
1000
0000
1000
0010
0001
0000
,  // measure 63
0100
0010
0100
0000
0001
1000
0001
0010
0100
0010
0001
0000
0100
0000
0010
1000
,  // measure 64
0100
1000
0001
0000
0100
0000
0001
0000
1000
0100
0001
0000
0100
1000
0001
0000
,  // measure 65
0100
0010
0100
0000
0010
1000
0001
0010
0100
1000
0001
0000
0100
0000
0010
0000
,  // measure 66
1000
0100
0010
0001
0100
0010
1000
0100
0001
0100
1000
0100
0001
0100
1000
0000
,  // measure 67
2002
0000
0000
0000
,  // measure 68
0000
3003
0000
0000
;
