#VERSION:0.83;
#TITLE:Black Light Machine;
#SUBTITLE:;
#ARTIST:Frost*;
#TITLETRANSLIT:;
#SUBTITLETRANSLIT:;
#ARTISTTRANSLIT:;
#GENRE:Progressive Rock;
#ORIGIN:;
#CREDIT:;
#BANNER:Black Light Machine.png;
#BACKGROUND:Black Light Machine-bg.png;
#PREVIEWVID:;
#JACKET:Black Light Machine-jacket.png;
#CDIMAGE:;
#DISCIMAGE:;
#LYRICSPATH:;
#CDTITLE:cdtitle.png;
#MUSIC:Black Light Machine.ogg;
#OFFSET:-0.019002;
#SAMPLESTART:75.444572;
#SAMPLELENGTH:13.714287;
#SELECTABLE:YES;
#BPMS:0.000=140.000,
144.000=70.000,
160.000=140.000;
#STOPS:;
#DELAYS:;
#WARPS:;
#TIMESIGNATURES:0.000=4=4;
#TICKCOUNTS:0.000=4;
#COMBOS:0.000=1;
#SPEEDS:0.000=1.000=0.000=0;
#SCROLLS:0.000=1.000;
#FAKES:;
#LABELS:0.000=Song Start;
#BGCHANGES:;
#KEYSOUNDS:;
#ATTACKS:
;

//---------------dance-single - ----------------
#NOTEDATA:;
#CHARTNAME:;
#STEPSTYPE:dance-single;
#DESCRIPTION:;
#CHARTSTYLE:;
#DIFFICULTY:Challenge;
#METER:15;
#RADARVALUES:0.671958,0.835278,0.229630,0.496296,0.559259,635.000000,604.000000,31.000000,67.000000,0.000000,0.000000,2.000000,0.000000,0.000000,0.671958,0.835278,0.229630,0.496296,0.559259,635.000000,604.000000,31.000000,67.000000,0.000000,0.000000,2.000000,0.000000,0.000000;
#CREDIT:;
#NOTES:
// measure 0
0000
0000
0000
0000
,  // measure 1
0000
0000
0000
0000
,  // measure 2
0000
0000
0000
0000
,  // measure 3
0000
0000
0000
0000
,  // measure 4
1000
0100
0010
0100
1000
0100
0011
0000
,  // measure 5
0001
0100
0010
0100
0001
0100
1010
0000
,  // measure 6
1000
0010
0001
0010
1000
0010
0101
0000
,  // measure 7
0001
0000
0010
0000
1100
0000
1000
0000
0001
0010
0000
0001
0010
0000
0100
0000
,  // measure 8
1000
0100
0010
0001
0100
0010
1001
0000
,  // measure 9
0001
0100
0010
1000
0100
0010
1001
0000
,  // measure 10
1000
0010
1000
0100
0010
0001
1100
0000
,  // measure 11
1000
0010
0101
0000
0100
0010
1001
0000
,  // measure 12
1000
0010
0001
0010
1000
0100
0011
0000
,  // measure 13
0001
0010
1000
0010
0001
0100
1010
0000
,  // measure 14
1000
0100
0001
0100
1000
0010
1001
0000
,  // measure 15
1000
0000
1000
0001
0000
1000
0001
0000
0010
0000
0010
0001
0200
0000
0000
0000
,  // measure 16
0301
0000
1000
0001
0000
1000
0001
0000
1001
0000
0000
0000
2001
0000
0000
0000
,  // measure 17
3010
1000
0200
0000
0300
0000
0022
0000
0000
0033
0000
0000
0011
0000
0001
0000
,  // measure 18
2000
0000
0000
0000
3020
0000
0000
0000
0000
0000
0000
0000
1030
0010
1000
0000
,  // measure 19
0000
0000
0000
0000
1000
0000
0001
1000
0001
0000
1000
0000
0001
0010
0001
0010
,  // measure 20
0100
0000
1000
0000
0001
0000
0000
0000
0100
0010
0100
0010
1000
0000
0001
0100
,  // measure 21
0001
0000
1000
0000
0001
0000
0010
0100
0000
0000
1000
0000
0100
0000
0010
0000
,  // measure 22
0002
0023
0230
2300
,  // measure 23
3001
0000
0100
0000
1000
0000
0001
0000
0010
0000
1000
0000
0100
0010
0100
0010
,  // measure 24
0002
0000
0000
0000
1003
0000
0002
0000
0003
0100
0020
0000
0000
0000
1030
0000
,  // measure 25
0001
1000
0001
0100
0010
0000
1000
0001
1000
0100
1000
0100
0010
0001
0010
0001
,  // measure 26
2000
0000
0000
0000
3010
0000
0000
0000
1000
0010
1000
0010
0100
0001
0100
0001
,  // measure 27
1000
0100
1000
0100
0010
0001
0010
0001
1000
0001
0100
0000
0001
0100
0010
1000
,  // measure 28
0001
0000
1000
0100
1000
0100
1000
0001
1000
0001
0100
0001
0100
0001
1000
0001
,  // measure 29
1000
0100
0001
0100
1000
0010
0001
0010
,  // measure 30
1000
0000
0001
0010
0001
0000
1000
0010
1000
0000
0001
0100
0001
0000
1000
0100
,  // measure 31
1000
0000
0001
0100
0001
0100
0010
1000
0001
1000
0100
1000
0100
1000
0100
0010
,  // measure 32
0001
0100
1000
0001
0010
1000
0100
0010
,  // measure 33
0001
0000
1000
0010
0000
0100
0001
0000
1000
0100
0010
0100
0010
0001
1000
0001
,  // measure 34
0100
0000
0000
0000
0110
0000
1002
0000
0003
1000
0100
0000
0022
0000
0033
0000
,  // measure 35
0001
0000
0000
0000
0100
0000
0010
0000
0000
0000
0010
0000
1000
0000
0002
0000
0000
0003
0000
0000
0110
0000
0000
0000
1002
0000
0000
0000
0000
0000
0000
0000
,  // measure 36
2003
0000
0000
0000
0000
0000
0000
0000
0000
0000
0100
0000
0000
0100
0000
0000
3100
0000
0000
0000
1000
0000
0100
0000
0000
0000
1000
0000
0100
0000
0000
0000
,  // measure 37
0020
0000
0000
0000
0001
0000
0001
0000
0000
0000
0001
0000
0031
0000
0100
0000
0020
0000
0000
0000
1000
0000
1000
0000
0000
0000
2030
0000
0000
3002
0000
0000
,  // measure 38
0023
0000
0000
0000
0100
0000
0100
0000
0030
0000
0200
0000
0000
0320
0000
0000
0032
0000
0000
0000
0203
0000
0000
0000
0320
0000
0000
0000
2030
0000
0000
0000
,  // measure 39
3002
0000
0003
1000
0100
0000
0020
0000
0000
0000
0001
0000
0000
0001
0000
0000
0032
0000
0000
0000
2000
0000
0000
0000
0000
0000
0000
0000
3003
0000
0000
0000
,  // measure 40
1001
0000
0001
0000
0100
0000
0001
0000
1000
0000
0100
0020
0000
0000
0031
0000
,  // measure 41
1000
0000
0001
0000
0100
0000
0001
0000
1000
0000
0010
0002
0000
0000
0013
0000
,  // measure 42
1000
0000
0001
0000
0010
0000
0100
0000
1000
0000
0100
0002
0000
0000
0103
0000
,  // measure 43
1000
0000
0100
0002
0000
0000
0103
0000
1000
0000
0010
0000
2001
0000
0000
0000
,  // measure 44
3001
0000
1000
0000
0100
0000
1000
0000
0001
0000
0100
0020
0000
0000
1030
0000
,  // measure 45
0001
0000
1000
0000
0100
0000
1000
0000
0001
0000
0010
2000
0000
0000
3010
0000
,  // measure 46
0001
0000
1000
0000
0010
0000
0100
0000
0001
0000
0100
2000
0000
0000
3100
0000
,  // measure 47
0001
0000
0100
2000
0000
0000
3100
0001
0000
0001
0010
0000
0012
0000
0000
0000
,  // measure 48
1003
0000
0010
0000
0100
0000
0001
0000
1000
0000
0100
0010
0001
0010
0100
0000
,  // measure 49
1000
0000
0010
0000
0100
0000
0001
0000
1000
0000
0010
0002
0000
0000
0013
0000
,  // measure 50
1000
0000
0100
0000
0001
0000
0100
0000
1000
0000
0100
0010
0001
0010
0100
0000
,  // measure 51
1000
0000
0100
0010
1000
0010
0100
0000
1000
0000
0010
0000
0201
0000
0000
0000
,  // measure 52
0301
0000
0010
0000
0100
0000
1000
0000
0001
0000
0100
0010
1000
0010
0100
0000
,  // measure 53
0001
0000
0010
0000
0100
0000
1000
0000
0001
0000
0010
2000
0000
0000
3010
0000
,  // measure 54
0001
0000
0100
0000
1000
0000
0100
0000
0001
0000
0100
0010
1000
0010
0100
0000
,  // measure 55
0001
0000
0100
0010
0001
0010
0100
0000
0010
0000
1000
0000
1010
0000
0000
0000
,  // measure 56
2001
0000
0010
0010
0000
3010
1000
2000
,  // measure 57
0100
0000
3001
0002
0000
0100
0103
0120
,  // measure 58
0000
0000
1030
0010
0100
0000
0001
0010
0001
0010
0100
0000
1000
0001
1000
0001
,  // measure 59
0400
0000
0000
0000
0300
2002
0000
3003
,  // measure 60
1200
0000
1300
0200
0000
0010
0320
0032
,  // measure 61
0203
0000
0320
0000
1000
0000
0000
0000
1030
0010
1000
0010
0100
0001
0100
0001
,  // measure 62
1000
0100
0010
0100
1000
0000
0001
0100
0010
0100
0001
0000
1000
0000
0001
0000
,  // measure 63
1000
0100
1000
0100
0010
0000
0001
0000
0100
0010
0000
0100
0010
0000
1000
0000
,  // measure 64
0002
0023
0100
0100
0000
0130
1000
0020
,  // measure 65
0100
0000
0000
0000
1030
0000
0001
1000
0400
0000
0000
0000
0300
0000
1000
0000
,  // measure 66
0002
0000
0000
0000
1003
0000
0100
0010
0001
0000
0100
0010
1000
0000
0100
0010
,  // measure 67
0001
1000
0001
1000
0010
0100
0010
0100
0001
1000
0001
1000
0100
0010
0001
0100
,  // measure 68
0020
0000
0000
1030
0010
0000
0100
0000
0000
0000
0100
0001
1000
0000
0001
0000
,  // measure 69
0010
0000
0200
0000
1000
0000
1000
0000
0000
0000
0010
0000
0310
0000
0001
1000
,  // measure 70
0010
0100
0010
0100
0001
0000
0100
0010
1000
0000
0100
0010
0001
0000
1000
0010
,  // measure 71
1000
0000
0100
0010
0000
0001
0100
0000
0010
1000
0001
1000
0001
0010
0100
1000
,  // measure 72
0001
0000
0000
0000
0001
0000
0100
0010
0000
1000
0100
0000
0011
0000
0000
0000
;

//---------------dance-single - ----------------
#NOTEDATA:;
#CHARTNAME:;
#STEPSTYPE:dance-single;
#DESCRIPTION:;
#CHARTSTYLE:;
#DIFFICULTY:Hard;
#METER:11;
#RADARVALUES:0.502645,0.538889,0.207407,0.474074,0.155556,475.000000,447.000000,28.000000,64.000000,0.000000,0.000000,0.000000,0.000000,0.000000,0.502645,0.538889,0.207407,0.474074,0.155556,475.000000,447.000000,28.000000,64.000000,0.000000,0.000000,0.000000,0.000000,0.000000;
#CREDIT:;
#NOTES:
// measure 0
0000
0000
0000
0000
,  // measure 1
0000
0000
0000
0000
,  // measure 2
0000
0000
0000
0000
,  // measure 3
0000
0000
0000
0000
,  // measure 4
1000
0000
0001
0000
1000
0010
1010
0000
,  // measure 5
0001
0000
1000
0000
0001
0010
0011
0000
,  // measure 6
1000
0000
0010
0000
1000
0100
0110
0000
,  // measure 7
0001
1000
1010
0000
1000
0001
0011
0000
,  // measure 8
0001
0010
0001
0100
0000
0100
1001
0000
,  // measure 9
1000
0010
1000
0100
0000
0100
1001
0000
,  // measure 10
0001
0010
0001
0100
0000
0100
1010
0000
,  // measure 11
1000
0100
0011
0000
0001
0100
1001
0000
,  // measure 12
1000
0010
0100
0001
0000
0001
1100
0000
,  // measure 13
0001
0010
0100
1000
0000
1000
0101
0000
,  // measure 14
1000
0010
0100
0001
0000
0001
1010
0000
,  // measure 15
1000
0000
0100
0010
0000
0100
0010
0000
0001
0000
1000
0000
1001
0000
0000
0000
,  // measure 16
0100
0000
0000
0100
0000
0000
0100
0000
1001
0000
0000
0000
2001
0000
0000
0000
,  // measure 17
3001
1000
0200
0000
0300
0000
0022
0000
0000
0033
0000
0000
0001
0000
1000
0000
,  // measure 18
0002
1000
0000
0020
,  // measure 19
0033
0000
0001
0010
0001
0010
0100
1000
,  // measure 20
0001
0000
0100
0000
0001
0100
1000
0100
,  // measure 21
0001
0000
0000
0000
1000
0000
1000
0100
0000
0000
1000
0000
0100
0000
0010
0000
,  // measure 22
0002
0023
0230
2300
,  // measure 23
3001
0100
0010
1000
0100
0001
0100
1000
,  // measure 24
0200
0000
1300
0002
0000
0203
0000
0310
,  // measure 25
1000
0000
0001
0200
0000
0300
0001
1000
0000
1000
0001
0000
1000
0000
0100
0000
,  // measure 26
0020
0000
0001
0000
0031
0010
1000
0010
,  // measure 27
0001
0100
0010
0100
1000
0100
0001
0010
,  // measure 28
0100
0000
0010
0001
1000
0001
0100
0010
,  // measure 29
1000
0100
0010
0100
0001
0100
0010
0100
,  // measure 30
1000
0010
1000
0000
0001
0010
0001
0000
,  // measure 31
0100
0010
0100
0000
0001
0100
0010
1000
,  // measure 32
0001
0001
0010
0010
0100
0100
1000
1000
,  // measure 33
0001
0000
1000
0001
0000
1000
0001
0000
0010
0000
0000
0000
0110
0000
0000
0000
,  // measure 34
1001
0000
0000
0000
0100
0000
0200
0000
0300
0010
0100
0000
1002
0000
0000
0000
,  // measure 35
1003
0000
1000
0100
0000
0100
0020
0000
0000
0000
0031
0000
0012
0000
0000
0000
,  // measure 36
2003
0000
3020
0000
,  // measure 37
0230
0000
0000
0000
0000
0000
0000
0000
0000
0000
0000
0000
0000
0000
0000
0000
0302
0000
0000
0000
0000
0000
0000
0000
0000
0000
2003
0000
0000
3200
0000
0000
,  // measure 38
0320
0000
0000
0000
0000
0000
0030
0000
0000
0000
0002
0000
0000
0203
0000
0000
0320
0000
0000
0000
2030
0000
0000
0000
3002
0000
0000
0000
0023
0000
0000
0000
,  // measure 39
0230
0000
1300
0002
0000
0000
0000
0000
2000
0000
0000
0000
0000
0000
3003
0000
,  // measure 40
0001
0000
1000
0000
0100
0000
1000
0000
0001
0000
0100
0020
0000
0000
1030
0000
,  // measure 41
0000
0000
1000
0000
0100
0000
1000
0000
0001
0000
0010
0200
0000
0000
0310
0000
,  // measure 42
0000
0000
0010
0000
0100
0000
0010
0000
0001
0000
1000
0020
0000
0000
1030
0000
,  // measure 43
0001
0000
1000
0020
0000
0000
1030
0000
0100
0000
0010
0000
0012
0000
0000
0000
,  // measure 44
1003
0000
0001
0000
0100
0000
0001
0000
1000
0000
0100
0020
0000
0000
0031
0000
,  // measure 45
0000
0000
0001
0000
0100
0000
0001
0000
1000
0000
0010
0200
0000
0000
0310
0000
,  // measure 46
0000
0000
0010
0000
0100
0000
0010
0000
1000
0000
0001
0020
0000
0000
0031
0000
,  // measure 47
1000
0000
0001
0020
0000
0000
0031
0000
0100
0000
0010
0000
2010
0000
0000
0000
,  // measure 48
3001
0000
0010
0000
0100
0000
1000
0000
0001
0000
1000
0000
0010
1000
0010
0000
,  // measure 49
1000
0000
0001
0000
0010
0000
0100
0000
1000
0000
0010
0100
0000
0100
0001
0000
,  // measure 50
1000
0000
0001
0000
0100
0000
1000
0000
0100
0000
0001
0000
0010
0100
0010
0000
,  // measure 51
0001
0000
0010
0100
0000
0100
0010
0000
0001
0000
0100
0000
1020
0000
0000
0000
,  // measure 52
1030
0000
0010
0000
0100
0000
0001
0000
1000
0000
0001
0000
0010
0001
0010
0000
,  // measure 53
0001
0000
1000
0000
0010
0000
0100
0000
0001
0000
0010
0100
0000
0100
1000
0000
,  // measure 54
0001
0000
1000
0000
0100
0000
0001
0000
0100
0000
1000
0000
0010
0100
0010
0000
,  // measure 55
1000
0000
0010
0100
0000
0100
0010
0000
1000
0000
0100
0000
0210
0000
0000
0000
,  // measure 56
2300
0000
0001
0000
0000
0000
3001
0200
,  // measure 57
0000
0000
0310
0020
0000
0000
1030
0002
,  // measure 58
0000
0013
1000
0010
0001
1000
0001
0100
,  // measure 59
2000
0000
3100
0001
1000
0002
0000
0000
,  // measure 60
2003
0000
3100
2000
0000
3100
0010
0001
,  // measure 61
0100
0020
0000
0000
0130
0010
1000
0001
,  // measure 62
1000
0100
0010
0001
0100
1000
0100
0010
,  // measure 63
1000
1000
0010
0200
0000
0301
1000
0001
,  // measure 64
0020
0200
0000
0000
0330
0000
0010
0002
,  // measure 65
0000
0000
0103
0001
0020
0000
0130
1000
,  // measure 66
0002
0000
0000
0103
0010
0000
0010
0000
,  // measure 67
0100
0010
1000
0001
1000
0100
1000
0010
,  // measure 68
0002
0000
0013
0100
0000
0010
1000
0100
,  // measure 69
1000
0020
0000
0000
1030
0100
0010
0001
,  // measure 70
1000
0100
1000
0001
0010
0001
0100
0010
,  // measure 71
1000
0000
0001
1000
0000
0001
1000
0000
0100
0000
0000
0000
0110
0000
0000
0000
,  // measure 72
1001
0000
0000
0000
0001
0000
1000
0001
0000
0100
0010
0000
1001
0000
0000
0000
;

//---------------dance-single - ----------------
#NOTEDATA:;
#CHARTNAME:;
#STEPSTYPE:dance-single;
#DESCRIPTION:;
#CHARTSTYLE:;
#DIFFICULTY:Medium;
#METER:9;
#RADARVALUES:0.390476,0.431111,0.162963,0.481481,0.037037,369.000000,347.000000,22.000000,65.000000,0.000000,0.000000,0.000000,0.000000,0.000000,0.390476,0.431111,0.162963,0.481481,0.037037,369.000000,347.000000,22.000000,65.000000,0.000000,0.000000,0.000000,0.000000,0.000000;
#CREDIT:;
#NOTES:
// measure 0
0000
0000
0000
0000
,  // measure 1
0000
0000
0000
0000
,  // measure 2
0000
0000
0000
0000
,  // measure 3
0000
0000
0000
0000
,  // measure 4
1000
0000
1000
0000
0010
0010
0100
0000
,  // measure 5
0001
0000
0001
0000
0010
0010
0100
0000
,  // measure 6
0010
0000
0010
0000
0001
0001
1000
0000
,  // measure 7
0010
0010
0100
0000
0010
0010
1000
0000
,  // measure 8
0001
0010
0001
1000
0010
0000
1010
0000
,  // measure 9
1000
0010
1000
0001
0010
0000
0011
0000
,  // measure 10
0001
1000
0001
0100
0010
0000
0110
0000
,  // measure 11
0100
0001
0010
0000
0100
1000
0010
0000
,  // measure 12
1000
0001
0100
0001
1000
0000
1001
0000
,  // measure 13
0001
1000
0100
1000
0001
0000
1001
0000
,  // measure 14
1000
0010
0100
0001
1000
0000
0110
0000
,  // measure 15
0001
0000
0000
1000
0000
0000
0001
0000
1000
0000
0000
0000
1001
0000
0000
0000
,  // measure 16
0001
0000
0000
0100
0000
0000
0001
0000
0101
0000
0000
0000
0101
0000
0000
0000
,  // measure 17
2200
0300
3000
0000
0000
0000
0022
0000
0000
0033
0000
0000
0001
0000
1000
0000
,  // measure 18
0002
0000
0000
0200
,  // measure 19
0303
0000
0001
0000
0001
0000
0100
0010
,  // measure 20
1000
0000
0000
0000
1000
0100
0010
0100
,  // measure 21
1000
0000
0000
0000
0001
0000
0000
1000
0000
0000
0001
0000
1000
0000
0000
0000
,  // measure 22
0002
0203
0320
2030
,  // measure 23
3001
0010
0001
0000
1000
0010
1000
0001
,  // measure 24
0020
0000
0030
0200
0000
2300
0000
3000
,  // measure 25
0001
0000
0000
0000
0100
0000
0000
0010
0000
0000
1000
0000
0001
0000
0000
0000
,  // measure 26
0020
0000
0000
0000
0031
0010
0100
0000
,  // measure 27
1000
0010
0100
0000
0010
1000
0100
0010
,  // measure 28
0001
0000
0100
0001
1000
0000
0100
1000
,  // measure 29
0001
0100
0001
0100
0010
1000
0001
0000
,  // measure 30
1000
0100
1000
0000
0001
0010
0001
0000
,  // measure 31
1000
0010
1000
0000
0001
0100
0010
1000
,  // measure 32
0001
0010
0001
0010
0100
1000
0100
1000
,  // measure 33
0001
0000
0000
1000
0000
0000
0001
0000
1000
0000
0000
0000
0110
0000
0000
0000
,  // measure 34
1001
0000
1000
0001
0000
1000
0002
0000
,  // measure 35
0013
0000
0000
0010
0000
0000
0200
0000
0000
0000
0300
0000
1002
0000
0000
0000
,  // measure 36
2003
0000
3020
0000
,  // measure 37
0230
0000
0000
0000
0000
0000
0000
0000
0302
0000
0000
0000
0000
2003
0000
0000
,  // measure 38
3200
0000
0000
0000
0300
2000
0000
0000
3200
0000
0320
0000
0032
0000
0203
0000
,  // measure 39
0320
0000
0000
2030
0000
0000
0000
0000
0002
0000
0000
0000
0000
0000
3003
0000
,  // measure 40
1001
0000
0001
0000
0010
0001
0020
0000
,  // measure 41
0031
0000
0001
0000
0100
0010
0200
0000
,  // measure 42
0301
0000
1000
0000
0100
0010
0002
0000
,  // measure 43
0103
0010
2000
0000
3001
0010
0200
0000
,  // measure 44
1300
0000
1000
0000
0010
1000
0020
0000
,  // measure 45
1030
0000
1000
0000
0100
0010
0200
0000
,  // measure 46
1300
0000
0001
0000
0100
0010
2000
0000
,  // measure 47
3100
0010
0002
0000
1003
0010
0200
0000
,  // measure 48
0301
0000
0100
0000
0010
1000
0001
1000
,  // measure 49
0100
0000
0001
0000
0100
1000
0010
0100
,  // measure 50
0001
0000
1000
0000
0001
0100
1000
0000
,  // measure 51
1000
0100
0001
0000
0001
0100
0020
0000
,  // measure 52
1030
0000
0100
0000
0010
0001
1000
0001
,  // measure 53
0100
0000
1000
0000
0100
0001
0010
0100
,  // measure 54
1000
0000
0001
0000
1000
0100
0001
0000
,  // measure 55
0001
0100
1000
0000
1000
0100
0010
0000
,  // measure 56
2002
0000
0000
0000
3000
0000
0000
0203
,  // measure 57
0000
0000
0010
0020
0300
0000
0000
2030
,  // measure 58
0000
3001
0020
0000
0031
2000
0000
3001
,  // measure 59
0200
0000
0310
0100
0010
2000
0000
0000
,  // measure 60
3002
0000
0000
2003
0000
0000
3100
0010
,  // measure 61
0100
0020
0000
0000
0000
0000
0031
0000
,  // measure 62
1000
0010
0100
0000
0001
0010
0100
0000
,  // measure 63
1000
0001
1000
0002
0000
0000
0103
0000
,  // measure 64
0220
0000
0000
0000
0000
0330
0000
2002
,  // measure 65
0000
3003
0000
0002
0020
0000
0033
0000
,  // measure 66
2002
0000
3003
0001
0100
0000
0100
0000
,  // measure 67
0010
1000
0001
0100
0001
1000
0100
0010
,  // measure 68
0002
0000
0000
1000
0000
0000
0103
0010
,  // measure 69
1000
0002
0000
0000
1003
0000
0100
0010
,  // measure 70
0001
1000
0010
0000
0100
0001
0010
0000
,  // measure 71
0100
0000
0000
0100
0000
0000
1000
0000
0001
0000
0000
0000
0110
0000
0000
0000
,  // measure 72
1001
0000
0100
0100
0000
0100
1001
0000
;

//---------------dance-single - ----------------
#NOTEDATA:;
#CHARTNAME:;
#STEPSTYPE:dance-single;
#DESCRIPTION:;
#CHARTSTYLE:;
#DIFFICULTY:Easy;
#METER:5;
#RADARVALUES:0.275132,0.377222,0.207407,0.474074,0.000000,260.000000,232.000000,28.000000,64.000000,0.000000,0.000000,0.000000,0.000000,0.000000,0.275132,0.377222,0.207407,0.474074,0.000000,260.000000,232.000000,28.000000,64.000000,0.000000,0.000000,0.000000,0.000000,0.000000;
#CREDIT:;
#NOTES:
// measure 0
0000
0000
0000
0000
,  // measure 1
0000
0000
0000
0000
,  // measure 2
0000
0000
0000
0000
,  // measure 3
0000
0000
0000
0000
,  // measure 4
1000
1000
0010
0200
,  // measure 5
0301
0001
0010
0200
,  // measure 6
0310
0010
0001
2000
,  // measure 7
3010
0200
0310
2000
,  // measure 8
3001
0010
0001
0012
,  // measure 9
1003
0010
1000
2010
,  // measure 10
3001
0100
0001
0102
,  // measure 11
1003
2100
3001
0102
,  // measure 12
1003
0010
1000
2010
,  // measure 13
3001
0010
0001
0012
,  // measure 14
1003
0100
1000
2100
,  // measure 15
3001
0201
0310
0210
,  // measure 16
0301
1000
1001
2001
,  // measure 17
3100
0000
0000
2002
0000
0000
3003
0000
,  // measure 18
2000
0000
0000
3001
,  // measure 19
0000
1000
0100
0010
,  // measure 20
0001
0000
1000
0010
,  // measure 21
1000
0000
1000
0001
,  // measure 22
0010
0001
1000
0010
,  // measure 23
0100
0001
1000
0100
,  // measure 24
0020
0000
0031
0000
,  // measure 25
1000
0001
1000
0001
,  // measure 26
0200
0000
0301
0100
,  // measure 27
0010
1000
0100
0010
,  // measure 28
0001
0100
0001
0100
,  // measure 29
1000
0100
0001
0010
,  // measure 30
0100
0100
0010
0010
,  // measure 31
0001
1000
0001
0100
,  // measure 32
0010
1000
0100
0010
,  // measure 33
0001
0010
0100
1000
,  // measure 34
1001
0000
0000
1000
0000
0000
0002
0000
,  // measure 35
1003
0000
0000
0010
0000
0000
0110
0000
,  // measure 36
2001
3000
2000
3000
,  // measure 37
0002
0003
0002
0003
,  // measure 38
0020
0000
0030
0000
0010
0001
0100
0010
,  // measure 39
2000
0000
0000
0000
0002
0000
0000
3003
,  // measure 40
1001
1000
0100
0020
,  // measure 41
0030
0001
0100
0020
,  // measure 42
0030
1000
0001
0020
,  // measure 43
0031
0020
0130
2002
,  // measure 44
3003
0001
0100
0020
,  // measure 45
0030
1000
0100
0020
,  // measure 46
0030
0001
1000
0200
,  // measure 47
1300
0200
0310
0012
,  // measure 48
1003
0010
1000
0100
,  // measure 49
0010
0001
0100
0010
,  // measure 50
1000
0001
0010
0100
,  // measure 51
1000
0001
0100
0210
,  // measure 52
0301
0010
0001
0100
,  // measure 53
0010
1000
0100
0010
,  // measure 54
0001
1000
0010
0100
,  // measure 55
0001
1000
0100
2100
,  // measure 56
3002
0000
0000
0000
0000
0000
0000
0203
,  // measure 57
0000
0000
0320
0000
0000
0000
0000
2030
,  // measure 58
0000
3000
0200
0000
0300
0020
0000
0030
,  // measure 59
0002
0000
0000
0000
0003
2000
0000
0000
,  // measure 60
3002
0000
0000
0203
0000
0000
0310
0000
,  // measure 61
0020
0000
0000
1030
,  // measure 62
0010
0100
0001
1000
,  // measure 63
0100
0000
0000
0200
0000
0000
0300
0000
,  // measure 64
0220
0000
0000
0000
0000
0330
0000
2002
,  // measure 65
0000
3003
0000
0000
2002
0000
3003
0000
,  // measure 66
2020
3030
1000
1000
,  // measure 67
0010
1000
0100
0010
,  // measure 68
0012
0000
0000
1000
0000
0000
0103
0000
,  // measure 69
0200
0000
0310
0100
,  // measure 70
0001
0001
1000
1000
,  // measure 71
0100
0010
0001
0100
,  // measure 72
1001
0000
0000
1000
0000
0000
0110
0000
;

//---------------dance-single - ----------------
#NOTEDATA:;
#CHARTNAME:;
#STEPSTYPE:dance-single;
#DESCRIPTION:;
#CHARTSTYLE:;
#DIFFICULTY:Beginner;
#METER:2;
#RADARVALUES:0.146032,0.227407,0.074074,0.066667,0.000000,138.000000,128.000000,10.000000,9.000000,0.000000,0.000000,0.000000,0.000000,0.000000,0.146032,0.227407,0.074074,0.066667,0.000000,138.000000,128.000000,10.000000,9.000000,0.000000,0.000000,0.000000,0.000000,0.000000;
#CREDIT:;
#OFFSET:-0.019002;
#BPMS:0.000000=140.000000
;
#STOPS:;
#DELAYS:;
#WARPS:;
#TIMESIGNATURES:0.000000=4=4
;
#TICKCOUNTS:0.000000=4
;
#COMBOS:0.000000=1
;
#SPEEDS:0.000000=1.000000=0.000000=0
;
#SCROLLS:0.000000=1.000000
;
#FAKES:;
#LABELS:0.000000=Song Start
;
#NOTES:
// measure 0
0000
0000
0000
0000
,  // measure 1
0000
0000
0000
0000
,  // measure 2
0000
0000
0000
0000
,  // measure 3
0000
0000
0000
0000
,  // measure 4
1000
0000
0000
0000
,  // measure 5
0001
0000
0000
0000
,  // measure 6
0010
0000
0000
0000
,  // measure 7
0100
0000
0010
0000
,  // measure 8
0001
0000
0000
0000
,  // measure 9
1000
0000
0000
0000
,  // measure 10
0010
0000
0000
0000
,  // measure 11
0100
0000
0010
0000
,  // measure 12
1000
0000
0000
0000
,  // measure 13
0001
0000
0000
0000
,  // measure 14
0010
0000
0000
0000
,  // measure 15
0100
0000
1000
0000
,  // measure 16
0001
0000
1000
0000
,  // measure 17
0001
0000
0000
0000
,  // measure 18
2002
0000
3003
0000
,  // measure 19
1000
0000
1000
0000
,  // measure 20
0010
0000
0100
0000
,  // measure 21
0001
0000
0001
0000
,  // measure 22
0010
0000
0001
0000
,  // measure 23
1000
0000
0010
0000
,  // measure 24
1000
0000
0001
0000
,  // measure 25
0010
0010
0010
0000
,  // measure 26
0100
0000
1000
0000
,  // measure 27
0001
0000
0100
0000
,  // measure 28
0010
0000
1000
0000
,  // measure 29
0001
0000
1000
0000
,  // measure 30
0100
0000
0010
0000
,  // measure 31
0001
0000
1000
0000
,  // measure 32
0010
0000
0100
0000
,  // measure 33
0010
0010
0010
0000
,  // measure 34
1001
0000
0000
0000
,  // measure 35
0110
0000
0000
0000
,  // measure 36
1001
0000
0000
0000
,  // measure 37
1000
0000
0000
0000
,  // measure 38
0001
0000
0000
0000
,  // measure 39
0001
0000
0000
0000
,  // measure 40
0010
0000
0000
0000
,  // measure 41
0001
0000
0000
0000
,  // measure 42
0100
0000
0000
0000
,  // measure 43
0100
0000
0000
0000
,  // measure 44
0000
0000
0001
0001
,  // measure 45
0000
0000
1000
1000
,  // measure 46
0000
0000
0001
0001
,  // measure 47
0000
1000
0000
1001
,  // measure 48
0000
0000
0100
0100
,  // measure 49
0000
0000
0010
0010
,  // measure 50
0000
0000
0100
0100
,  // measure 51
0000
0010
0000
1001
,  // measure 52
0000
1000
1000
1000
,  // measure 53
0000
0001
0001
0001
,  // measure 54
0000
1000
1000
1000
,  // measure 55
0000
0001
0000
1001
,  // measure 56
0000
0100
0100
0100
,  // measure 57
0000
0010
0010
0010
,  // measure 58
0000
0100
0100
0100
,  // measure 59
0000
0010
0000
1001
,  // measure 60
2002
0000
3003
0000
,  // measure 61
1000
0000
0100
0000
,  // measure 62
0010
0000
0001
0000
,  // measure 63
0200
0000
0300
0000
,  // measure 64
0001
0000
1000
0000
,  // measure 65
0200
0000
0300
0000
,  // measure 66
0010
0000
0001
0000
,  // measure 67
1000
0000
1000
0000
,  // measure 68
0020
0000
0030
0000
,  // measure 69
1000
0000
0001
0000
,  // measure 70
0010
0000
0010
0000
,  // measure 71
0010
0010
0010
0000
,  // measure 72
0002
0000
0003
0000
,  // measure 73
0200
0000
0300
0000
,  // measure 74
0001
0000
1000
0000
,  // measure 75
0100
0000
0010
0000
,  // measure 76
0001
0000
0000
1001
;
