#VERSION:0.83;
#TITLE:Bangin' Burst;
#SUBTITLE:;
#ARTIST:かめりあ;
#TITLETRANSLIT:;
#SUBTITLETRANSLIT:;
#ARTISTTRANSLIT:Camellia;
#GENRE:Speedcore;
#ORIGIN:;
#CREDIT:;
#BANNER:Bangin' Burst.png;
#BACKGROUND:Bangin' Burst-bg.png;
#PREVIEWVID:;
#JACKET:Bangin' Burst-jacket.png;
#CDIMAGE:;
#DISCIMAGE:;
#LYRICSPATH:;
#CDTITLE:cdtitle.png;
#MUSIC:Bangin' Burst.ogg;
#OFFSET:0.673660;
#SAMPLESTART:49.578552;
#SAMPLELENGTH:16.410255;
#SELECTABLE:YES;
#DISPLAYBPM:*;
#BPMS:0.000=234.000,
32.000=117.000,
33.500=468.000,
82.000=234.000,
83.000=468.000,
85.000=234.000,
86.000=468.000,
92.000=234.000,
94.000=468.000,
110.000=936.000,
126.000=468.000,
142.000=936.000,
146.000=468.000,
154.000=234.000,
156.000=468.000,
168.000=234.000,
170.000=468.000,
182.000=234.000,
184.000=468.000,
188.000=936.000,
196.000=234.000,
198.000=468.000,
206.000=234.000,
209.000=468.000,
211.000=234.000,
271.000=117.000,
273.000=468.000,
529.000=234.000,
533.000=468.000,
541.000=234.000,
545.000=468.000,
553.000=234.000,
555.000=468.000,
559.000=234.000,
561.000=468.000,
567.000=936.000,
573.000=234.000,
576.000=468.000,
637.000=234.000,
639.000=468.000,
651.000=234.000,
653.000=468.000,
681.000=234.000,
683.000=468.000,
697.000=234.000,
697.500=702.000,
699.000=234.000,
727.000=468.000,
735.000=936.000,
759.000=58.500;
#STOPS:33.500=0.192,
110.000=0.085,
111.333=0.085,
112.667=0.085,
114.000=0.085,
115.333=0.085,
116.667=0.085,
118.000=0.096,
119.500=0.096,
121.000=0.096,
122.500=0.096,
124.000=0.064,
125.000=0.064,
142.000=0.128,
144.000=0.128,
188.000=0.043,
188.667=0.043,
189.333=0.043,
190.000=0.043,
190.667=0.043,
191.333=0.043,
192.000=0.085,
193.333=0.085,
194.667=0.085,
567.000=0.064,
568.000=0.064,
569.000=0.064,
570.000=0.064,
571.000=0.032,
571.500=0.032,
572.000=0.032,
572.500=0.032,
576.000=0.128;
#DELAYS:;
#WARPS:;
#TIMESIGNATURES:0.000=4=4;
#TICKCOUNTS:0.000=4;
#COMBOS:0.000=1;
#SPEEDS:0.000=1.000=0.000=0;
#SCROLLS:0.000=1.000;
#FAKES:;
#LABELS:0.000=Song Start;
#BGCHANGES:;
#KEYSOUNDS:;
#ATTACKS:
;

//---------------dance-single - ----------------
#NOTEDATA:;
#CHARTNAME:;
#STEPSTYPE:dance-single;
#DESCRIPTION:;
#CHARTSTYLE:;
#DIFFICULTY:Challenge;
#METER:19;
#RADARVALUES:1.239169,1.841204,0.710167,0.262086,0.164860,1026.000000,942.000000,84.000000,31.000000,47.000000,0.000000,0.000000,0.000000,0.000000,1.239169,1.841204,0.710167,0.262086,0.164860,1026.000000,942.000000,84.000000,31.000000,47.000000,0.000000,0.000000,0.000000,0.000000;
#CREDIT:;
#OFFSET:0.673660;
#BPMS:0.000000=234.000000
,32.000000=117.000000
,34.000000=468.000000
,82.000000=234.000000
,83.000000=468.000000
,85.000000=234.000000
,86.000000=468.000000
,92.000000=234.000000
,94.000000=468.000000
,110.000000=936.000000
,126.000000=468.000000
,142.000000=936.000000
,146.000000=468.000000
,154.000000=234.000000
,156.000000=468.000000
,168.000000=234.000000
,170.000000=468.000000
,182.000000=234.000000
,184.000000=468.000000
,188.000000=936.000000
,196.000000=234.000000
,198.000000=468.000000
,206.000000=234.000000
,209.000000=468.000000
,211.000000=234.000000
,271.000000=117.000000
,273.000000=468.000000
,529.000000=234.000000
,533.000000=468.000000
,541.000000=234.000000
,545.000000=468.000000
,553.000000=234.000000
,555.000000=468.000000
,559.000000=234.000000
,561.000000=468.000000
,567.000000=936.000000
,573.000000=117.000000
,575.000000=468.000000
,635.000000=234.000000
,637.000000=468.000000
,649.000000=234.000000
,651.000000=468.000000
,679.000000=234.000000
,681.000000=468.000000
,695.000000=234.000000
,695.500000=702.000000
,697.000000=234.000000
,725.000000=468.000000
,733.000000=936.000000
,757.000000=58.500000
;
#STOPS:110.000000=0.085471
,111.333336=0.085471
,112.666664=0.085471
,114.000000=0.085471
,115.333336=0.085471
,116.666664=0.085471
,118.000000=0.096154
,119.500000=0.096156
,121.000000=0.096156
,122.500000=0.096156
,124.000000=0.064104
,125.000000=0.064103
,142.000000=0.128205
,144.000000=0.128207
,188.000000=0.042735
,188.666672=0.042736
,189.333328=0.042736
,190.000000=0.042736
,190.666672=0.042736
,191.333328=0.042736
,192.000000=0.085471
,193.333328=0.085471
,194.666672=0.085471
,567.000000=0.064103
,568.000000=0.064103
,569.000000=0.064103
,570.000000=0.064103
,571.000000=0.032051
,571.500000=0.032051
,572.000000=0.032051
,572.500000=0.032051
;
#DELAYS:;
#WARPS:;
#TIMESIGNATURES:0.000000=4=4
;
#TICKCOUNTS:0.000000=4
;
#COMBOS:0.000000=1
;
#SPEEDS:0.000000=1.000000=0.000000=0
;
#SCROLLS:0.000000=1.000000
;
#FAKES:;
#LABELS:0.000000=Song Start
;
#DISPLAYBPM:*;
#NOTES:
0000
0000
0000
0000
,
0000
0000
0000
0000
,
0000
0000
0000
0000
,
0000
0000
0000
0000
,
0000
0000
0000
0000
,
1001
0000
0000
0000
1000
0001
1000
0000
0000
0000
0001
0000
1000
0000
0001
0000
,
0110
0000
0000
0000
0100
0000
0010
0000
0000
0000
0100
0010
0100
0000
0010
0000
,
1001
0100
1001
0010
,
2002
0000
0000
3003
1000
0000
0100
0000
,
0010
0001
0100
0010
,
1000
0000
0001
0010
0001
0000
0100
0000
,
0010
0000
1000
0100
1000
0000
0010
0000
,
1000
0100
0010
0001
1000
0000
0010
0000
,
0100
0001
0010
0100
,
1000
0000
0010
0100
2000
0000
3100
0001
,
0100
0000
2000
0000
3100
0001
0100
0000
,
0010
1000
0001
0010
,
0100
0010
0001
0100
,
0010
0000
1000
0001
1000
0000
0100
0000
,
0010
0000
0001
0100
0001
0000
1000
0000
,
0100
0010
0001
1000
0020
0000
1M3M
0000
,
0100
0000
0020
0000
MM31
0100
0010
1000
,
0010
0000
0001
0000
0010
1000
0001
1000
,
0001
0010
0001
0010
0001
0000
0010
0000
1100
0000
0000
0000
0000
0000
0000
0000
,
1000
0010
0001
0010
,
1000
0000
0100
0010
0001
0000
0100
0000
,
1000
0000
0100
0010
1000
0000
0100
0000
,
0010
0000
0000
0001
0000
0000
1000
0000
0000
0001
0000
0000
0010
0000
0000
0000
0000
0000
0000
0000
0011
0000
0000
0000
,
0000
0000
1001
0000
0000
0000
1010
0000
0000
0000
1001
0000
,
0000
0000
0000
0000
0011
0000
0000
0000
0000
0000
0000
0000
1010
0000
0000
0000
0000
0000
0000
0000
0000
1100
0000
0000
,
0000
0000
0101
0000
0000
0011
0000
0000
,
1001
1001
0001
0100
,
0010
1000
0001
0010
0100
0000
0001
0000
,
0100
0000
1000
0010
0100
0000
1000
0000
,
0100
0000
0010
1000
0001
0000
0010
0000
,
0100
1000
0001
1000
0010
0000
M0M0
0000
,
1010
M0M0
1000
0100
,
0010
0000
0001
0000
1000
0100
0010
0001
,
1000
0000
0000
0000
0010
0000
0000
0000
0200
0000
0310
0000
1000
0001
1000
0001
,
1MM0
0100
0001
1000
,
0010
0000
0001
0000
0100
0000
0001
1000
,
0001
0000
1000
0010
0100
0000
0001
0000
,
2001
0010
3MM1
0100
,
1000
0001
0010
1000
,
0100
0000
0010
0001
1000
0000
0010
1000
,
0001
0000
0010
0000
0100
0000
2000
0000
0000
0100
0000
0000
,
3MM1
0100
1000
0100
,
0001
0000
0010
0000
1000
0000
0010
0000
0001
0000
0100
0000
,
0010
0000
0000
0000
0101
0000
0000
0000
1100
0000
0000
0000
,
0012
0000
1000
0000
M1M3
0001
0100
0010
,
1000
0000
0001
0000
1000
0000
0100
0010
,
0100
0000
0010
0000
0M01
1000
0001
0000
,
1001
0000
0M01
0010
0100
1000
00M1
0100
,
0000
0100
0001
0000
0010
0001
1000
0100
,
0000
0000
1000
0100
1000
0000
0010
0000
0001
0000
0010
0000
1000
0000
0100
0000
,
0000
0100
1000
0000
0010
1000
0001
0100
,
0001
0100
0001
0000
1000
0000
0000
0000
0110
0000
0000
0000
1001
0000
0001
0000
,
0000
1000
0001
0010
0001
0100
0010
1000
,
0000
0000
0010
1000
0010
0000
0001
0000
0010
0000
0100
0000
0202
0000
0303
0000
,
0000
0022
0033
0000
2020
3030
0000
2200
,
3300
0000
0102
0000
0013
0000
1001
0001
,
0100
0010
1010
1000
0001
0000
0011
0000
,
1100
0000
0010
0001
0100
0000
1010
1000
,
0100
0010
0011
0001
0100
0110
0010
1010
,
1000
0000
0001
0010
0001
0000
0100
0000
0010
0000
1000
0000
1001
0000
0000
0000
,
0001
0010
0110
0100
1000
0010
0110
0100
,
0101
0001
0010
0100
1000
0010
1010
0000
,
0100
0000
0001
0000
1000
0100
0010
0100
0010
0001
0010
0100
2000
0000
0000
0000
,
0000
3001
0100
0010
1000
0000
0000
0000
0001
0000
0100
0000
0001
0000
0000
0000
,
1000
0000
0001
0100
0001
0000
1000
0000
,
0100
0011
0000
0101
,
0000
1010
0000
1001
,
0000
0000
1000
0000
0001
0010
0001
0000
,
1000
0000
0001
0010
0001
0000
0100
0000
,
0010
0000
1000
0001
1000
0000
1001
0000
,
0000
0001
0100
1000
,
0100
0000
0001
0000
1000
0100
1000
0000
,
0001
0000
1000
0100
1000
0000
0010
0000
,
1000
0101
0000
0011
,
0000
1100
0000
1010
,
0000
0000
0001
0000
1000
0010
1000
0000
,
0001
0000
1000
0010
1000
0000
0100
0000
,
0010
0000
0001
0100
0001
0100
0010
1000
,
0010
1000
0001
0000
1000
0000
0001
0000
,
0000
0000
1000
0000
0100
0010
0100
0000
,
1000
0000
0010
0100
0010
0000
1000
0000
,
0100
0011
0000
1001
,
0000
1100
0000
0101
,
0000
0000
0001
0000
0010
0100
0010
0000
,
0001
0000
0100
0010
0100
0000
0001
0000
,
0010
0000
0100
1000
0100
0000
1100
0000
,
0000
1001
1000
1010
,
0010
0000
0100
0000
0010
1000
0010
0000
,
0100
0000
0001
0010
0001
0000
0100
0000
,
0010
1010
0000
1100
,
0000
0000
0011
0000
0010
0001
1000
0000
,
0100
0000
0010
0000
0001
0100
0001
0000
,
0010
0000
0100
1000
0100
0000
1000
0000
,
0001
0000
0100
0010
0100
0010
0100
0000
,
0010
0000
1000
0010
0100
0001
1000
0000
,
0000
0000
0001
0000
0010
0001
1000
0000
,
0001
0000
0100
0001
1000
0000
0001
0000
,
0010
0001
1000
1000
,
0100
0001
0001
0100
,
1000
0000
0010
0000
0100
0001
1000
0000
,
0010
0000
1000
0001
0100
0000
0001
0000
,
0010
0011
0000
0101
,
0000
1100
0000
1010
,
0000
0000
1000
0000
0010
1000
0001
0000
,
1000
0000
0100
1000
0001
0000
1000
0000
,
0010
1000
0001
0001
,
0100
1000
1000
0100
,
0001
0000
0010
0000
0100
1000
0001
0000
,
0010
0000
0001
1000
0100
0000
1000
0000
,
0010
0100
0001
0000
0000
0011
0000
0000
,
1100
1000
0100
0010
,
0001
1000
0001
0000
0010
0001
1000
0000
,
0010
0000
1000
0001
0010
0000
0001
0000
,
0100
0001
0010
0100
,
2100
0000
3001
0100
,
0010
0000
1000
0000
0100
0010
0001
0000
,
0100
0000
0010
0100
0001
0000
1000
0000
,
0100
1100
0000
0011
,
0000
1001
0000
0101
,
0000
0000
1000
0000
0010
0100
0001
0000
,
1000
0000
0100
0010
0001
0000
0100
0000
,
1000
0100
0001
0010
,
0012
0000
1003
0100
,
0010
0000
0001
0000
0010
0100
1000
0000
,
0001
0000
0100
0010
1000
0000
0001
0000
,
0010
0000
0100
1000
0100
1000
0100
0000
,
0010
0001
1000
0000
0001
0000
1002
0000
,
0000
0000
0000
0000
1MM3
0000
0001
0100
0001
0000
1000
0000
0001
0100
0001
0000
,
1000
0010
1M0M
0000
0100
0000
0001
0000
,
0100
1000
0010
0100
,
0001
0000
0000
0000
1MM0
0000
0001
1000
0001
0000
0010
0000
0001
1000
0001
0000
,
0100
0010
0100
0010
1M0M
0000
0000
0000
0100
0000
0000
0000
0001
0000
0000
0000
,
0100
0010
0001
0000
1000
0000
0010
1000
,
0010
0000
1000
0000
0MM1
0000
0010
0100
0010
0000
0001
0000
1MM0
0000
0000
0000
,
0010
0000
0000
0000
0100
0000
0000
0000
0001
0000
0000
0000
10MM
0000
0100
0010
,
0100
0010
MM02
0000
0013
0100
0010
0100
,
0002
0000
0103
0000
0010
0001
1000
0000
,
0001
0000
1000
0000
0001
0000
1000
0010
,
0100
0001
2000
0000
0000
0000
3001
0000
,
0010
0001
1000
0000
0010
0000
1000
0001
,
0010
0000
0001
0000
0100
0010
1000
0000
,
0100
0000
0010
0000
0001
0100
0010
0000
,
1000
0000
0100
1000
0001
1000
0010
0000
,
0100
0001
0010
0000
0100
0000
0010
0001
,
0100
0000
0010
0000
0100
0001
1000
0100
,
1000
0000
0001
0000
0010
0001
1000
0000
,
0010
0001
1000
0100
,
0001
1000
0100
0000
0010
0000
0100
1000
,
0001
0000
0100
0000
0001
0010
0100
0000
,
1000
0000
0010
0000
0100
0001
1000
0000
,
0100
0000
0010
0001
1000
0001
0100
0000
,
0010
1000
0100
0000
0010
0000
0100
1000
,
0010
0000
0100
0000
0010
1000
0001
0100
,
0001
0000
1000
0000
0100
0010
0200
0000
,
0000
0000
13MM
0000
0100
1000
0100
0000
,
0001
0000
0100
0001
0100
0000
1000
0000
,
0100
0010
0001
0000
0100
0000
0010
0000
,
0100
0010
2000
0000
0000
0000
3MM1
0000
,
0100
0001
0100
0000
1000
0000
0100
1000
,
0100
0000
0001
0000
0100
0001
1000
0100
,
0010
0001
1000
0100
0010
0001
1000
0010
,
0100
0001
1000
0010
0100
0001
1000
0000
,
0010
1000
0010
0000
0001
0000
0010
0001
,
0010
0000
1000
0000
0010
1000
0001
0010
,
0100
1000
0100
0010
0001
1000
0200
0000
,
0000
0000
13MM
0000
1000
0100
0010
0000
,
0100
0000
0100
0010
0001
0000
1000
0000
,
0001
0000
0100
0010
1000
0000
0001
0010
,
0100
1000
0001
0100
0010
1000
0002
MMM3
,
0000
0000
0000
0000
1000
0000
0001
0100
0001
0000
1000
0000
0000
0000
1000
0000
,
0100
0010
0001
1000
0001
0100
0000
0010
,
1000
0000
1001
1001
1001
0000
1000
0100
,
1000
0010
0001
1000
0100
0001
0010
0011
,
0000
0000
0000
0000
1001
0000
1000
0010
1000
0000
0001
0000
0000
0000
0100
0000
,
1000
0000
0100
0000
0101
0000
0000
0000
1010
0000
0010
0000
0000
0000
1000
0001
,
1000
0001
1001
0000
0010
0000
1001
0000
,
0001
0000
10M0
0100
0010
0001
0100
0000
,
0001
0100
0010
1000
0100
0000
0010
0000
,
0010
0MM1
1000
0001
,
1000
0001
1000
0001
,
1000
0001
1000
0001
,
1000
0001
1000
0001
,
1000
0001
1000
0001
,
1000
0001
1000
0001
,
1000
0000
0002
0003
0000
0000
0000
0000
;

//---------------dance-single - ----------------
#NOTEDATA:;
#CHARTNAME:;
#STEPSTYPE:dance-single;
#DESCRIPTION:;
#CHARTSTYLE:;
#DIFFICULTY:Hard;
#METER:18;
#RADARVALUES:1.107523,1.520994,0.498808,0.270540,0.067635,917.000000,858.000000,59.000000,32.000000,40.000000,0.000000,0.000000,0.000000,0.000000,1.107523,1.520994,0.498808,0.270540,0.067635,917.000000,858.000000,59.000000,32.000000,40.000000,0.000000,0.000000,0.000000,0.000000;
#CREDIT:;
#OFFSET:0.673660;
#BPMS:0.000000=234.000000
,32.000000=117.000000
,34.000000=468.000000
,82.000000=234.000000
,83.000000=468.000000
,85.000000=234.000000
,86.000000=468.000000
,92.000000=234.000000
,94.000000=468.000000
,110.000000=936.000000
,126.000000=468.000000
,142.000000=936.000000
,146.000000=468.000000
,154.000000=234.000000
,156.000000=468.000000
,168.000000=234.000000
,170.000000=468.000000
,182.000000=234.000000
,184.000000=468.000000
,188.000000=936.000000
,196.000000=234.000000
,198.000000=468.000000
,206.000000=234.000000
,209.000000=468.000000
,211.000000=234.000000
,271.000000=117.000000
,273.000000=468.000000
,529.000000=234.000000
,533.000000=468.000000
,541.000000=234.000000
,545.000000=468.000000
,553.000000=234.000000
,555.000000=468.000000
,559.000000=234.000000
,561.000000=468.000000
,567.000000=936.000000
,573.000000=117.000000
,575.000000=468.000000
,635.000000=234.000000
,637.000000=468.000000
,649.000000=234.000000
,651.000000=468.000000
,679.000000=234.000000
,681.000000=468.000000
,695.000000=234.000000
,695.500000=702.000000
,697.000000=234.000000
,725.000000=468.000000
,733.000000=936.000000
,757.000000=58.500000
;
#STOPS:110.000000=0.085471
,111.333336=0.085471
,112.666664=0.085471
,114.000000=0.085471
,115.333336=0.085471
,116.666664=0.085471
,118.000000=0.096154
,119.500000=0.096156
,121.000000=0.096156
,122.500000=0.096156
,124.000000=0.064104
,125.000000=0.064103
,142.000000=0.128205
,144.000000=0.128207
,188.000000=0.042735
,188.666672=0.042736
,189.333328=0.042736
,190.000000=0.042736
,190.666672=0.042736
,191.333328=0.042736
,192.000000=0.085471
,193.333328=0.085471
,194.666672=0.085471
,567.000000=0.064103
,568.000000=0.064103
,569.000000=0.064103
,570.000000=0.064103
,571.000000=0.032051
,571.500000=0.032051
,572.000000=0.032051
,572.500000=0.032051
;
#DELAYS:;
#WARPS:;
#TIMESIGNATURES:0.000000=4=4
;
#TICKCOUNTS:0.000000=4
;
#COMBOS:0.000000=1
;
#SPEEDS:0.000000=1.000000=0.000000=0
;
#SCROLLS:0.000000=1.000000
;
#FAKES:;
#LABELS:0.000000=Song Start
;
#DISPLAYBPM:*;
#NOTES:
0000
0000
0000
0000
,
0000
0000
0000
0000
,
0000
0000
0000
0000
,
0000
0000
0000
0000
,
0000
0000
0000
0000
,
1001
0000
1000
0010
0000
0100
0001
0000
,
1001
0000
0001
0010
0000
0100
1000
0001
,
1001
0100
1001
0010
,
2002
0000
0000
3003
1000
0000
0100
0000
,
0010
0001
0100
0010
,
0100
0000
0001
1000
0001
0000
0010
0000
,
0100
0000
1000
0001
1000
0000
0010
0000
,
1000
0001
1000
0001
1000
0000
0010
0000
,
0100
0001
0010
0100
,
1000
0000
0010
0100
0002
0000
1003
0010
,
1000
0000
0002
0000
1003
0010
1000
0000
,
0010
1000
0001
0010
,
0100
0010
0001
0100
,
0010
0000
1000
0001
1000
0000
0100
0000
,
0010
0000
0001
1000
0001
0000
1000
0000
,
0010
0100
0010
0100
0020
0000
1M30
0000
,
0001
0000
0020
0000
0M31
1000
0001
1000
,
0001
0000
0100
0000
0010
1000
0010
1000
,
0002
0003
1001
0000
,
1000
0010
0001
0010
,
1000
0000
0010
0100
0010
0000
0001
0000
,
0010
0000
1000
0010
1000
0000
0010
0000
,
0100
0000
0000
0001
0000
0000
0100
0000
0000
0001
0000
0000
1000
0000
0000
0000
0000
0000
0000
0000
1000
0000
0000
0000
,
0000
0000
1000
0000
0000
0000
0001
0000
0000
0000
0001
0000
,
0000
0000
0000
0000
0001
0000
0000
0000
0000
0000
0000
0000
0011
0000
0000
0000
0000
0000
0000
0000
0000
0110
0000
0000
,
0000
0000
1100
0000
0000
1010
0000
0000
,
1000
0001
1000
0100
,
0010
0001
0010
0001
0010
0000
0001
0000
,
0100
0000
0010
1000
0010
0000
0100
0000
,
0001
0000
0010
0001
0010
0000
0100
0000
,
1000
0001
1000
0001
0100
0000
0M00
0000
,
0100
0M00
0001
0100
,
0010
0000
1000
0000
0001
1000
0001
1000
,
0001
0010
0200
0000
,
13MM
0100
0010
0001
,
0100
0000
0010
0000
1000
0000
0001
1000
,
0001
0000
1000
0001
1000
0000
0001
0000
,
2000
0000
3MM1
0100
,
0010
1000
0100
0010
,
0001
0000
1000
0001
1000
0000
0001
1000
,
0001
0000
1000
0000
0001
0000
2000
0000
0000
0000
0000
0000
,
3MM1
0100
0010
1000
,
0001
0000
0010
0000
0001
0000
1000
0000
0100
0000
1000
0000
,
0001
0000
0000
0000
0100
0000
0000
0000
0010
0000
0000
0000
,
2000
0000
0000
0000
3MM1
1000
0001
1000
,
0001
0000
1000
0000
0100
0000
0010
0001
,
0010
0100
2000
0000
,
0000
0000
301M
0100
0010
0100
00M1
1000
,
0000
0001
1000
0000
0001
0010
0100
1000
,
0000
0000
0001
0100
0001
0000
1000
0000
0010
0000
0100
0000
0001
0000
1000
0000
,
0000
0001
1000
0000
0001
0010
0100
1000
,
0001
0100
0001
0000
1000
0000
0000
0000
1001
0000
0000
0000
1001
0000
0001
0000
,
0000
1000
0001
0000
1000
0010
0100
0001
,
0000
0000
0010
0001
0010
0000
0100
0000
1000
0000
0001
0000
0202
0000
0303
0000
,
0000
2020
3030
0000
2200
3300
0000
0022
,
0033
0000
1002
0000
1003
0000
0001
0100
,
1000
0100
0010
1000
0100
0000
1001
0000
,
1001
0000
0001
0100
0010
0000
1000
0010
,
0001
0010
1000
0100
0001
0100
1000
0010
,
0100
0000
0001
1000
0001
0000
0010
0000
0100
0000
1000
0000
1001
0000
0000
0000
,
0001
0010
1000
0010
0001
0100
1000
0100
,
0001
0010
0100
1000
0001
0100
0110
0000
,
0100
0001
1000
0100
0010
0001
2002
0000
,
3003
0000
1000
0000
0001
0100
0001
0000
,
1000
0000
0001
0100
0001
0000
1000
0000
,
0010
1010
0000
0101
,
0000
1100
0000
0011
,
0000
0000
0001
0000
1000
0100
1000
0000
,
0001
0000
1000
0100
1000
0000
0001
0000
,
0100
0000
0010
0100
0010
0000
1001
0000
,
0000
0001
0100
1000
,
0100
0000
0001
0000
0010
0100
0010
0000
,
0001
0000
0010
0100
0010
0000
0001
0000
,
0100
0101
0000
1010
,
0000
1100
0000
0011
,
0000
0000
1000
0000
0010
0100
0010
0000
,
1000
0000
0010
0100
0010
0000
1000
0000
,
0001
0000
1000
0010
1000
0000
0001
0100
,
0001
0100
0010
0000
1000
0000
0001
0000
,
0000
0000
1000
0000
0001
0100
0001
0000
,
1000
0000
0001
0010
0001
0000
0100
0000
,
0010
1010
0000
0110
,
0000
0101
0000
1001
,
0000
0000
0001
0000
1000
0100
1000
0000
,
0001
0000
1000
0010
1000
0000
0001
0000
,
0010
0000
0100
0010
0100
0000
1001
0000
,
0000
0001
0001
0100
,
0100
0000
0010
0000
1000
0001
1000
0000
,
0100
0000
1000
0001
1000
0000
0010
0000
,
0100
0101
0000
1001
,
0000
1000
0010
0100
,
0001
1000
0100
0001
,
0100
1000
0001
0100
,
0010
0000
1000
0001
1000
0001
1000
0000
,
0001
0100
0010
1000
,
0000
0000
0001
0000
0010
0001
0010
0000
,
0001
0000
0100
0001
0100
0000
0010
0000
,
1000
0001
1000
0100
,
0001
1000
0010
0001
,
1000
0000
0010
0000
1000
0010
1000
0000
,
0010
0000
0100
0010
0100
0000
0001
0000
,
1000
1001
0000
0011
,
0000
1001
0000
1010
,
0000
0000
1000
0000
0001
1000
0001
0000
,
1000
0000
0100
1000
0100
0000
0010
0000
,
0001
1000
0001
0100
,
1000
0001
0010
1000
,
0001
0000
0100
0000
0001
0100
0001
0000
,
1000
0000
0001
1000
0001
0000
0010
0000
,
0001
1000
0001
0000
0000
0101
0000
0000
,
1001
0000
0001
1000
,
0001
1000
0001
0000
1000
0010
1000
0000
,
0001
0000
1000
0100
1000
0000
0001
0000
,
0100
0010
0000
1000
,
0200
0000
0301
0100
,
1000
0000
0001
0000
1000
0010
1000
0000
,
0001
0000
1000
0100
1000
0000
0001
0000
,
0100
0101
0000
0110
,
0000
1010
0000
1001
,
0000
0000
1000
0000
0001
0010
0001
0000
,
1000
0000
0001
0100
0001
0000
1000
0000
,
0100
0010
0000
0001
,
0200
0000
1300
0100
,
0001
0000
0010
0000
0001
1000
0001
0000
,
0100
0000
0001
1000
0001
0000
0010
0000
,
0100
1000
0000
0001
,
1000
0100
0010
0000
0001
0000
0200
0000
,
0000
0000
M3M1
0000
0001
0100
0000
0100
,
0010
1000
0MM1
0000
0100
0000
1000
0000
,
0100
0001
0010
1000
,
0010
0000
MM01
0000
0001
1000
0000
1000
,
0010
0100
M0M1
0000
0010
0000
0100
0000
,
1000
0001
1000
0000
0010
0000
0100
0001
,
0100
0001
1MM0
0000
1001
0000
0MM1
0000
,
0010
0100
1000
0MM1
,
1001
0000
1MM0
0000
0010
0100
0010
0000
,
1000
0100
0000
1000
,
0001
0000
1000
0000
0001
0000
1000
0001
,
1000
0001
2000
0000
0000
0000
3001
0000
,
0100
1000
0100
0001
,
0010
0000
0001
0000
0100
0010
0100
0000
,
0001
0000
1000
0000
0100
0010
0100
0000
,
1000
0000
0001
0100
0001
0100
0010
0000
,
1000
0100
0001
0100
,
1000
0000
0010
0000
0100
0001
0100
0000
,
0010
0000
1000
0000
0001
0010
0001
0000
,
0100
0010
1000
0100
,
1000
0010
0001
0010
,
1000
0000
0100
0000
0010
0001
0010
0000
,
0100
0000
1000
0000
0010
0100
0010
0000
,
1000
0000
0001
0010
0001
0010
0100
0000
,
0010
0001
0100
1000
,
0100
0000
0001
0000
0010
0100
0010
0000
,
0001
0000
0100
0000
0010
1000
0002
0000
,
0000
1MM3
0010
0001
,
1000
0100
0001
1000
,
0100
0010
0001
0000
0100
0000
0010
0000
,
1000
0001
0200
0000
0000
0000
0301
0000
,
0010
1000
0001
0100
,
1000
0000
0001
0000
1000
0010
0100
0000
,
0001
0100
0010
0000
1000
0001
0010
0000
,
0001
1000
0010
0000
1000
0001
0100
0000
,
0001
0100
1000
0001
,
0010
0000
1000
0000
0001
0010
0100
0010
,
0100
0010
0001
0000
1000
0010
0200
0000
,
0000
0000
M3M1
0000
1000
0010
1000
0000
,
0001
0000
1000
0100
1000
0000
0001
0000
,
1000
0000
0010
0100
0010
0000
1000
0010
,
1000
0010
0100
0001
0100
0001
2000
3MMM
,
0000
0000
0001
0010
0100
1000
0000
0001
,
0100
0010
1000
0100
0010
0001
0000
0100
,
0010
0000
1001
1001
1001
0000
1000
0100
,
1000
0010
0001
0010
1000
0100
0010
0011
,
0000
0000
1001
0000
0001
0010
0000
0100
,
1000
0000
1001
0000
1001
1000
0000
0010
,
0100
0001
1001
0000
0010
0000
1001
0000
,
1000
0000
00M1
0100
0001
0100
0001
0000
,
1000
0100
1000
0100
1000
0000
0100
0000
,
0010
0MM1
1000
0001
,
1000
0001
1000
0001
,
1000
0001
1000
0001
,
1000
0001
1000
0001
,
1000
0001
1000
0001
,
1000
0001
1000
0001
,
1000
0000
0002
0003
0000
0000
0000
0000
;

//---------------dance-single - ----------------
#NOTEDATA:;
#CHARTNAME:;
#STEPSTYPE:dance-single;
#DESCRIPTION:;
#CHARTSTYLE:;
#DIFFICULTY:Medium;
#METER:16;
#RADARVALUES:0.944474,1.520994,0.718622,0.270540,0.042272,782.000000,697.000000,85.000000,32.000000,0.000000,0.000000,0.000000,0.000000,0.000000,0.944474,1.520994,0.718622,0.270540,0.042272,782.000000,697.000000,85.000000,32.000000,0.000000,0.000000,0.000000,0.000000,0.000000;
#CREDIT:;
#OFFSET:0.673660;
#BPMS:0.000000=234.000000
,32.000000=117.000000
,34.000000=468.000000
,82.000000=234.000000
,83.000000=468.000000
,85.000000=234.000000
,86.000000=468.000000
,92.000000=234.000000
,94.000000=468.000000
,154.000000=234.000000
,156.000000=468.000000
,168.000000=234.000000
,170.000000=468.000000
,182.000000=234.000000
,184.000000=468.000000
,196.000000=234.000000
,198.000000=468.000000
,206.000000=234.000000
,209.000000=468.000000
,211.000000=234.000000
,271.000000=117.000000
,273.000000=468.000000
,529.000000=234.000000
,533.000000=468.000000
,541.000000=234.000000
,545.000000=468.000000
,553.000000=234.000000
,555.000000=468.000000
,559.000000=234.000000
,561.000000=468.000000
,573.000000=117.000000
,575.000000=468.000000
,635.000000=234.000000
,637.000000=468.000000
,649.000000=234.000000
,651.000000=468.000000
,679.000000=234.000000
,681.000000=468.000000
,697.000000=234.000000
,725.000000=468.000000
,733.000000=936.000000
,757.000000=58.500000
;
#STOPS:;
#DELAYS:;
#WARPS:;
#TIMESIGNATURES:0.000000=4=4
;
#TICKCOUNTS:0.000000=4
;
#COMBOS:0.000000=1
;
#SPEEDS:0.000000=1.000000=0.000000=0
;
#SCROLLS:0.000000=1.000000
;
#FAKES:;
#LABELS:0.000000=Song Start
;
#DISPLAYBPM:*;
#NOTES:
0000
0000
0000
0000
,
0000
0000
0000
0000
,
0000
0000
0000
0000
,
0000
0000
0000
0000
,
0000
0000
0000
0000
,
1001
0000
0001
0010
0000
0100
1000
0000
,
1001
0000
1000
0010
0000
0100
0001
1000
,
1001
0000
0110
0000
,
2002
0000
0000
3003
1000
0000
0010
0000
,
0100
0010
1000
0100
,
0010
0001
0100
0001
,
0010
0100
0010
0001
,
0100
1000
0100
0010
,
1000
0001
0010
0100
,
1000
0010
0001
1000
,
0100
0001
0010
0100
,
1000
0001
0100
0010
,
0100
0001
0010
0100
,
1000
0010
0100
0010
,
1000
0100
0010
0001
,
0100
0010
2001
3100
,
0010
1002
0103
0010
,
1000
0100
0001
0100
,
2000
3000
1001
0000
,
0001
0010
1000
0010
,
0001
0010
1000
0010
,
0001
0010
1000
0010
,
0001
0000
0000
0100
0000
0000
0010
0000
0000
0000
0100
0000
,
0000
0000
0010
0000
0000
0000
0100
0000
0000
0000
0010
0000
,
0000
0000
0000
0000
0100
0000
0000
0000
0000
0000
0000
0000
0101
0000
0000
0000
0000
0000
0000
0000
0000
1010
0000
0000
,
0000
0000
1100
0000
0000
0011
0000
0000
,
0001
1000
0001
0010
,
1000
0010
0001
0010
,
1000
0010
0001
0010
,
1000
0010
0001
0010
,
0100
1000
1001
0000
,
1001
0000
1000
0010
,
0100
0001
0010
1000
,
0010
0001
0200
0300
,
1001
0001
0100
0100
,
0010
0010
1000
1000
,
0100
0010
0001
0100
,
0020
0030
1001
1000
,
0100
0100
0010
0010
,
0001
0001
0100
1000
,
0100
0001
0020
0030
,
1001
0001
0100
0100
,
0010
0000
1000
0000
0010
0000
1000
0000
0010
0000
1000
0000
,
0001
0000
0000
0000
0010
0000
0000
0000
0100
0000
0000
0000
,
2000
3000
0001
0100
,
1000
0100
0001
0010
,
1000
0010
0002
0000
,
0003
0000
0110
0000
0000
0000
1000
0100
,
0000
1000
0100
0000
1000
0100
0010
0001
,
0000
0001
0100
1000
0001
0010
1000
0100
,
0000
1000
0100
0000
1000
0100
0010
0001
,
0100
1000
0100
0000
0110
0000
0101
0100
,
0000
0001
0100
0000
0001
0100
0010
1000
,
0000
1000
0100
0001
1000
0010
0220
0330
,
0000
2002
3003
0000
0022
0033
0000
2002
,
3003
0102
1003
1001
,
1000
0010
0101
0000
0001
0010
1100
0000
,
0101
0000
1000
0010
0100
0001
1001
0000
,
1000
0100
0011
0000
0001
0101
0000
1010
,
0000
1000
0100
0001
0100
1000
1001
0000
,
0001
0100
1010
0000
1000
0100
0011
0000
,
1100
0000
1000
0010
0100
0001
1001
0000
,
0010
0100
1001
0100
0010
0100
2002
0000
,
3003
1000
0010
0100
,
0001
0010
0100
1000
,
0010
0101
0000
0011
,
0000
1100
0000
1010
,
0000
0001
0010
0100
,
1000
0010
0100
0001
,
1000
0100
1000
0011
,
0000
0001
0100
1000
,
0100
0001
0010
0100
,
1000
0010
0100
0001
,
0010
1100
0000
0011
,
0000
0101
0000
1010
,
0000
1000
0100
0010
,
0001
0100
0010
1000
,
0001
0010
1000
0010
,
0001
0100
0100
0100
,
0000
0001
0100
0010
,
1000
0100
0010
0001
,
0100
1010
0000
0101
,
0000
1001
0000
1001
,
0000
1000
0100
0010
,
0001
0100
0010
1000
,
0001
0100
0001
1010
,
0000
1001
1001
1001
,
0000
0001
0010
0100
,
1000
0010
0100
0001
,
0010
1100
0000
0011
,
0000
0001
0010
1000
,
0010
0001
0100
0010
,
1000
0001
0100
0010
,
1000
0001
0100
1000
,
0100
0010
0010
0010
,
0000
1000
0010
0001
,
1000
0100
0001
0010
,
0010
0001
0010
1000
,
0001
0100
1000
0010
,
0010
1000
0100
0001
,
1000
0010
0001
0100
,
0010
1010
0000
0011
,
0000
0101
0000
1100
,
0000
0001
0100
1000
,
0001
0010
1000
0100
,
0100
1000
0100
0001
,
1000
0010
0001
0100
,
0100
0001
0010
1000
,
0001
0100
1000
0010
,
0100
0000
0110
0000
0000
0101
0000
0000
,
1001
0000
0001
1000
,
0100
0010
0001
0100
,
0010
1000
0100
1000
,
0010
0210
0000
0301
,
0201
0000
0310
0100
,
0001
0010
0001
0100
,
0010
1000
0100
0010
,
0001
1100
0000
0011
,
0000
0101
0000
1010
,
0000
0010
1000
0100
,
0010
0001
0100
0001
,
0010
0210
0000
1300
,
1200
0000
0310
0001
,
1000
0100
1000
0010
,
0100
0001
0010
0100
,
1000
0001
0000
1000
,
1000
1000
0001
0100
,
0000
0000
0001
0000
1000
0001
0000
1000
,
0001
1000
0100
0000
0100
0000
0010
0000
,
0010
0001
0001
1000
,
1000
0000
0010
0000
0100
0010
0000
0100
,
0010
0100
0001
0000
0001
0000
1000
0000
,
1000
0100
0100
0010
,
0000
1001
0110
0001
,
0100
0010
1000
1001
,
0110
1000
0100
0010
,
0001
0100
0000
0010
,
0100
0010
0100
0010
,
0010
0000
0020
0000
0000
0030
1000
0000
,
0010
0100
0001
0010
,
0100
0010
0001
1000
,
0100
0001
0100
1000
,
0010
0001
0010
1000
,
0100
0010
0001
0100
,
0010
1000
0100
1000
,
0010
0001
0010
0100
,
1000
0100
0001
0010
,
0100
1000
0010
1000
,
0100
0010
0001
1000
,
0010
0001
0010
1000
,
0100
0001
0100
1000
,
0010
0100
0001
1000
,
0100
0010
0001
1000
,
0100
0001
0100
0020
,
0000
0031
0001
0100
,
0010
0010
1000
0001
,
0001
1000
0100
0001
,
0100
2000
0000
3010
,
0010
1000
0001
0001
,
1000
0100
0100
0001
,
1000
0010
0001
0100
,
1000
0001
0010
1000
,
1000
0100
0010
0010
,
0001
1000
1000
0001
,
0100
1000
0100
0002
,
0000
1003
0100
1000
,
0001
0100
0001
1000
,
0100
0010
0001
0010
,
0001
0100
0010
2000
,
3000
0000
0001
0000
0010
0001
0000
0001
,
0100
0010
1000
0000
0010
1000
0000
1000
,
0100
0010
0001
0100
0001
1000
0000
0100
,
1000
0000
0100
0001
0100
1000
0010
0110
,
0000
0000
1001
0000
1000
0010
0000
0100
,
0001
0000
1001
0000
1001
0001
0000
0010
,
0100
1000
1001
0000
0000
0000
0110
0000
,
0000
0001
0001
1000
,
0001
0001
1000
0100
,
0010
2002
0000
0000
,
0000
0000
0000
0000
,
0000
0000
0000
0000
,
0000
0000
0000
0000
,
0000
0000
0000
0000
,
0000
0000
0000
0000
,
0000
0000
0000
3003
0000
0000
0000
0000
;

//---------------dance-single - ----------------
#NOTEDATA:;
#CHARTNAME:;
#STEPSTYPE:dance-single;
#DESCRIPTION:;
#CHARTSTYLE:;
#DIFFICULTY:Easy;
#METER:14;
#RADARVALUES:0.714998,1.042054,0.591806,0.338175,0.008454,592.000000,522.000000,70.000000,40.000000,0.000000,0.000000,0.000000,0.000000,0.000000,0.714998,1.042054,0.591806,0.338175,0.008454,592.000000,522.000000,70.000000,40.000000,0.000000,0.000000,0.000000,0.000000,0.000000;
#CREDIT:;
#OFFSET:0.673660;
#BPMS:0.000000=234.000000
,32.000000=117.000000
,34.000000=468.000000
,82.000000=234.000000
,83.000000=468.000000
,85.000000=234.000000
,86.000000=468.000000
,92.000000=234.000000
,94.000000=468.000000
,154.000000=234.000000
,156.000000=468.000000
,168.000000=234.000000
,170.000000=468.000000
,182.000000=234.000000
,184.000000=468.000000
,188.000000=234.000000
,190.000000=468.000000
,194.000000=234.000000
,196.000000=468.000000
,212.000000=234.000000
,272.000000=117.000000
,274.000000=468.000000
,530.000000=234.000000
,534.000000=468.000000
,542.000000=234.000000
,546.000000=468.000000
,554.000000=234.000000
,556.000000=468.000000
,560.000000=234.000000
,562.000000=468.000000
,574.000000=117.000000
,576.000000=468.000000
,636.000000=234.000000
,638.000000=468.000000
,650.000000=234.000000
,652.000000=468.000000
,680.000000=234.000000
,682.000000=468.000000
,698.000000=234.000000
,726.000000=468.000000
,734.000000=936.000000
,758.000000=58.500000
;
#STOPS:;
#DELAYS:;
#WARPS:;
#TIMESIGNATURES:0.000000=4=4
;
#TICKCOUNTS:0.000000=4
;
#COMBOS:0.000000=1
;
#SPEEDS:0.000000=1.000000=0.000000=0
;
#SCROLLS:0.000000=1.000000
;
#FAKES:;
#LABELS:0.000000=Song Start
;
#DISPLAYBPM:*;
#NOTES:
0000
0000
0000
0000
,
0000
0000
0000
0000
,
0000
0000
0000
0000
,
0000
0000
0000
0000
,
0000
0000
0000
0000
,
1001
0000
0000
0100
0000
0000
0100
0000
,
1001
0000
0000
1000
0000
0001
1000
0001
,
1000
0000
0110
0000
,
2002
0000
0000
3003
1000
0000
0000
0000
,
0100
1000
0000
0100
,
0010
0000
0001
0000
,
0100
0010
0000
0100
,
0001
0000
1000
0000
,
0010
1000
0000
0001
,
1000
0000
0220
0330
,
0000
2002
3003
0000
,
0001
1000
0001
0000
,
0100
0010
0000
0100
,
0001
0000
1000
0000
,
0100
0010
0000
0100
,
1000
0000
2002
3003
,
0000
0220
0330
0000
,
0001
0010
0100
1000
,
0002
0000
1003
0000
,
0001
0100
0001
0100
,
0001
0010
0001
0010
,
0001
0100
0001
0100
,
0001
0010
0002
0000
,
0003
0000
2000
0000
,
3000
0000
0000
0000
0010
0000
0000
0100
,
0000
0000
0010
0000
0000
0100
0000
0000
,
0002
0003
1000
0010
,
1000
0010
1000
0100
,
1000
0100
1000
0010
,
1000
0010
1000
0100
,
1000
0100
0010
0000
,
0010
0000
0001
0010
,
0100
1000
0001
0000
,
0100
0010
0200
0000
,
0301
0000
0100
0010
,
0000
1000
0001
1000
,
0001
0000
0010
0100
,
2000
0000
3001
0000
,
0010
0100
0000
1000
,
0001
0000
1000
0010
,
1000
0001
0200
0000
,
0310
0000
1000
0001
,
0020
0000
0000
0000
0000
0000
0130
0000
0000
0000
0010
0000
,
0000
0000
0100
0000
0000
0000
0020
0000
0000
0000
0000
0000
,
0031
0100
0010
0000
,
1000
0100
0010
0000
,
0001
1000
0001
0000
,
1000
0000
0110
0000
,
1001
0000
0001
0000
,
0001
0000
0100
0010
,
1000
0000
1000
0000
,
1000
0000
1010
0101
,
0011
0000
0010
0000
,
0010
0000
0100
1000
,
1010
0000
0000
0101
0000
0000
1010
0000
,
0000
0101
0000
0000
2020
0000
3030
0000
,
1001
0000
1100
0000
,
0011
1100
0000
0010
,
1001
0000
0000
0000
0101
0000
0000
1010
,
0000
0101
0000
0000
0100
0000
0010
0000
,
1001
0000
0110
0000
,
1001
0110
0000
0010
,
1001
0100
1001
0010
,
2002
3003
1000
0001
,
1000
0100
0000
1000
,
0001
0100
0010
0000
,
1010
0000
0100
0000
,
0101
0000
0001
1000
,
0001
0100
0000
0001
,
1000
0100
1000
0000
,
1001
0000
0001
0100
,
0010
1000
0001
0010
,
0100
0010
0000
0100
,
1000
0010
1000
0000
,
1010
0000
0001
0000
,
0101
0000
1000
0100
,
0010
0100
0000
0010
,
0001
0100
0010
1000
,
0010
1000
0001
1000
,
0001
0000
1000
0100
,
0010
0001
0000
0001
,
0100
0010
1000
0000
,
0110
0000
1001
0000
,
1001
0000
0001
0010
,
0100
1000
0000
1000
,
0010
0100
0001
0000
,
1001
0000
0001
1000
,
0100
0000
0010
0001
,
0100
0010
0000
0100
,
0010
1000
0100
0000
,
0011
0000
0001
0010
,
0100
1000
0001
0000
,
1000
0001
0000
0001
,
1000
0000
0010
0100
,
0010
0100
0001
1000
,
0100
0000
1000
0000
,
1000
0000
0100
0010
,
0001
0100
0001
0000
,
0001
0000
0100
0010
,
1000
0100
1000
0000
,
1000
0000
0100
0010
,
0001
0100
0010
0000
,
1001
0000
0110
0000
,
1001
0000
0001
0000
,
0001
0000
0010
0001
,
0100
0010
1000
0000
,
1000
0000
0010
1000
,
0100
0010
0001
0000
,
0001
0000
0010
0001
,
0100
0000
0110
0000
,
0010
0100
0000
0010
,
0100
0000
1001
0000
,
0001
1000
0001
0000
,
0010
0001
0100
0000
,
0100
0001
0010
0000
,
0010
0100
1000
0000
,
1000
0001
1000
0000
,
1000
0010
0100
0000
,
0101
0000
0011
0000
,
1100
0000
1001
0000
,
1000
0010
1000
0000
,
1000
0100
0010
0000
,
0001
0100
0010
0000
,
0010
1000
0001
0000
,
0001
1000
0001
0000
,
1000
0100
0010
0000
,
0100
1000
0010
0100
,
0001
0000
2002
0000
,
0000
3003
1000
0001
,
1000
0001
1000
0001
,
1000
0000
0220
0000
,
0000
0330
0100
0010
,
0100
0010
0100
0010
,
0100
0000
1002
0000
,
1003
0100
1000
0100
,
2000
0000
3001
0100
,
0001
0100
0001
0000
,
0010
0100
0010
0100
,
0010
0000
0001
0000
2000
0000
0000
3000
,
1000
0001
1000
0100
,
0000
0010
0001
1000
,
0010
0000
1000
0010
,
0100
0001
1000
0000
,
0001
0010
0100
1000
,
0000
0100
1000
0001
,
0100
0000
0010
0000
,
0100
0001
1000
0100
,
0010
0001
1000
0010
,
0000
0100
0001
1000
,
0100
0000
0010
0001
,
0100
0010
1000
0000
,
0001
0010
0100
1000
,
0000
0010
0100
0001
,
1000
0000
0010
1000
,
0200
0000
0310
0001
,
0010
0001
1000
0010
,
1000
0010
0100
0000
,
0110
0000
2001
0000
,
3010
1000
0010
1000
,
0001
0010
0001
0010
,
0100
0000
1100
0000
,
0110
0000
0011
0000
,
0001
0100
0001
0100
,
0010
1000
0010
1000
,
0100
0000
0110
0000
,
1002
0000
1003
0000
,
0100
0010
0000
0100
,
0010
0000
0001
0100
,
0001
0100
0010
1000
,
0002
0000
0003
0000
1000
0000
0000
1000
,
0000
0000
0100
0000
0010
0000
0000
0010
,
0000
0000
0001
0000
0100
0010
0100
0010
,
0000
0000
1000
0000
0100
0000
0010
0100
,
0000
0110
0000
0000
1001
0000
0000
0100
,
0000
0100
1001
1001
,
0000
0001
1000
0001
1000
0000
0000
0000
,
1001
0000
2200
0000
,
3300
0022
0000
0033
,
0001
1000
2002
0000
,
0000
0000
0000
0000
,
0000
0000
0000
0000
,
0000
0000
0000
0000
,
0000
0000
0000
0000
,
0000
0000
0000
0000
,
0000
0000
0000
0000
0000
3003
0000
0000
;

//---------------dance-single - ----------------
#NOTEDATA:;
#CHARTNAME:;
#STEPSTYPE:dance-single;
#DESCRIPTION:;
#CHARTSTYLE:;
#DIFFICULTY:Beginner;
#METER:10;
#RADARVALUES:0.463783,0.774420,0.414264,0.219814,0.000000,384.000000,335.000000,49.000000,26.000000,0.000000,0.000000,0.000000,0.000000,0.000000,0.463783,0.774420,0.414264,0.219814,0.000000,384.000000,335.000000,49.000000,26.000000,0.000000,0.000000,0.000000,0.000000,0.000000;
#CREDIT:;
#OFFSET:0.673660;
#BPMS:0.000000=468.000000
;
#STOPS:;
#DELAYS:;
#WARPS:;
#TIMESIGNATURES:0.000000=4=4
;
#TICKCOUNTS:0.000000=4
;
#COMBOS:0.000000=1
;
#SPEEDS:0.000000=1.000000=0.000000=0
;
#SCROLLS:0.000000=1.000000
;
#FAKES:;
#LABELS:0.000000=Song Start
;
#DISPLAYBPM:*;
#NOTES:
0000
0000
0000
0000
,
0000
0000
0000
0000
,
0000
0000
0000
0000
,
0000
0000
0000
0000
,
0000
0000
0000
0000
,
0000
0000
0000
0000
,
0000
0000
0000
0000
,
0000
0000
0000
0000
,
0000
0000
0000
0000
,
0000
0000
0000
0000
,
1001
0000
0000
0000
,
0000
0000
0000
0000
,
0110
0000
0000
0000
,
0000
0000
1001
0000
,
1001
0000
0000
0000
,
0110
0000
0000
0000
,
2002
0000
0000
0000
,
0000
0000
3003
0000
,
1000
0000
0100
0000
,
0010
0000
0001
0000
,
0010
0000
0100
0000
,
1000
0000
0001
0000
,
1000
0000
0010
0000
,
0100
0000
0001
0000
,
0010
0000
0001
0000
,
0010
0000
0001
0000
,
1000
0000
0010
0000
,
0100
0000
0001
0000
,
0100
0000
0010
0000
,
1000
0000
0001
0000
,
1001
0000
0000
0000
,
0110
0000
0000
0000
,
1001
0000
0000
0000
,
1000
0000
0000
0000
,
0001
0000
1000
0000
,
0100
0000
0010
0000
,
0100
0000
1000
0000
,
0100
0000
0010
0000
,
0002
0000
0003
0000
,
2000
0000
3000
0000
,
0020
0000
0030
0000
,
0100
0000
0001
0000
,
1000
0000
0100
0000
,
0010
0000
0100
0000
,
1000
0000
0100
0000
,
0010
0000
0001
0000
,
1000
0000
1000
0000
,
0001
0000
0100
0000
,
0010
0000
1000
0000
,
0002
0000
0000
0000
,
1003
0000
0100
0000
,
0010
0000
0001
0000
,
1000
0000
0100
0000
,
0020
0000
0000
0000
,
0031
0000
0100
0000
,
0010
0000
1000
0000
,
0001
0000
0100
0000
,
0020
0000
0000
0000
,
1030
0000
0001
0000
,
2002
0000
3003
0000
,
1000
0000
0001
0000
,
0200
0000
0300
0000
,
1001
0000
0000
0000
,
0001
0000
1000
0000
,
0100
0000
0000
0000
,
0000
0000
1001
0000
,
1001
0000
0000
0000
,
0001
0000
0000
0000
,
0001
0000
0000
0000
,
0100
0000
0000
0000
,
0010
0000
0000
0000
,
0010
0000
0000
0000
,
0010
0000
0000
0000
,
1001
0000
1001
0000
,
1001
0000
0000
0000
,
1000
0000
0000
0000
,
1000
0000
0000
0000
,
0100
0000
0000
0000
,
1001
0000
0000
0001
,
0000
0000
1001
0000
,
0000
1000
0000
0000
,
1001
0000
0000
0000
,
1001
0000
0000
0000
,
1001
0000
0000
0000
,
1001
0000
1001
0000
,
0000
0000
0000
0000
,
0110
0000
0000
0000
,
0110
0000
0000
0000
,
0110
0000
0000
0000
,
0000
0000
0000
0000
,
1001
0000
0000
0000
,
0110
0000
0000
0000
,
1001
0000
1001
0000
,
0000
0000
0000
0000
,
1001
0000
0000
0000
,
0110
0000
0000
0000
,
2002
0000
0000
0000
,
3003
0000
0000
0000
,
1000
0000
1000
0000
,
0001
0000
0001
0000
,
1000
0000
0100
0000
,
0010
0000
0001
0000
,
1000
0000
1000
0000
,
0001
0000
0001
0000
,
0100
0000
0010
0000
,
0010
0000
0100
0000
,
0001
0000
0001
0000
,
1000
0000
1000
0000
,
0001
0000
0010
0000
,
0100
0000
1000
0000
,
0001
0000
0001
0000
,
1000
0000
1000
0000
,
0020
0000
0030
0000
,
0100
0000
0100
0000
,
0001
0000
0001
0000
,
1000
0000
1000
0000
,
0100
0000
0010
0000
,
0100
0000
1000
0000
,
0001
0000
0001
0000
,
1000
0000
1000
0000
,
0010
0000
0100
0000
,
0100
0000
0001
0000
,
1000
0000
1000
0000
,
0001
0000
0001
0000
,
0100
0000
0010
0000
,
0100
0000
0001
0000
,
1000
0000
0000
0000
,
1000
0000
0000
0000
,
1000
0000
0100
0000
,
0010
0000
0001
0000
,
1000
0000
1000
0000
,
0010
0000
0010
0000
,
0100
0000
0100
0000
,
0001
0000
0001
0000
,
1000
0000
1000
0000
,
0001
0000
0001
0000
,
0010
0000
0100
0000
,
0010
0000
0100
0000
,
1000
0000
1000
0000
,
0001
0000
0001
0000
,
0100
0000
0100
0000
,
0010
0000
0010
0000
,
1000
0000
1000
0000
,
0001
0000
0001
0000
,
1000
0000
0001
0000
,
1000
0000
0000
0000
,
0001
0000
0001
0000
,
1000
0000
1000
0000
,
0010
0000
1000
0000
,
0100
0000
0000
0000
,
1000
0000
1000
0000
,
0001
0000
0001
0000
,
0010
0000
0100
0000
,
1000
0000
0001
0000
,
1000
0000
1000
0000
,
0001
0000
0001
0000
,
0100
0000
0010
0000
,
1000
0000
0000
0000
,
0001
0000
0001
0000
,
1000
0000
1000
0000
,
0010
0000
0010
0000
,
0010
0000
0000
0000
,
2002
0000
0000
0000
,
0000
0000
3003
0000
,
1000
0000
0001
0000
,
1000
0000
0001
0000
,
2002
0000
0000
0000
,
0000
0000
3003
0000
,
0001
0000
1000
0000
,
0001
0000
1000
0000
,
1001
0000
0000
0000
,
1000
0000
0001
0000
,
1001
0000
0000
0000
,
1000
0000
0001
0000
,
1000
0000
0200
0000
,
0000
0000
0300
0000
,
2002
0000
0000
0000
,
0000
0000
3003
0000
,
1000
0000
0100
0000
,
1000
0000
0100
0000
,
0010
0000
0001
0000
,
0010
0000
0001
0000
,
0100
0000
0001
0000
,
0100
0000
0001
0000
,
1000
0000
0010
0000
,
1000
0000
0010
0000
,
0100
0000
0010
0000
,
0100
0000
0010
0000
,
1000
0000
0001
0000
,
1000
0000
0001
0000
,
0010
0000
0100
0000
,
0010
0000
0100
0000
,
1000
0000
0001
0000
,
0200
0000
0000
0000
,
0301
0000
1000
0000
,
0001
0000
1000
0000
,
0010
0000
0100
0000
,
0002
0000
0000
0000
,
1003
0000
0001
0000
,
1000
0000
0001
0000
,
0010
0000
0010
0000
,
0010
0000
0010
0000
,
0001
0000
1000
0000
,
0001
0000
1000
0000
,
0010
0000
1000
0000
,
0200
0000
0000
0000
,
1300
0000
0001
0000
,
1000
0000
0001
0000
,
0100
0000
0010
0000
,
1000
0000
0001
0000
,
1001
0000
0000
0000
,
0000
0000
0000
0000
,
1000
0000
0000
0000
,
0000
0000
0000
0000
,
1001
0000
1001
0000
,
0000
0000
0000
0000
,
0001
0000
0000
0000
,
0000
0000
1001
0000
,
1001
0000
0000
0000
,
0000
0000
0000
0000
,
0110
0000
0110
0000
,
0000
0000
1001
0000
,
1001
0000
0000
0000
,
0110
0000
0000
0000
,
1000
0000
0000
0000
,
0001
0000
0000
0000
,
2002
0000
0000
0000
,
0000
0000
0000
0000
,
0000
0000
0000
0000
,
3003
0000
0000
0000
;
