#VERSION:0.83;
#TITLE:Bambous;
#SUBTITLE:;
#ARTIST:Caravan Palace;
#TITLETRANSLIT:;
#SUBTITLETRANSLIT:;
#ARTISTTRANSLIT:;
#GENRE:Electro Swing;
#ORIGIN:;
#CREDIT:;
#BANNER:Bambous.png;
#BACKGROUND:Bambous-bg.png;
#PREVIEWVID:;
#JACKET:Bambous-jacket.png;
#CDIMAGE:;
#DISCIMAGE:;
#LYRICSPATH:;
#CDTITLE:cdtitle.png;
#MUSIC:Bambous.ogg;
#OFFSET:-0.055793;
#SAMPLESTART:7.497653;
#SAMPLELENGTH:14.883719;
#SELECTABLE:YES;
#BPMS:0.000=129.000;
#STOPS:;
#DELAYS:;
#WARPS:;
#TIMESIGNATURES:0.000=4=4;
#TICKCOUNTS:0.000=4;
#COMBOS:0.000=1;
#SPEEDS:0.000=1.000=0.000=0;
#SCROLLS:0.000=1.000;
#FAKES:;
#LABELS:0.000=Song Start;
#BGCHANGES:;
#KEYSOUNDS:;
#ATTACKS:
;

//---------------dance-single - ----------------
#NOTEDATA:;
#CHARTNAME:;
#STEPSTYPE:dance-single;
#DESCRIPTION:;
#CHARTSTYLE:;
#DIFFICULTY:Challenge;
#METER:14;
#RADARVALUES:0.625513,0.824114,0.234567,0.422221,0.559052,560.000000,530.000000,30.000000,54.000000,0.000000,0.000000,0.000000,0.000000,0.000000,0.625513,0.824114,0.234567,0.422221,0.559052,560.000000,530.000000,30.000000,54.000000,0.000000,0.000000,0.000000,0.000000,0.000000;
#CREDIT:;
#NOTES:
0000
0000
0000
0000
,
0000
0000
0000
0000
,
0000
0000
0000
0000
,
0000
0000
0000
0000
,
1000
0000
0100
0000
0010
0000
0001
0000
0200
0000
0000
1300
0200
0000
0000
0301
,
0100
0000
0010
1000
0000
1000
0100
0000
0020
0000
0000
0000
0130
0000
2000
0000
,
0001
0000
0000
0000
0000
0000
3001
0000
0000
0100
0000
0000
1000
0000
0000
0100
0000
0000
0010
0000
1000
0010
0000
0000
,
1000
0000
0000
0000
0100
0000
0000
0000
0010
0000
0000
0000
0001
0000
0000
0000
2000
0000
0000
0000
0000
3000
0100
0000
0010
0000
0000
0000
0000
0000
0000
0000
,
0001
0000
0100
0000
0010
0000
1000
0000
0200
0000
0000
0301
0200
0000
0000
1300
,
0100
0000
0010
0001
0000
0001
0100
0000
0020
0000
0000
0000
0130
0000
0002
0000
,
1000
0000
0000
0000
0000
0000
1003
0000
0000
0100
0000
0000
0001
0000
0000
0100
0000
0000
0010
0000
0100
0010
0000
0000
,
0110
0000
0000
0000
0000
0100
0010
0000
0000
0010
0000
0000
0001
0000
1000
0010
0000
0000
0110
0000
0000
0000
0000
0000
,
2010
0000
3001
0100
0001
0100
1000
0100
,
0010
0000
0000
0000
0000
0000
1000
0000
0000
0000
0001
0000
1000
0000
0000
0000
0000
0000
0100
0000
0000
0000
0000
0000
0010
0000
0000
0000
0000
0000
0000
0000
0000
0100
0000
0000
0000
0000
0000
0000
0000
0000
0012
0000
0000
0000
0000
0000
,
0000
0000
0000
0003
0010
0000
0001
0000
0000
0000
0000
0000
0100
0000
0000
0000
0000
0000
2010
0000
0000
0000
0000
0000
0000
0000
0000
3000
0010
0000
1000
0000
0000
0000
0000
0000
0100
0000
0000
0000
0000
0000
1002
0000
0000
0000
0000
0000
,
0000
0000
0000
0013
0000
0000
0001
0000
0000
0000
0000
0000
0100
0000
0000
0000
0000
0000
0001
0000
0000
0000
0000
0000
1000
0000
0000
0000
0000
0000
0000
0000
0000
0100
0000
0000
0000
0000
0000
0000
0100
0000
0010
0000
0000
0000
0000
0000
,
0001
0000
1000
0010
0000
0000
1000
0000
0000
0100
0000
0000
1000
0000
0000
0100
0000
0000
0001
0000
0000
0100
0000
0000
,
0010
0000
0000
0000
0000
0000
0001
0000
0000
0000
1000
0000
0001
0000
0000
0000
0000
0000
0100
0000
0000
0000
0000
0000
0010
0000
0000
0000
0000
0000
0000
0000
0000
0100
0000
0000
0000
0000
0000
0000
0000
0000
2010
0000
0000
0000
0000
0000
,
0000
0000
0000
3000
0010
0000
1000
0000
0000
0000
0000
0000
0100
0000
0000
0000
0000
0000
0012
0000
0000
0000
0000
0000
0000
0000
0000
0003
0010
0000
0001
0000
0000
0000
0000
0000
0100
0000
0000
0000
0000
0000
1002
0000
0000
0000
0000
0000
,
0000
0000
0000
0103
0000
0000
0000
0000
0000
0000
0000
0000
0001
0000
0000
0000
0000
0000
0001
0000
0000
0000
0000
0000
1000
0000
0001
0000
1000
0000
0001
0000
1000
0000
0001
0000
2000
0000
0000
0000
0000
0000
0000
0000
0000
0000
0000
0000
,
3001
0000
0010
0000
0100
0000
1000
0000
0020
0000
0000
0031
0020
0000
0000
1030
,
0001
0000
1000
0100
0000
0100
0010
0000
0002
0000
0000
0000
0103
0000
0020
0000
,
1000
0000
0000
0000
0000
0000
1030
0000
0000
0100
0000
0000
0001
0000
0000
0100
0000
0000
0010
0000
0001
0010
0000
0000
,
0001
0000
0100
0000
0010
0000
1000
0000
0002
0000
0000
1003
0100
0000
0000
0000
,
1000
0000
0010
0000
0100
0000
0001
0000
0020
0000
0000
1030
0020
0000
0000
0031
,
1000
0000
0001
0100
0000
0100
0010
0000
2000
0000
0000
0000
3100
0000
0020
0000
,
0001
0000
0000
0000
0000
0000
0031
0000
0000
0100
0000
0000
1000
0000
0000
0100
0000
0000
0010
0000
1000
0010
0000
0000
,
0110
0110
2002
3003
,
0011
0000
0000
0000
0000
0000
0000
0000
0000
0000
0000
0000
0000
0000
0000
0000
0000
0000
0000
0000
0001
1000
0000
0000
,
1010
0000
0000
0000
0000
0000
0000
0000
0000
0000
0000
0000
0000
0000
0000
0000
0000
0000
0000
0000
1000
0100
0000
0000
,
1100
0000
0000
0000
0000
0000
0000
0000
0001
0100
0000
0000
0101
0000
0000
0000
0000
0000
0000
0000
0100
0010
0000
0000
,
0110
0000
0000
0000
0000
0000
0001
1000
0001
1000
0001
1000
0002
0000
0000
0000
0000
0000
1003
0000
0000
0000
0000
0000
,
0110
0000
0000
0000
0000
0000
0001
0000
0000
0000
0000
0000
1000
0000
0000
0000
0000
0000
0100
0000
0010
0100
0000
0000
,
0110
0000
0000
0000
0000
0000
1000
0000
0000
0000
0000
0000
0001
0000
0000
0000
0000
0000
1000
0000
0010
0100
0000
0000
,
0110
0000
0000
0000
0000
0000
0001
0000
0010
0100
0000
0000
0110
0000
0000
0000
0000
0000
1000
0000
0000
0001
0000
0000
,
1001
0000
0000
0000
0001
0000
0100
0000
0010
0000
0000
1000
0100
0000
0000
0100
,
0010
0000
0000
0001
0000
0000
0100
0000
0000
0001
0000
0000
1000
0000
0010
1000
0000
0000
0001
0000
0010
0001
0000
0000
,
0100
0000
0010
1000
0000
0010
1000
0000
0010
0100
0000
0000
0001
0000
0000
0010
0000
0000
0001
0000
1000
0010
0000
0000
,
1000
0000
0000
0100
0000
0000
0010
0000
0000
0001
0000
0000
1000
0000
0001
1000
0000
0000
0001
0000
1000
0001
0000
1000
,
0100
0000
0000
0000
0000
0100
0010
0001
,
1001
0000
1000
0000
0010
0000
0010
0000
0100
0001
0100
0000
0010
1000
0010
1000
,
0000
0000
0000
0001
0000
0000
0010
0000
0000
0001
0000
0000
0010
0000
0000
0001
0000
0000
1000
0000
0000
0001
0000
0000
1000
0000
0000
0000
0000
0000
0010
0000
0000
0000
0000
0000
0100
0000
0000
0000
0001
0000
0100
0000
0000
0000
0000
0000
,
0001
0000
0001
0000
0010
0000
0010
0000
0100
1000
0100
0000
1000
0010
1000
0010
,
0000
0100
0001
0100
0001
1000
0001
1000
0100
0000
0100
0000
1000
0001
1000
0001
,
0100
0000
0000
0010
0000
0000
1000
0000
0001
1000
0000
0001
0010
0000
0002
0000
0000
0000
0013
0000
0010
0001
0000
0100
,
0000
0000
0020
0000
0000
0000
0130
0000
0010
1000
0000
0001
1000
0000
0001
1000
0000
0001
0010
0000
0000
0001
0000
0000
,
0100
0000
0000
0100
0000
0010
1000
0000
0000
0100
0000
0010
0001
0000
1000
0001
0000
0100
0001
0000
1000
0001
0000
1000
,
0100
0000
1000
0100
0000
0010
0001
0000
0000
1000
0001
1000
0001
0000
0100
0001
0000
0100
0001
0000
1000
0001
0000
1000
,
0100
0000
0000
0000
0020
0000
0000
0000
0000
0000
0000
0000
0031
0000
0000
0000
0000
0000
1000
0000
0000
0000
0000
0000
0002
0000
0000
0000
0000
0000
0000
0000
0003
1000
0000
0000
0002
0000
0000
0000
0000
0000
0000
0000
0000
0000
0103
0000
,
0000
0000
0002
0000
0000
0000
0103
0000
0010
1000
0000
0001
1000
0000
0000
1000
0000
0100
0010
0000
0002
0000
0000
0103
,
0010
0000
0000
0010
0000
0000
1000
0000
0000
1000
0000
0100
0010
0000
0000
0001
0000
0100
0010
0000
0100
0010
0000
1000
,
0001
0000
0000
0000
0000
0010
0000
0000
,
0012
0000
1003
0010
1000
0010
0001
0010
,
0100
0000
0000
0000
0000
0000
0001
0000
0000
0000
1000
0000
0001
0000
0000
0000
0000
0000
0010
0000
0000
0000
0000
0000
0100
0000
0000
0000
0000
0000
0000
0000
0000
0010
0000
0000
0000
0000
0000
0000
0000
0000
0021
0000
0000
0000
0000
0000
,
0000
0000
0000
0030
0100
0000
1000
0000
0000
0000
0000
0000
0010
0000
0000
0000
0000
0000
1020
0000
0000
0000
0000
0000
0000
0000
0000
0030
0100
0000
0001
0000
0000
0000
0000
0000
0010
0000
0000
0000
0000
0000
2001
0000
0000
0000
0000
0000
,
0000
0000
0000
3010
0000
0000
1000
0000
0000
0000
0000
0000
0100
0000
0000
0000
0000
0000
1000
0000
0000
0000
0000
0000
0001
0000
0000
0000
0000
0000
0000
0000
0000
0100
0000
0000
0000
0000
0000
0000
0100
0000
0010
0000
0000
0000
0000
0000
,
1000
0000
0100
0010
0000
0000
0001
0000
0000
0010
0000
0000
0001
0000
0000
0010
0000
0000
1000
0000
0000
0010
0000
0000
,
0100
0000
0000
0000
0000
0000
1000
0000
0000
0000
0001
0000
1000
0000
0000
0000
0000
0000
0010
0000
0000
0000
0000
0000
0100
0000
0000
0000
0000
0000
0000
0000
0000
0010
0000
0000
0000
0000
0000
0000
0000
0000
1020
0000
0000
0000
0000
0000
,
0000
0000
0000
0030
0100
0000
0001
0000
0000
0000
0000
0000
0010
0000
0000
0000
0000
0000
0021
0000
0000
0000
0000
0000
0000
0000
0000
0030
0100
0000
1000
0000
0000
0000
0000
0000
0010
0000
0000
0000
0000
0000
1002
0000
0000
0000
0000
0000
,
0000
0013
0001
0000
0100
0000
0001
0000
1000
0000
0000
0100
0020
0000
0000
0000
,
0031
0000
0100
0000
0010
0000
0100
0000
2000
0000
0000
3100
0002
0000
0000
0013
,
1000
0000
0010
0100
0000
0100
0010
0000
0002
0000
0000
0000
1003
0000
0020
0000
,
0100
0000
0000
0000
0000
0000
0031
0000
0000
0010
0000
0000
1000
0000
0000
0100
0000
0000
0010
0000
0001
0010
0000
0000
,
0100
0000
1000
0000
0001
0000
0100
0000
0020
0000
0000
1030
0001
0000
0000
0000
,
1000
0000
0100
0000
0010
0000
0100
0000
0002
0000
0000
0103
2000
0000
0000
3010
,
0001
0000
0010
0100
0000
0100
0010
0000
2000
0000
0000
0000
3001
0000
0020
0000
,
0100
0000
0000
0000
0000
0000
1030
0000
0000
0010
0000
0000
0001
0000
0000
0100
0000
0000
0010
0000
1000
0010
0000
0000
,
0100
0000
0001
0000
1000
0000
0100
0000
0020
0000
0000
0031
1000
0000
0000
0000
,
0001
0000
0000
0000
;

//---------------dance-single - ----------------
#NOTEDATA:;
#CHARTNAME:;
#STEPSTYPE:dance-single;
#DESCRIPTION:;
#CHARTSTYLE:;
#DIFFICULTY:Hard;
#METER:11;
#RADARVALUES:0.491475,0.451933,0.195473,0.140740,0.160288,440.000000,415.000000,25.000000,18.000000,0.000000,0.000000,0.000000,0.000000,0.000000,0.491475,0.451933,0.195473,0.140740,0.160288,440.000000,415.000000,25.000000,18.000000,0.000000,0.000000,0.000000,0.000000,0.000000;
#CREDIT:;
#NOTES:
0000
0000
0000
0000
,
0000
0000
0000
0000
,
0000
0000
0000
0000
,
0000
0000
0000
0000
,
1000
0000
0010
0000
0100
0000
0001
0000
0010
0000
0000
0010
0001
0000
0000
0001
,
0100
0000
0010
1000
0000
0010
1000
0000
0001
0000
0000
0000
0100
0000
0010
0000
,
1000
0000
0100
0010
0001
0100
0010
0010
,
1000
0000
0100
0000
0010
0000
0001
0000
0100
0000
0000
0010
0000
0000
1000
0000
,
0001
0000
0010
0000
0100
0000
1000
0000
0010
0000
0000
0010
1000
0000
0000
1000
,
0100
0000
0010
0001
0000
0010
0001
0000
1000
0000
0000
0000
0100
0000
0010
0000
,
0001
0000
0100
0010
1000
0100
0010
0010
,
0001
0000
0100
0010
0100
0000
0110
0000
,
2001
0000
3001
0100
0001
0100
0010
1000
,
0100
0000
0001
0000
0100
0000
1000
0000
0001
0000
0000
0100
0000
0000
2010
0000
,
0000
3100
0010
0012
0000
0103
0010
0210
,
0000
0310
0000
0000
1000
0000
0100
0000
1000
0000
0000
0001
0000
0000
0100
0000
,
0001
1000
0001
1000
0100
0010
0001
0100
,
1000
0000
0100
0000
0010
0000
1000
0000
0001
0000
0000
0010
0000
0000
0012
0000
,
0000
0103
0010
2010
0000
3100
0010
0210
,
0000
0310
0000
0000
0001
0000
0100
0000
0010
0000
0000
0000
1001
0000
0000
0000
,
0010
0000
0001
0000
0100
0000
0010
0000
1000
0000
0000
1000
0100
0000
0000
0100
,
0010
0000
0001
1000
0000
0001
1000
0000
0010
0000
0000
0000
0100
0000
0010
0000
,
1000
0000
0001
0100
1000
0100
0001
0001
,
1000
0000
0100
0000
0010
0000
0001
0000
0100
0000
0000
0010
0000
0000
1000
0000
,
0010
0000
1000
0000
0100
0000
0010
0000
0001
0000
0000
0001
0100
0000
0000
0100
,
0010
0000
1000
0001
0000
1000
0001
0000
0010
0000
0000
0000
0100
0000
0010
0000
,
0001
0000
1000
0100
0001
0100
1000
1000
,
0010
0010
2002
3003
,
0011
0000
0000
0000
0000
0000
0000
1000
,
1010
0000
0000
0000
0000
0000
0000
1000
,
1100
0000
0000
0001
0101
0000
0000
0100
,
0110
2002
0000
3003
,
1000
0000
0100
0000
0001
0000
0001
0100
,
1000
0000
0010
0000
0001
0000
0001
0010
,
1000
0000
1000
0100
0001
0000
0001
0100
,
1000
0000
0000
0000
0010
0000
0000
0000
0100
0000
0000
0001
1000
0000
0000
0001
,
1000
0100
1000
0100
0010
0100
1000
0000
,
0001
0100
0001
0100
0010
0100
0001
0000
,
1000
0100
0010
0001
1000
0010
0100
0001
,
1000
0000
0000
0000
0000
1000
0100
0010
,
0001
0000
0001
0000
0100
0000
0100
0000
0010
0000
0010
0000
1000
0000
0000
0001
,
0000
0010
0010
0001
0100
0010
1000
0000
,
1000
0000
1000
0000
0100
0000
0100
0000
0010
0000
0010
0000
0001
0000
0000
1000
,
0000
0010
0010
0100
0001
0010
0100
0000
,
1000
0010
1000
0010
1000
0000
0100
0010
,
0001
0000
0010
0001
0100
0001
0010
0000
,
0001
0100
0010
0100
0001
1000
0100
0010
,
0100
1000
0001
0100
1000
0100
0001
0010
,
0100
0000
0100
0010
0100
0000
0100
0000
,
1000
0000
0001
0100
0001
0100
0010
1000
,
0100
0100
0010
0010
0100
0100
1000
0001
,
0100
0000
0000
0000
0000
0010
0000
0000
,
1002
0000
1003
0100
1000
0100
0010
0001
,
0100
0000
1000
0000
0100
0000
0001
0000
1000
0000
0000
0100
0000
0000
0021
0000
,
0000
0031
1000
1020
0000
0130
0001
0201
,
0000
0310
0000
0000
1000
0000
0100
0000
1000
0000
0000
0010
0000
0000
0100
0000
,
0001
1000
0001
1000
0100
0010
0001
1000
,
0010
0000
0001
0000
0010
0000
0100
0000
0001
0000
0000
0100
0000
0000
1020
0000
,
0000
1030
0001
0021
0000
0130
1000
1200
,
0000
0310
0000
0000
0001
0000
0100
0000
0010
0000
0000
0000
1001
0000
0000
0000
,
1000
0000
0010
0000
1000
0000
0100
0000
0010
0000
0000
0010
0001
0000
0000
0001
,
1000
0000
0001
0100
0000
0001
0100
0000
0010
0000
0000
0000
1000
0000
0100
0000
,
0001
0000
0100
0001
0100
1000
0001
0001
,
1000
0000
0100
0000
0010
0000
0001
0000
0100
0000
0000
0010
0000
0000
1000
0000
,
0001
0000
0010
0000
0001
0000
0100
0000
0010
0000
0000
0010
1000
0000
0000
1000
,
0001
0000
1000
0100
0000
1000
0100
0000
0010
0000
0000
0000
0001
0000
0100
0000
,
1000
0000
0100
1000
0100
0001
1000
1000
,
0100
0010
0001
0100
0010
0000
1001
0000
,
0100
0000
0000
0000
;

//---------------dance-single - ----------------
#NOTEDATA:;
#CHARTNAME:;
#STEPSTYPE:dance-single;
#DESCRIPTION:;
#CHARTSTYLE:;
#DIFFICULTY:Medium;
#METER:7;
#RADARVALUES:0.326160,0.345596,0.054732,0.132922,0.031276,292.000000,285.000000,7.000000,17.000000,0.000000,0.000000,0.000000,0.000000,0.000000,0.326160,0.345596,0.054732,0.132922,0.031276,292.000000,285.000000,7.000000,17.000000,0.000000,0.000000,0.000000,0.000000,0.000000;
#CREDIT:;
#NOTES:
0000
0000
0000
0000
,
0000
0000
0000
0000
,
0000
0000
0000
0000
,
0000
0000
0000
0000
,
0001
0100
0010
1000
,
0100
0000
0000
1000
0000
0000
0100
0000
0010
0000
0000
0000
0001
0000
0000
0000
,
0100
0000
0010
0000
1000
0000
0001
0001
,
0010
0001
0100
0010
,
1000
0100
0010
0001
,
0100
0000
0000
0001
0000
0000
0100
0000
0010
0000
0000
0000
1000
0000
0000
0000
,
0100
0000
0010
0000
0001
0000
1000
1000
,
0010
0000
0000
0110
,
1002
0103
0100
0010
,
1000
0000
0100
0000
0010
0000
0100
2000
,
0000
3001
0100
0002
0000
1003
0100
0020
,
0000
0031
0000
0000
1000
0000
0001
0000
1000
0000
0000
0000
0010
0000
0000
0000
,
1000
0100
0100
0010
,
0001
0000
0100
0000
0010
0000
1000
0200
,
0000
1300
0001
0200
0000
0301
1000
0020
,
0000
0030
0000
0000
0000
0000
0000
0000
0010
0000
0000
0000
1001
0000
0000
0000
,
1000
0010
0100
0001
,
0010
0000
0000
0100
0000
0000
0010
0000
0001
0000
0000
0000
0100
0000
0000
0000
,
1000
0000
0100
0000
0001
0000
0010
0010
,
0100
1000
0010
0100
,
0001
0010
0100
1000
,
0010
0000
0000
0100
0000
0000
0010
0000
1000
0000
0000
0000
0100
0000
0000
0000
,
0001
0000
0100
0000
1000
0000
0010
0010
,
0100
0100
0210
0000
,
0301
0000
0000
0000
0000
0000
0000
1000
,
0010
0000
0000
0000
0000
0000
0000
0001
,
0010
0000
0000
1000
0100
0000
0000
0010
,
0001
0022
0000
0033
,
0001
0000
1000
0000
0001
0000
1000
0010
,
0100
0000
0010
0000
0100
0000
0010
0100
,
0001
0000
0010
0100
1000
0000
0010
0100
,
0001
1000
0001
0010
,
0010
0000
0001
0000
1000
0000
0010
1000
,
0010
0000
0100
0000
0001
0000
0010
0001
,
0010
0000
0100
1000
0100
0000
0010
0001
,
1000
0000
0000
0000
0000
1000
0100
0010
,
0001
0100
1000
0100
,
0001
0000
1000
0000
0100
0010
0100
1000
,
0001
0100
1000
0100
,
0010
0000
1000
0000
0001
1000
0010
1000
,
0100
1000
0010
1000
,
0100
0010
0001
0100
,
0010
1000
0001
0000
0010
0000
0001
0000
,
0100
0010
0100
0000
0010
1000
0001
1000
,
0100
1000
1000
0001
,
0100
0000
0010
1000
0001
0000
0010
0000
,
1000
0000
0010
0000
0001
0000
0100
0010
,
0100
0000
0000
0000
0000
0010
0000
0000
,
2001
3100
0100
0010
,
0001
0000
0100
0000
0001
0000
0010
0002
,
0000
1003
0010
2000
0000
3001
0010
0200
,
0000
0310
0000
0000
0100
0000
1000
0000
0100
0000
0000
0000
1000
0000
0000
0000
,
0001
0100
0100
0010
,
1000
0000
0001
0000
0010
0000
0001
0200
,
0000
0310
1000
0200
0000
0310
0001
2000
,
0000
3000
0000
0000
0000
0000
0000
0000
0000
0000
0000
0000
0110
0000
0000
0000
,
0001
0010
0001
0100
,
0010
0000
0000
1000
0000
0000
0001
0000
1000
0000
0000
0000
0100
0000
0000
0000
,
0001
0000
0100
0000
1000
0000
0010
0010
,
0100
0001
0010
0001
,
1000
0010
1000
0100
,
0010
0000
0000
0001
0000
0000
1000
0000
0001
0000
0000
0000
0100
0000
0000
0000
,
1000
0000
0100
0000
0001
0000
0010
0010
,
0100
1000
0010
0100
,
0001
0000
0000
0000
;

//---------------dance-single - ----------------
#NOTEDATA:;
#CHARTNAME:;
#STEPSTYPE:dance-single;
#DESCRIPTION:;
#CHARTSTYLE:;
#DIFFICULTY:Easy;
#METER:4;
#RADARVALUES:0.208877,0.239259,0.086008,0.046913,0.000000,187.000000,176.000000,11.000000,6.000000,0.000000,0.000000,0.000000,0.000000,0.000000,0.208877,0.239259,0.086008,0.046913,0.000000,187.000000,176.000000,11.000000,6.000000,0.000000,0.000000,0.000000,0.000000,0.000000;
#CREDIT:;
#NOTES:
0000
0000
0000
0000
,
0000
0000
0000
0000
,
0000
0000
0000
0000
,
0000
0000
0000
0000
,
0001
1000
0010
1000
,
0100
0000
0010
0000
,
0001
0100
0010
1000
,
0000
0100
0010
0001
,
1000
0001
0010
0001
,
0100
0000
0010
0000
,
1000
0100
0010
0001
,
1000
0000
0000
0010
,
2002
3003
1000
0010
,
1000
0100
0010
0000
,
0110
0000
1001
0000
,
0001
1000
0010
0000
,
1000
1000
0001
0010
,
0001
0100
0010
0000
,
1001
0000
0110
0000
,
0001
0000
0000
0000
,
1000
0100
1000
0010
,
0100
0000
0001
0000
,
0010
0001
0100
0010
,
0000
1000
0100
0010
,
0001
0100
0001
0010
,
0100
0000
1000
0000
,
0010
1000
0100
0010
,
0001
0001
2000
0000
,
3001
0000
0000
0000
,
0010
0000
0000
0000
,
0001
0000
0100
0000
,
0010
0200
0000
0300
,
1001
0000
0100
0000
,
0010
0000
1000
0000
,
0100
0000
0010
0000
,
0001
0000
0100
0010
,
0100
0000
0010
0000
,
1000
0000
0001
0000
,
0010
0001
0100
0010
,
1000
0000
0000
0000
,
1000
1000
0001
0001
,
0100
0000
0010
0000
,
1000
1000
0001
0001
,
0010
0000
0100
0000
,
1000
0000
0001
0000
,
0010
0000
0001
0000
,
0100
0000
0010
0000
,
1000
0000
0100
0000
,
1000
0001
0001
0000
,
0100
0010
1000
0000
,
0001
0001
0010
0010
,
0100
0000
0000
0000
,
2002
3003
0001
0010
,
0001
0100
0010
0000
,
1010
0000
0101
0000
,
0100
0010
1000
0000
,
0001
0001
1000
0010
,
0100
0001
0010
0000
,
0011
0000
1100
0000
,
0010
0000
0000
0001
,
1000
0010
0100
0001
,
0010
0000
0001
0000
,
0100
0010
1000
0100
,
0000
0010
0001
1000
,
0001
0100
0010
1000
,
0100
0000
0010
0000
,
0100
1000
0001
0100
,
0000
0010
1000
0001
,
0100
0000
0000
0000
;

//---------------dance-single - ----------------
#NOTEDATA:;
#CHARTNAME:;
#STEPSTYPE:dance-single;
#DESCRIPTION:;
#CHARTSTYLE:;
#DIFFICULTY:Beginner;
#METER:1;
#RADARVALUES:0.096061,0.132922,0.015638,0.000000,0.000000,86.000000,84.000000,2.000000,0.000000,0.000000,0.000000,0.000000,0.000000,0.000000,0.096061,0.132922,0.015638,0.000000,0.000000,86.000000,84.000000,2.000000,0.000000,0.000000,0.000000,0.000000,0.000000,0.000000;
#CREDIT:;
#NOTES:
0000
0000
0000
0000
,
0000
0000
0000
0000
,
0000
0000
0000
0000
,
0000
0000
0000
0000
,
0001
0000
0010
0000
,
0001
0000
0000
0000
,
1000
0000
1000
0000
,
0001
0000
0000
0000
,
1000
0000
0010
0000
,
1000
0000
0000
0000
,
0001
0000
0001
0000
,
1000
0000
0000
0000
,
1001
0000
0000
0000
,
1000
0000
0000
0000
,
0010
0000
0010
0000
,
0010
0000
0000
0000
,
1000
0000
0000
0000
,
0001
0000
0000
0000
,
0010
0000
0010
0000
,
0010
0000
0000
0000
,
0001
0000
0100
0000
,
0001
0000
0000
0000
,
1000
0000
1000
0000
,
0001
0000
0000
0000
,
1000
0000
0100
0000
,
1000
0000
0000
0000
,
0001
0000
0001
0000
,
1000
0000
0000
0000
,
0001
0000
0000
0000
,
0010
0000
0000
0000
,
0001
0000
1000
0000
,
0001
0000
0000
0000
,
1000
0000
0000
0000
,
0010
0000
0000
0000
,
1000
0000
0001
0000
,
1000
0000
0000
0000
,
0100
0000
0000
0000
,
0010
0000
0000
0000
,
0001
0000
1000
0000
,
0001
0000
0000
0000
,
1000
0000
0000
0000
,
0100
0000
0000
0000
,
0010
0000
0000
0000
,
0001
0000
0000
0000
,
0100
0000
0000
0000
,
0010
0000
0000
0000
,
1000
0000
0000
0000
,
0100
0000
0000
0000
,
1000
0000
0000
0000
,
0001
0000
0000
0000
,
0100
0000
0000
0000
,
0100
0000
0000
0000
,
1001
0000
0000
0000
,
0010
0000
0000
0000
,
1000
0000
1000
0000
,
1000
0000
0000
0000
,
0010
0000
0000
0000
,
0100
0000
0000
0000
,
0001
0000
0001
0000
,
0001
0000
0000
0000
,
0010
0000
0001
0000
,
0010
0000
0000
0000
,
0001
0000
0001
0000
,
1000
0000
0000
0000
,
0010
0000
1000
0000
,
0010
0000
0000
0000
,
1000
0000
1000
0000
,
0001
0000
0000
0000
,
0010
0000
0000
0000
;
