#TITLE:BLUST OF WIND;
#SUBTITLE:;
#ARTIST:Anemo=Aspel by MLREC.;
#TITLETRANSLIT:;
#SUBTITLETRANSLIT:;
#ARTISTTRANSLIT:;
#GENRE:Crossover House;
#CREDIT:;
#BANNER:BLUST OF WIND.png;
#BACKGROUND:BLUST OF WIND-bg.png;
#LYRICSPATH:;
#CDTITLE:cdtitle.png;
#MUSIC:BLUST OF WIND.ogg;
#OFFSET:-0.023348;
#SAMPLESTART:14.918900;
#SAMPLELENGTH:11.586207;
#SELECTABLE:YES;
#BPMS:0.000000=145.000000
;
#STOPS:
;
#BGCHANGES:;
#KEYSOUNDS:;
#ATTACKS:;

//---------------dance-single - ----------------
#NOTES:
     dance-single:
     :
     Challenge:
     14:
     0.653820,0.746352,0.263715,0.816667,0.820920,538.000000,507.000000,31.000000,96.000000,10.000000,0.000000,0.653820,0.746352,0.263715,0.816667,0.820920,538.000000,507.000000,31.000000,96.000000,10.000000,0.000000:
0000
0000
0000
0000
,
0001
0000
0000
0000
0100
0000
0010
1000
0002
0000
0000
0013
0000
0000
0002
0000
,
0100
0000
0000
0000
0203
0000
0000
0000
2300
0000
0000
3100
0000
0000
0002
0000
,
0010
0000
0013
0200
1000
0000
1300
0100
,
0010
0001
0000
0000
0001
0000
0100
0000
0010
0000
0000
0010
1000
0000
0001
0000
,
1000
0000
0000
0000
0100
0000
0010
0001
2000
0000
0000
3010
0000
0000
2000
0000
,
0100
0000
0000
0000
3200
0000
0000
0000
0302
0000
0000
0103
0000
0000
2000
0000
,
0010
0000
3010
0200
0001
0000
0301
0100
,
0000
0000
0000
0000
0000
0000
0110
0000
0000
0000
0000
0000
0110
0000
0000
0000
0000
0000
0000
0000
0MM0
0000
0000
0000
1001
0000
0000
0000
0000
0000
0000
0000
0000
1001
0000
0000
0000
0000
0000
1000
0000
0000
0100
0000
0000
0000
0000
0000
,
0012
0000
0000
1003
0100
2000
0000
3010
2000
0000
0000
3001
0100
0002
0000
0013
,
0001
0000
1000
0001
0000
0100
0000
0020
0000
0000
0000
0230
0000
0000
0301
0000
,
2000
0000
0000
3200
0000
0000
0301
0000
0200
0000
0000
0320
0000
0000
0031
0000
,
2000
0000
0000
0000
0010
0000
0000
0000
0001
0000
0000
0000
3100
0000
1000
0010
,
2000
0000
0000
3001
0100
0002
0000
0013
0002
0000
0000
1003
0100
2000
0000
3010
,
1000
0000
0001
0100
0000
1000
0000
0200
0000
0000
0000
0000
0301
0000
1000
0000
,
0200
0000
0000
0320
0000
0000
0130
0000
0020
0000
0000
0000
0032
0000
0000
0000
,
4003
0000
3000
0001
0004
0000
0003
0100
,
0400
0000
0000
0000
0300
0000
0010
0000
0040
0000
0000
0000
1030
0010
0000
0100
,
0002
0000
0000
0000
1000
0000
0000
0000
1003
0000
0000
0002
0000
0000
0013
0000
,
0002
0000
0000
0203
0000
0000
1300
0000
0200
0000
0000
0300
0010
0100
0000
0001
,
2000
0000
0000
0000
0001
0000
0000
0000
3001
0000
0000
2000
0000
0000
3010
0000
,
0002
0000
0000
0000
0013
0000
1000
0010
1000
0000
1000
0001
1000
0000
0100
0000
,
0100
0000
0000
0000
2000
0000
0000
0000
3002
0000
0000
2003
0000
0000
3010
0000
,
0200
0000
0300
0001
0200
0000
0000
0000
0310
0000
0000
2000
0000
0000
3001
0000
,
0020
0000
0000
0000
0130
0000
0000
0000
0020
0000
0000
0031
0000
0000
2000
0000
,
0002
0000
3000
0200
0000
0300
2000
3003
,
0001
0000
1000
0000
0001
0000
0000
0001
0100
0000
0000
1000
0000
0000
0100
0000
,
0001
0000
1000
0000
0100
0000
0010
0001
0000
0000
0001
0100
0000
0000
0100
0000
,
0010
0000
0000
0010
1000
0000
0010
0000
1000
0100
0000
0010
0000
0000
0001
0000
,
0100
0000
0010
1000
0010
1000
0001
1000
0200
0000
0000
0320
0000
0000
0031
0000
,
0012
0000
0000
1003
0100
2000
0000
3010
2000
0000
0000
3001
0100
0002
0000
0000
,
1003
0000
0001
1000
0000
0100
0000
0020
0000
0000
0031
0000
1000
0000
0001
0000
,
0200
0000
0000
0320
0000
0000
0130
0000
0020
0000
0000
0000
2030
0000
0000
0000
,
3100
0000
0000
0100
1000
0000
0001
0000
0100
0000
0000
0010
0100
0000
0001
0000
,
1000
0000
0000
0100
0010
0000
0001
0000
1000
0000
0010
0000
0100
0000
0100
0000
,
0101
0000
0000
11MM
0000
0000
1000
0000
0100
0000
0000
0100
0000
0000
0010
0001
,
1000
0000
0001
0000
0000
0000
0001
0000
0100
0000
0000
M00M
0000
0000
0100
0000
1000
0000
0000
0000
0010
0000
0000
0000
0001
0000
0000
0000
0010
0000
0000
0000
,
1000
0000
0000
1000
0010
0000
0100
0001
2000
0000
0000
0000
3200
0000
0000
0000
,
0310
0000
0000
0010
0001
0000
0200
0000
0000
0000
1300
0000
0100
0000
0001
0000
,
1001
0000
0000
0000
0000
0000
0000
0000
0000
0000
0000
0000
0000
0000
0000
0000
0000
0000
0000
0000
0000
0000
0000
0000
0000
0000
0000
0000
0000
0000
0000
0000
0000
0000
0000
0000
0011
0000
0000
0000
0000
0000
0000
0000
0000
0000
0000
0000
0000
0000
0000
0000
0000
0000
0000
0000
0000
0000
0000
0000
1100
0000
0000
0000
0000
0000
0000
0000
0000
0000
0000
0000
0000
0000
0000
0000
0000
0000
0000
0000
0000
0000
0000
0000
1100
0000
0000
0000
0000
0000
0000
0000
0000
0000
0000
0000
0000
0000
0000
0000
0000
0000
0000
0000
0000
0000
0000
0000
0000
0000
0000
0000
0000
0000
MM00
0000
0000
0000
0000
0000
0001
0000
0000
0000
0000
0000
0000
0000
0000
0000
0000
0000
0000
0000
0000
0000
0000
0000
0000
0000
0000
0000
0000
0000
0010
0000
0000
0000
0000
0000
0000
0000
0000
0000
0000
0000
0000
0000
0000
0000
0001
0000
0000
0000
0000
0000
0000
0000
0000
0000
0000
0000
0000
0000
0000
0000
1000
0000
0000
0000
0000
0000
0000
0000
0000
0000
0000
0000
0000
0000
0000
0000
,
0010
0000
0000
0010
0100
0001
0100
0001
1000
0000
0001
0100
0001
0000
0010
0001
,
1000
0010
0000
1000
0001
0000
1000
0000
0100
0010
0000
0100
1000
0000
0001
0000
,
0100
0000
0000
0010
1000
0000
0100
0000
0010
0000
0000
0010
0100
0000
0010
0001
,
2000
0001
0001
3001
,
1001
0000
1010
0000
1100
0000
0101
0000
0011
0000
1010
0000
,
2002
0000
0000
0000
0000
0000
3003
0000
0000
1000
0001
1000
,
0000
0000
0000
0010
0000
0000
1000
0000
0000
0100
0000
0000
0000
0000
0000
0010
0000
0000
0000
0000
0000
0001
0000
0000
0000
0000
0000
1000
0000
0000
0000
0000
0000
0100
0000
0000
0010
0000
0000
0000
0001
0000
0000
0000
0200
0000
0000
0000
,
0000
0000
0000
0310
0000
0000
0100
0000
0000
0000
0000
0000
0101
0000
0000
0000
1100
0000
0000
0000
0101
0000
0000
0000
,
1001
0000
0000
1000
0100
0000
0010
0000
0001
0000
0000
0001
0100
0000
0010
0000
,
1000
0000
0001
0000
0001
1000
0000
0100
0000
0010
0000
0001
1000
0001
1000
0000
,
0001
0000
0010
0100
0000
1000
0000
1000
0010
0000
0010
0100
0000
0001
0000
0001
,
2000
0000
0000
0000
3001
0000
0000
1000
0100
0000
0001
0000
0100
1000
0000
0020
,
0000
0130
0010
0100
0001
1000
0000
0200
0000
1300
0100
0010
0100
0010
0001
0000
,
2000
3000
0001
0100
0000
1000
0000
0002
0000
0000
0013
0000
1000
0000
0000
1000
,
0100
0000
0010
0000
0001
0000
0000
0001
0100
0010
0000
1000
0000
0001
0000
0000
,
1001
0000
0000
0000
1000
0000
0001
0000
0020
0000
0000
2030
0000
0000
3010
0000
,
0001
0000
0000
0001
0100
0010
0000
1000
0000
0001
0000
0100
0000
0000
0010
0000
,
2010
0000
0000
3010
0100
0002
0000
0013
0002
0000
0000
0013
0100
2000
0000
3010
,
1000
0000
0001
0100
0000
0010
0000
2000
0000
0000
0000
3200
0000
0000
0310
0000
,
0002
0000
0000
0203
0000
0000
1300
0000
0200
0000
0000
0320
0000
0000
1030
0000
,
0100
0000
0000
0100
0001
0000
0100
0000
2000
0000
0000
3100
0010
0000
0001
0000
,
0012
0000
0000
0103
0010
2000
0000
3001
2000
0000
0000
3100
0010
0002
0000
1003
,
0001
0000
1000
0010
0000
0001
0000
0020
0000
0000
0000
0000
1030
0000
0100
0000
,
0020
0000
0000
0230
0000
0000
0310
0000
0100
0000
1000
0000
0001
0000
0100
0000
,
0110
0000
0000
0010
1000
0000
0001
1000
0100
0000
0000
0010
0001
0000
1000
0000
,
0010
0000
0000
0010
0100
0000
0010
0000
1000
0000
0000
0001
0010
0000
0001
0000
,
1000
0000
0000
1000
0010
0000
0100
0000
0001
0000
0000
0000
1000
0000
0001
0000
,
0000
0000
1000
0100
0010
0100
0010
0100
1000
0001
1000
0001
1000
0010
1000
0200
,
0000
0000
0000
0000
0000
0000
0000
0000
0300
0000
0000
0010
0001
0000
1000
0000
,
0000
0000
0001
1000
0001
1000
0000
0000
0101
0000
0000
1010
0000
0000
0110
0000
,
1001
0000
0000
M00M
0000
0000
0000
0000
0000
0000
0000
0000
0000
0000
0000
0000
;

//---------------dance-single - ----------------
#NOTES:
     dance-single:
     :
     Hard:
     11:
     0.487326,0.535938,0.178646,0.680556,0.404080,401.000000,380.000000,21.000000,80.000000,0.000000,0.000000,0.487326,0.535938,0.178646,0.680556,0.404080,401.000000,380.000000,21.000000,80.000000,0.000000,0.000000:
0000
0000
0000
0000
,
1000
0000
0000
0000
0001
0000
0100
0000
0020
0000
0000
1030
0000
0000
2000
0000
,
0100
0000
0000
0000
3200
0000
0000
0000
0302
0000
0000
0103
0000
0000
0200
0000
,
1000
0000
1300
0002
0100
0000
0103
0000
,
0001
0000
0010
0000
0100
0000
0000
0000
1000
0000
0000
0010
0000
0000
0100
0000
,
0001
0000
0000
0000
1000
0000
0100
0000
0020
0000
0000
0031
0000
0000
0002
0000
,
0100
0000
0000
0000
0203
0000
0000
0000
2300
0000
0000
3100
0000
0000
0200
0000
,
0001
0000
0301
2000
0100
0000
3100
0000
,
0000
0000
1001
0000
1001
0000
0000
0000
0001
0000
0000
0100
0000
0000
0010
0000
,
1010
0000
0000
1000
0100
0000
0000
0000
0011
0000
0000
0001
0100
0000
0000
0000
,
0001
0000
1000
0001
0000
0100
0000
0020
0000
0000
0000
0230
0000
0000
0301
0000
,
2000
0000
0000
3200
0000
0000
0310
0000
0002
0000
0000
2003
0000
0000
3010
0000
,
2000
0000
0010
0000
0001
0000
3100
0010
,
0011
0000
0000
0001
0100
0000
0000
0000
1010
0000
0000
1000
0100
0000
0000
0000
,
0010
0000
0001
0100
0000
0010
0000
0200
0000
0000
0000
0000
1300
0000
0100
0000
,
0002
0000
0000
0203
0000
0000
0301
0000
2000
0000
0000
0000
3200
0000
0000
0000
,
0340
0030
0004
0003
,
0400
0300
0040
1030
,
1002
0000
0000
0000
1000
0000
0000
0000
1003
0000
0000
0002
0000
0000
0013
0000
,
2000
0000
0000
3020
0000
0000
0031
0000
0200
0000
0000
0000
0310
0000
0000
0000
,
2001
0000
0000
0000
0001
0000
0000
0000
3001
0000
0000
2000
0000
0000
3010
0000
,
0002
0000
0013
0100
0010
1000
0001
0000
,
1001
0000
0000
0000
2000
0000
0000
0000
3002
0000
0000
0023
0000
0000
1030
0000
,
0020
0000
0000
0000
0032
0000
0000
0000
0103
0000
0000
0020
0000
0000
1030
0000
,
0020
0000
0000
0000
0130
0000
0000
0000
0002
0000
0000
1003
0000
0000
2000
0000
,
0000
0000
0000
3020
0000
0000
0130
0000
,
0010
0000
1000
0000
0001
0000
0000
0000
1000
0000
0000
0100
0000
0000
1000
0000
,
0001
0000
0000
0000
1000
0000
0100
0000
0001
0000
0000
0100
0000
0000
1000
0000
,
0010
0000
0000
0000
0100
0000
0000
0000
0010
0000
0000
1000
0000
0000
0001
0000
,
0010
0000
0000
0000
0100
0000
1000
0000
0020
0000
0000
0230
0000
0000
0301
0000
,
1002
0003
2000
3000
,
0001
0000
1000
0001
0000
1000
0000
0002
0000
0000
0000
0000
0013
0000
0100
0000
,
2000
0000
0000
3002
0000
0000
1003
0000
0002
0000
0000
0000
0203
0000
0000
0000
,
0302
0100
0010
0100
,
1003
0000
0010
0100
0001
0000
0010
0000
,
1001
0000
0000
1001
0000
0000
0001
0000
0100
0000
0000
0100
0000
0000
0010
0000
,
1000
0000
0000
0000
1000
0000
0001
0010
0000
0000
0001
0000
0100
0000
0000
0010
,
1000
0000
0001
2000
0100
0000
3002
0000
,
0010
0000
1003
0002
0000
0103
0010
1000
,
1001
0000
0000
0000
0000
0000
0000
0000
0000
0001
0000
0000
0000
0000
0000
0100
0000
0000
0000
0000
0000
0100
0000
0000
0000
0000
0000
0000
0000
0000
0001
0000
0000
0000
0000
0000
0100
0000
0000
0000
0010
0000
0000
0000
0100
0000
0000
0000
,
0001
0000
0001
0010
1000
0010
0001
0000
,
1000
0010
0100
0000
0010
0100
0001
0000
,
1000
0000
0000
0100
0000
0000
0010
0000
0001
0000
0000
0000
0100
0000
0010
0000
,
2000
0001
0001
3001
,
1000
0000
0100
0000
0001
0000
1000
0000
0010
0000
0001
0000
,
2000
0000
0000
0000
0000
0000
3000
0000
0000
0001
1000
0001
,
0000
0000
0000
1000
0000
0000
0001
0000
0000
1000
0000
0000
0000
0000
0000
0100
0000
0000
0000
0000
0000
0010
0000
0000
0000
0000
0000
0001
0000
0000
0000
0000
0000
0100
0000
0000
0000
0000
0000
0000
0000
0000
0000
0000
2002
0000
0000
0000
,
0000
0000
0000
3003
0000
0000
0100
0000
0100
0000
0100
0000
,
2001
0010
0100
3010
,
1000
0000
0001
0000
0001
0000
1000
0001
0000
0100
0000
0000
0001
0000
1000
0000
,
0100
0000
0010
0001
0000
0001
0000
0000
0100
0000
0010
1000
0000
1000
0000
0001
,
2000
0000
0000
0000
3100
0000
0000
0100
1000
0000
0010
0000
0100
0000
0000
0001
,
0000
0000
1000
0000
0100
0000
0000
0010
0000
0000
0100
0000
1000
0000
0010
0000
,
0100
0000
0001
0000
0010
0000
0000
2000
0000
0000
3010
0000
0001
0000
0000
0000
,
0010
0100
1000
0000
0010
0100
0001
0000
,
2001
0000
0000
0000
0001
0000
0000
0000
3002
0000
0000
0203
0000
0000
0310
0000
,
2000
0000
0002
3003
,
0011
0000
0000
0001
0100
0000
0000
0000
1010
0000
0000
1000
0100
0000
0000
0000
,
1000
0000
0001
1000
0000
0010
0000
0200
0000
0000
0000
0302
0000
0000
1003
0000
,
0002
0000
0000
0023
0000
0000
0130
0000
2000
0000
0000
3020
0000
0000
0130
0000
,
0002
0000
0000
0000
0103
0000
0010
0000
1000
0000
0000
0001
0000
0000
1000
0000
,
1010
0000
0000
1000
0100
0000
0000
0000
0011
0000
0000
0001
0100
0000
0000
0000
,
0010
0000
1000
0001
0000
0010
0000
0200
0000
0000
0000
0000
0301
0000
0100
0000
,
2000
0000
0000
3200
0000
0000
0310
0000
0002
0000
0000
0000
0203
0000
0000
0000
,
0301
0000
0000
0000
1000
0000
0001
0000
0100
0000
0000
0010
0000
0000
1000
0000
,
0100
0000
0000
0001
0000
0000
0100
0000
1000
0000
0000
0010
0000
0000
0100
0000
,
0001
0000
0000
0010
0000
0000
0001
0000
1000
0000
0000
0010
0000
0000
1000
0000
,
0000
0000
0001
0000
0100
0000
1000
0000
0100
0000
0001
0000
0010
0000
0100
2000
,
0000
0000
0000
3001
,
0000
0000
0001
1000
0001
1000
0000
0000
0100
0000
0000
0010
0000
0000
0010
0000
,
1001
0000
0000
0000
;

//---------------dance-single - ----------------
#NOTES:
     dance-single:
     :
     Medium:
     8:
     0.381597,0.446615,0.110590,0.697570,0.153125,314.000000,301.000000,13.000000,82.000000,0.000000,0.000000,0.381597,0.446615,0.110590,0.697570,0.153125,314.000000,301.000000,13.000000,82.000000,0.000000,0.000000:
0000
0000
0000
0000
,
0001
0000
0000
0000
1000
0000
0000
0000
0020
0000
0000
0130
0000
0000
0002
0000
,
0000
0000
0000
0000
2003
0000
0000
0000
3002
0000
0000
0013
0000
0000
0200
0000
,
0000
0300
1000
0002
0000
0000
0103
0000
,
0010
0000
0000
0000
1000
0000
0000
0000
0001
0000
0000
0001
0000
0000
0001
0000
,
1000
0000
0000
0000
0001
0000
0000
0000
0020
0000
0000
0130
0000
0000
2000
0000
,
0000
0000
0000
0000
3002
0000
0000
0000
2003
0000
0000
3010
0000
0000
0200
0000
,
0000
0300
0001
2000
0000
0000
3100
0000
,
0000
0000
0100
0000
1000
0000
0000
0000
1000
0000
0000
0010
0000
0000
0100
0000
,
0002
0100
2003
0100
,
3001
0000
1000
0100
0010
0000
0001
0100
,
0020
0000
0000
2030
0000
0000
3001
0000
2000
0000
0000
3200
0000
0000
0310
0000
,
0002
0000
0000
0000
0013
0000
0010
0001
,
2000
0010
3002
0010
,
1003
0000
0001
0010
0100
0000
0100
1000
,
0002
0000
0000
0203
0000
0000
0301
0000
0200
0000
0000
0000
0320
0000
0000
0000
,
4030
3000
0400
0300
,
0040
0030
0004
0003
,
2002
0000
0000
0000
3003
0000
0000
0000
0001
0000
0000
0200
0000
0000
0310
0000
,
2000
0000
0000
3200
0000
0000
0310
0000
0200
0000
0000
0000
1300
0000
0000
0000
,
2002
0000
0000
0000
3003
0000
0000
0000
1000
0000
0000
0020
0000
0000
0130
0000
,
0002
0000
0013
0000
0001
0100
0010
0000
,
1000
0000
0000
0000
0002
0000
0000
0000
2003
0000
0000
3200
0000
0000
0310
0000
,
0002
0000
0000
0000
0203
0000
0000
0000
0301
0000
0000
0200
0000
0000
0310
0000
,
2000
0000
0000
0000
3001
0000
0000
0000
2000
0000
0000
3100
0000
0000
0010
0000
,
0002
0000
2000
3003
,
0001
0000
1000
0000
0001
0100
0010
0000
,
1000
0000
0001
0010
0100
0000
0100
0010
,
0001
0000
0010
0000
0001
0100
0010
0000
,
1000
0010
0100
0001
2000
0000
3100
0000
,
0012
0000
0203
0000
,
0301
1000
0001
0000
,
0002
0000
0000
2003
0000
0000
3001
0000
2000
0000
0000
0000
3200
0000
0000
0000
,
0310
0001
0100
1000
,
0100
0001
0010
0100
,
1001
0000
0000
1001
0000
0000
0000
0000
0001
0000
0000
0000
0000
0000
0000
0000
,
1000
0010
0100
0001
,
1000
0000
0100
0020
0000
0000
0032
0000
,
1003
0000
0001
0200
0000
0310
1000
0000
,
1001
0000
0000
1001
0000
0000
0000
1000
0000
0000
0000
0000
0100
0000
0000
0000
,
0010
0000
0001
0100
0010
0000
1000
0000
,
0001
0010
0001
0000
1000
0100
1000
0000
,
0001
0000
0000
0100
0000
0000
0010
0000
1000
0000
0000
0000
0001
0000
0000
0000
,
2002
3003
0001
1000
,
0001
0000
1000
0000
0001
0000
1000
0000
0001
0000
1000
0000
,
0002
0000
0000
0013
,
0000
0000
0000
0100
0000
0000
0000
0000
0000
0100
0000
0000
0000
0000
0000
0000
0000
0000
0000
0000
0000
0010
0000
0000
0000
0000
0000
0000
0000
0000
0000
0000
0000
0001
0000
0000
0000
0000
0000
0000
0000
0000
0000
0000
2002
0000
0000
0000
,
0000
0000
0000
3003
0000
0000
1000
0000
0001
0000
1000
0000
,
0002
0010
0010
0013
,
0001
0100
0010
0000
1000
0000
0001
0000
,
1000
0100
0010
0000
0100
0000
0010
0001
,
2000
0000
3001
0000
1000
0010
1000
0000
,
0001
0001
0010
0000
1000
1000
0010
0000
,
0001
1000
0001
0000
0110
0000
1001
0000
,
0001
1000
0100
0000
1000
0001
0100
0000
,
2002
3003
0010
1000
,
0002
0000
2000
3003
,
2000
0100
3002
0100
,
1003
0000
0001
0100
0010
0000
1000
0100
,
0020
0000
0000
0032
0000
0000
1003
0000
0002
0000
0000
0203
0000
0000
0310
0000
,
2000
3010
0010
1000
,
0002
0010
2003
0010
,
3001
0000
1000
0010
0100
0000
0100
0001
,
2000
0000
0000
3200
0000
0000
1300
0000
0200
0000
0000
0000
0320
0000
0000
0000
,
0031
0000
1000
0000
,
0001
0100
0010
1000
,
0002
0000
0000
0000
2000
0000
0000
3003
,
0000
0000
1000
0000
0100
0000
0010
0000
0001
0000
0100
0000
0010
0000
0000
2000
,
0000
0000
0000
3000
,
0000
0000
0001
0000
0001
0000
0000
0000
1000
0000
0000
0001
0000
0000
1000
0000
,
1001
0000
0000
0000
;

//---------------dance-single - ----------------
#NOTES:
     dance-single:
     :
     Easy:
     5:
     0.289236,0.297743,0.161632,0.561458,0.017014,238.000000,219.000000,19.000000,66.000000,0.000000,0.000000,0.289236,0.297743,0.161632,0.561458,0.017014,238.000000,219.000000,19.000000,66.000000,0.000000,0.000000:
0000
0000
0000
0000
,
1000
0001
0010
0001
,
0200
0300
0010
1000
,
0002
0003
2000
3000
,
0100
0100
1000
1000
,
0001
1000
0010
1000
,
0200
0300
0010
0001
,
2000
3000
0002
0003
,
0000
0100
0010
0000
1000
0000
0001
0000
,
0022
0033
2200
3300
,
0001
1000
0020
0030
,
1000
0100
0001
0010
,
2000
0000
3001
1000
,
2020
3030
0202
0303
,
1000
0001
0020
0030
,
0001
0100
1000
0100
,
0002
0003
0020
0030
,
0200
0300
2000
3001
,
2002
3003
0001
0010
,
1000
0010
0001
0100
,
2002
3003
1000
0010
,
0001
0010
1000
1000
,
0001
1000
0100
0001
,
0100
2000
3000
0001
,
0100
1000
0100
0001
,
0020
0030
0200
0300
,
1000
1000
0001
0010
,
0001
0100
0010
1000
,
0001
0001
0010
0100
,
1000
0001
2000
3010
,
0220
0330
0002
0003
,
1000
0001
1000
0000
,
0001
0100
1000
0100
,
0001
0010
0001
0010
,
0100
1000
0010
0100
,
0220
0000
0000
0330
0000
0000
0000
0000
0001
0000
0000
0000
0000
0000
0000
0000
,
1000
0100
0010
0001
,
0100
0000
0000
0020
0000
0000
2030
0000
,
3001
0000
0000
0020
0000
0000
0130
0000
,
2002
0000
0000
3003
0000
0000
0000
0000
0001
0000
0000
0000
0010
0000
0000
0000
,
0001
1000
0010
1000
,
0100
0001
0100
1000
,
0001
0100
0010
1000
,
2002
3003
0001
1000
,
0200
0000
0000
0000
0300
0000
0020
0000
0000
0000
0030
0000
,
2002
0000
0000
3003
,
0000
0000
0000
0000
0000
0000
0000
0000
0000
1000
0000
0000
0000
0000
0000
0000
0000
0000
0000
0000
0000
0100
0000
0000
0000
0000
0000
0000
0000
0000
0000
0000
0000
0010
0000
0000
0000
0000
0000
0000
0000
0000
0000
0000
0002
0000
0000
0000
,
0000
0003
0110
0000
,
2002
3003
1000
0000
,
0001
0100
1000
0100
,
0001
0001
1000
0001
,
0002
0003
0010
0100
,
1000
0010
1000
0100
,
0010
0001
1000
0001
,
0100
0100
0010
1000
,
2002
3003
1000
0000
,
0020
0030
0100
0001
,
2020
3030
0202
0303
,
1000
0001
0020
0030
,
0001
0100
1000
0010
,
0002
1003
0100
0010
,
0022
0033
2200
3300
,
0001
1000
0020
0030
,
1000
0100
0001
0100
,
1000
0000
0001
0000
,
1000
0010
0100
0001
,
2000
0000
0000
0000
0002
0000
0000
3003
,
0000
0001
0010
0100
,
2000
0000
0000
3000
,
0000
0010
0100
0000
0010
0000
0010
0000
,
1001
0000
0000
0000
;

//---------------dance-single - ----------------
#NOTES:
     dance-single:
     :
     Beginner:
     2:
     0.157986,0.208420,0.085069,0.195660,0.000000,130.000000,120.000000,10.000000,23.000000,0.000000,0.000000,0.157986,0.208420,0.085069,0.195660,0.000000,130.000000,120.000000,10.000000,23.000000,0.000000,0.000000:
0000
0000
0000
0000
,
0001
0000
0100
0000
,
0100
0000
0010
0000
,
1000
0000
0002
0000
,
0003
0000
0001
0000
,
1000
0000
0100
0000
,
0100
0000
0010
0000
,
0001
0000
2000
0000
,
3000
1000
1000
0000
,
0001
0000
1000
0000
,
0010
0010
0010
0000
,
1000
0000
0100
0000
,
0020
0000
0030
0000
,
0001
0000
1000
0000
,
0100
0100
0100
0000
,
1000
0000
0001
0000
,
2000
0000
0000
0000
,
0000
0000
3000
0000
,
2002
0000
3003
0000
,
1000
0000
0001
0000
,
2002
0000
3003
0000
,
0001
0000
1000
0000
,
0001
0000
0010
0000
,
0020
0000
0030
0000
,
0001
0000
0100
0000
,
0020
0000
0030
0000
,
1000
0000
0001
0000
,
1000
0000
0100
0000
,
0010
0000
0100
0000
,
1000
0000
0001
0000
,
2002
0000
0000
0000
,
0000
0000
3003
0000
,
0001
0000
0100
0000
,
0020
0000
0030
0000
,
1000
0000
0100
0000
,
1001
0000
0000
0000
,
1000
0000
0100
0000
,
0010
0000
0001
0000
,
1000
0000
0010
0000
,
0110
0000
0000
0000
,
0001
0000
0010
0000
,
0100
0000
1000
0000
,
0001
0000
0100
0000
,
2002
0000
3003
0000
,
0100
0000
0010
0000
,
2002
0000
0000
3003
,
0000
0000
0000
0000
,
0000
0000
0000
0000
,
2002
0000
3003
0000
,
0001
0000
1000
0000
,
0100
0000
1000
0000
,
0001
0000
0100
0100
,
0100
0000
0010
0000
,
1000
1000
1000
0000
,
0001
0000
1000
0000
,
2002
0000
3003
0000
,
0010
0000
0000
0000
,
1000
0000
0001
0000
,
0010
0010
0010
0000
,
0001
0000
0100
0000
,
0020
0000
0030
0000
,
1000
0000
0001
0000
,
0100
0100
0100
0000
,
0001
0000
1000
0000
,
0100
0000
0100
0000
,
0010
0000
0010
0000
,
0001
0000
1000
0000
,
0000
0010
0010
0010
,
0020
0000
0000
0030
,
0000
0010
0010
0000
,
1001
0000
0000
0000
;
