#VERSION:0.83;
#TITLE:Äventyr;
#SUBTITLE:;
#ARTIST:Grand Thaw;
#TITLETRANSLIT:Aventyr;
#SUBTITLETRANSLIT:;
#ARTISTTRANSLIT:;
#GENRE:Celtic;
#ORIGIN:;
#CREDIT:;
#BANNER:Aventyr.png;
#BACKGROUND:Aventyr-bg.png;
#PREVIEWVID:;
#JACKET:Aventyr-jacket.png;
#CDIMAGE:;
#DISCIMAGE:;
#LYRICSPATH:;
#CDTITLE:cdtitle.png;
#MUSIC:Aventyr.ogg;
#OFFSET:-1.198029;
#SAMPLESTART:37.565666;
#SAMPLELENGTH:14.545452;
#SELECTABLE:YES;
#BPMS:0.000=132.000,
252.000=126.000,
254.000=114.000,
256.000=57.000;
#STOPS:;
#DELAYS:;
#WARPS:;
#TIMESIGNATURES:0.000=4=4;
#TICKCOUNTS:0.000=4;
#COMBOS:0.000=1;
#SPEEDS:0.000=1.000=0.000=0;
#SCROLLS:0.000=1.000;
#FAKES:;
#LABELS:0.000=Song Start;
#BGCHANGES:;
#KEYSOUNDS:;
#ATTACKS:
;

//---------------dance-single - ----------------
#NOTEDATA:;
#CHARTNAME:;
#STEPSTYPE:dance-single;
#DESCRIPTION:;
#CHARTSTYLE:;
#DIFFICULTY:Hard;
#METER:12;
#RADARVALUES:0.528417,0.551203,0.145372,0.403812,0.197868,458.000000,440.000000,18.000000,50.000000,0.000000,0.000000,0.000000,0.000000,0.000000,0.528417,0.551203,0.145372,0.403812,0.197868,458.000000,440.000000,18.000000,50.000000,0.000000,0.000000,0.000000,0.000000,0.000000;
#CREDIT:;
#NOTES:
0000
0000
0000
0000
,
0000
0000
0000
0000
,
0000
0000
0000
0000
,
0000
0000
0000
0000
0000
0000
0000
1000
,
0002
0000
0023
0000
0031
0002
0003
0100
,
0001
1000
0010
1000
0001
0010
0100
1000
,
0002
0003
0200
0300
0020
0030
1000
0001
,
0020
0000
0030
0001
0200
0000
0000
0000
0310
0000
1000
0000
0001
1000
0001
0000
,
2002
3003
0220
0330
,
2002
0000
3003
0000
0001
0010
0100
1000
,
2200
0000
0000
0000
3300
0000
0000
0010
0002
0000
0000
0103
0000
0000
0010
0000
,
1000
0001
2000
0000
0000
0000
0000
0000
3001
0000
0100
0000
1000
0000
0100
0000
,
0002
0000
0010
0010
0010
0000
1003
1001
,
0000
1000
0100
0000
0010
0001
0100
0010
,
2001
0000
0010
0010
3010
0000
1000
1001
,
0000
0001
0010
0100
1000
0000
0000
0000
,
0001
0100
0010
1000
0001
0010
0100
0010
,
0001
0100
0010
1000
0001
1000
0100
0000
,
1000
0100
0010
0001
1000
0010
0100
0010
,
1000
0100
0010
0001
1000
0000
0001
0100
,
0010
0000
1000
0000
0001
0000
1000
0000
0100
0010
0100
0010
0100
0000
1000
0000
,
0001
0100
0001
0000
1000
0000
0100
0000
0020
0000
0000
0000
0130
0000
0000
0000
,
1000
0000
0100
0000
0010
0000
0001
0000
0100
0010
0100
0010
0100
0000
0001
0000
,
0010
0000
0100
0000
1000
0001
1000
0001
2000
0000
0000
0000
3010
0000
0100
0000
,
0001
1000
0001
1000
0001
0010
1000
0010
,
0002
0000
0103
0010
1000
0001
0100
0010
,
1000
0001
1000
0001
1000
0010
0001
0010
,
1000
0100
0010
0100
1000
0001
0100
0010
,
2000
0000
3000
0000
2000
0000
3000
0000
0010
1000
0010
1000
0010
0000
1000
0000
,
0200
0000
0300
0000
0200
0000
1300
0001
1000
0000
0010
0000
0100
0000
0000
0000
,
0002
0000
0003
0000
0001
0000
0010
0100
0010
0000
0001
0000
0100
0000
0010
0000
,
2010
0000
3000
0000
0001
0000
1000
0001
1000
0000
0100
0000
0001
0000
0100
0000
,
2000
0000
0010
0010
0010
0000
3001
1001
,
0000
0000
1000
0000
0010
0000
0000
0000
1000
0000
0001
0000
0010
0100
0010
0000
,
0002
0000
0010
0010
0013
0000
0001
1001
,
0000
0000
0001
0000
0010
0000
0000
0000
0001
1000
0001
0000
0100
0000
0010
0000
,
2010
0000
0001
0001
3001
0000
1001
1001
,
0000
0000
1000
0000
0001
0000
1000
0000
0100
0010
0100
0000
1000
0000
0001
0000
,
0012
0000
1000
1000
0103
0000
1001
1001
,
0000
0001
0100
0010
1000
0000
0000
0000
,
0001
0010
0100
0010
0001
0100
1000
0100
,
0010
1000
0001
1000
0100
0010
0001
0000
,
1000
0100
0010
0100
1000
0010
0001
0010
,
1000
0100
0001
0100
1000
0000
0001
0100
,
0010
0000
1000
0000
0100
0000
0010
0000
0001
1000
0001
1000
0001
0000
0100
0000
,
1000
0000
0100
0001
0100
0000
1000
0000
0200
0000
0001
0000
0301
0000
0000
0000
,
0100
0000
0001
0000
0010
0000
0100
0000
1000
0010
1000
0010
1000
0000
0010
0000
,
0001
0010
1000
0100
0020
0001
0031
1000
,
0010
1000
0010
1000
0100
0010
0001
0100
,
1000
0100
0010
0100
0001
0010
0100
0010
,
0001
1000
0001
0010
1000
0010
0001
0100
,
0010
0100
0001
1000
0100
0010
0001
1000
,
0001
0000
0000
0001
0000
0000
0001
0000
0100
0000
0010
0000
1000
0001
1000
0001
,
1000
0000
0000
1000
0000
0000
1000
0001
1000
0000
0010
0000
0100
0000
0001
0000
,
0010
0000
0000
0010
0001
0000
1000
0010
1000
0000
0001
0100
0001
0000
1000
0000
,
0001
0000
0000
0000
1001
0000
1000
0001
1000
0000
0100
0000
0001
0000
0100
0000
,
0020
0000
0000
0000
0000
0000
0031
1000
0002
0000
0000
0000
0103
0000
0010
1000
,
0020
0000
0000
0000
0030
0000
1000
0001
2000
0000
0000
0000
3100
0000
1000
0001
,
2000
0000
0000
0000
0000
0000
3010
0100
0020
0000
0000
0000
1030
0000
0001
0010
,
0002
0000
0000
1003
0000
0000
0001
0000
0200
0000
0000
0000
0310
0000
1000
0000
,
0001
0000
0000
1000
0000
0000
0100
0000
0010
0001
0020
0000
0000
0000
0130
1000
,
0200
0000
0000
0310
0000
0000
0001
0000
1000
0010
2000
0000
0000
0000
3001
0100
,
0002
0000
0000
0000
1003
0000
0001
0010
0002
0000
0000
0000
1003
0001
1000
0000
,
0001
0100
0001
0100
0010
1000
0010
1000
,
0100
2002
0000
0000
,
3003
0000
0000
0000
;

//---------------dance-single - ----------------
#NOTEDATA:;
#CHARTNAME:;
#STEPSTYPE:dance-single;
#DESCRIPTION:;
#CHARTSTYLE:;
#DIFFICULTY:Medium;
#METER:9;
#RADARVALUES:0.377276,0.393717,0.104991,0.331126,0.016152,327.000000,314.000000,13.000000,41.000000,0.000000,0.000000,0.000000,0.000000,0.000000,0.377276,0.393717,0.104991,0.331126,0.016152,327.000000,314.000000,13.000000,41.000000,0.000000,0.000000,0.000000,0.000000,0.000000;
#CREDIT:;
#NOTES:
0000
0000
0000
0000
,
0000
0000
0000
0000
,
0000
0000
0000
0000
,
0000
0000
0000
0000
0000
0000
0000
1000
,
0002
0000
0023
0000
0031
2000
3000
0001
,
0100
0000
0010
0000
1000
0100
0010
0001
,
2000
3000
0020
0030
0200
0300
0001
1000
,
0002
0003
0020
0000
0130
0010
0001
1000
,
2002
3003
0220
0330
,
2002
0000
3003
0000
1000
0010
0100
0001
,
2002
0000
0000
0000
3003
0000
0000
0000
0012
0000
0000
1003
0000
0000
0010
0000
,
2010
0000
0000
0000
3001
1000
0001
1000
,
0002
0000
0010
0000
1000
0000
0103
0001
,
0000
1000
0100
0000
1000
0001
1000
0001
,
2000
0000
0010
0000
3001
0000
1000
0001
,
1000
0000
0001
0100
0010
0000
0000
0000
,
1000
0000
0000
0000
0001
0000
1000
0100
,
1000
0000
0000
0000
0010
0000
0000
0100
,
0001
0000
0000
0000
0010
0000
0001
1000
,
0100
0000
0100
1000
0010
0000
1000
0001
,
1000
0000
0010
0000
0100
0100
0100
0000
,
0001
0000
0010
0000
0100
0100
0100
0000
,
1000
0000
0001
0000
0010
0010
0010
0000
,
0001
0000
0100
0000
0010
0010
0010
1000
,
0001
0000
0001
0000
0010
0001
0100
0010
,
1000
0000
1000
0010
1000
0100
0010
0000
,
0001
0000
0001
0000
0010
0001
0100
0010
,
1000
0000
1000
0001
0010
0000
0001
1000
,
0100
0000
0100
0000
1000
0100
0010
0100
,
1000
0000
1000
0001
0100
0001
1000
0000
,
0010
0000
0010
0000
0100
0001
0010
0001
,
0100
0000
0010
1000
0001
0000
0010
0001
,
2000
0000
0010
0000
0001
0000
3100
1000
,
0000
0001
0100
0000
0001
1000
0001
1000
,
0002
0000
0010
0000
1003
0000
0001
0100
,
0000
0010
1000
0000
0100
0010
0100
0010
,
0200
0000
1000
0000
0010
0000
0301
0100
,
0000
0100
1000
0000
0010
0100
0010
0100
,
0020
0000
0001
0000
0230
0000
0310
1000
,
0001
0000
1000
0100
0010
0000
0000
0000
,
0001
0000
0000
0000
1000
0000
0001
0010
,
0001
0000
0000
0000
1000
0000
0000
0010
,
0100
0000
0000
0000
0001
0000
1000
0001
,
0010
0000
0010
0001
0100
0000
0001
1000
,
0001
0000
0010
0000
1000
1000
1000
0000
,
0010
0000
0001
0000
0100
0100
0100
0000
,
1000
0000
0100
0000
0001
0001
0001
0000
,
0010
0000
0100
0000
1000
1000
1000
0001
,
0100
0000
0100
0000
0010
1000
0100
0010
,
0001
0000
0001
0010
0100
1000
0001
0000
,
0100
0000
0100
0000
0001
0010
0001
1000
,
0010
0000
0010
1000
0001
0000
0010
0001
,
0100
0000
0100
0000
0010
0100
0001
0100
,
0010
0000
0010
1000
0001
1000
0100
0000
,
0010
0000
0010
0000
0001
0100
0010
1000
,
0100
0000
0010
0001
1000
0010
0100
0000
,
2001
0000
0000
3010
0020
0000
0130
0000
,
0102
0000
0003
1000
2000
0000
3100
0000
,
0021
0000
0000
0031
0002
0000
0103
0000
,
2010
0000
0000
3001
0000
0000
1000
0000
1002
0000
0000
0000
0013
0000
0000
0000
,
1002
0000
0000
1003
0000
0000
0001
0000
0100
0000
0020
0000
0000
0000
0130
0000
,
0002
0000
0000
1003
0000
0000
0100
0000
0010
0000
0200
0000
0300
0000
1000
0000
,
0002
0000
0103
0001
0020
0000
0130
1000
,
0010
0100
0001
1000
,
0100
2002
0000
0000
,
3003
0000
0000
0000
;

//---------------dance-single - ----------------
#NOTEDATA:;
#CHARTNAME:;
#STEPSTYPE:dance-single;
#DESCRIPTION:;
#CHARTSTYLE:;
#DIFFICULTY:Easy;
#METER:5;
#RADARVALUES:0.272285,0.341221,0.209982,0.444193,0.000000,236.000000,210.000000,26.000000,55.000000,0.000000,0.000000,0.000000,0.000000,0.000000,0.272285,0.341221,0.209982,0.444193,0.000000,236.000000,210.000000,26.000000,55.000000,0.000000,0.000000,0.000000,0.000000,0.000000;
#CREDIT:;
#OFFSET:-1.198029;
#BPMS:0.000000=132.000000
,252.000000=125.999992
,254.000000=114.000000
,256.000000=57.000000
;
#STOPS:;
#DELAYS:;
#WARPS:;
#TIMESIGNATURES:0.000000=4=4
;
#TICKCOUNTS:0.000000=4
;
#COMBOS:0.000000=1
;
#SPEEDS:0.000000=1.000000=0.000000=0
;
#SCROLLS:0.000000=1.000000
,256.000000=2.000000
;
#FAKES:;
#LABELS:0.000000=Song Start
;
#NOTES:
0000
0000
0000
0000
,
0000
0000
0000
0000
,
0000
0000
0000
0000
,
0000
0000
0000
0000
,
2000
3020
2030
3000
,
0100
0010
0001
1000
,
0002
0003
0200
0300
0020
0030
2000
3000
,
0002
0003
0020
0000
0130
0000
0010
0000
,
2002
3003
0220
0330
,
2002
3003
0100
0010
,
2002
3003
0022
0033
,
2200
3300
0001
0001
,
2000
0000
0010
0000
3010
0000
0000
1001
,
0000
0001
1000
1000
,
0002
0000
0010
0000
0013
0000
0000
1001
,
0000
0001
0100
0000
,
0001
0000
0010
0001
,
1000
0000
0010
0000
,
1000
0000
0100
1000
,
0001
0100
0010
1000
,
1000
0100
0010
0010
,
0001
0100
0020
1030
,
0001
0010
0100
0100
,
1000
0001
0200
0300
,
0010
0010
1000
0001
,
1000
0100
0010
0001
,
1000
1000
0010
0100
,
0001
1000
0100
0010
,
0001
0001
0100
0010
,
0100
0100
1000
0100
,
0001
0001
0010
1000
,
0010
0001
0100
0010
,
2000
0000
0010
0000
3010
0000
0000
1001
,
0000
0001
1000
1000
,
0002
0000
0010
0000
0013
0000
0000
1001
,
0000
1000
0010
1000
,
0200
0000
0010
0000
0310
0000
0000
1001
,
0000
1000
0010
0010
,
0200
0000
0010
0000
0002
0303
0000
1001
,
0000
1000
0100
0000
,
1000
0000
0010
1000
,
0001
0000
0010
0000
,
0001
0000
0100
0001
,
1000
0100
0010
0001
,
1000
0010
0001
0001
,
0010
1000
0200
0310
,
0001
0100
1000
1000
,
0100
0001
0020
0030
,
0001
0001
0100
0010
,
1000
0001
0010
0001
,
0100
0100
1000
0100
,
0010
0100
0001
1000
,
0100
0100
0010
0001
,
0100
0100
1000
0100
,
0001
0001
1000
0010
,
0001
0010
1000
0100
,
0022
0033
1002
0103
,
0220
0330
2010
3001
,
2200
3300
0102
0013
,
2001
3100
2002
3003
,
2010
3001
0022
0033
,
2100
3001
0202
0303
,
2002
3003
2000
3010
,
1000
0100
0010
0001
,
0100
2002
0000
0000
,
3003
0000
0000
0000
;

//---------------dance-single - ----------------
#NOTEDATA:;
#CHARTNAME:;
#STEPSTYPE:dance-single;
#DESCRIPTION:;
#CHARTSTYLE:;
#DIFFICULTY:Beginner;
#METER:2;
#RADARVALUES:0.129220,0.209982,0.048457,0.072686,0.000000,112.000000,106.000000,6.000000,9.000000,0.000000,0.000000,0.000000,0.000000,0.000000,0.129220,0.209982,0.048457,0.072686,0.000000,112.000000,106.000000,6.000000,9.000000,0.000000,0.000000,0.000000,0.000000,0.000000;
#CREDIT:;
#OFFSET:-1.198029;
#BPMS:0.000000=132.000000
,252.000000=125.999992
,254.000000=114.000000
,256.000000=57.000000
;
#STOPS:;
#DELAYS:;
#WARPS:;
#TIMESIGNATURES:0.000000=4=4
;
#TICKCOUNTS:0.000000=4
;
#COMBOS:0.000000=1
;
#SPEEDS:0.000000=1.000000=0.000000=0
;
#SCROLLS:0.000000=1.000000
,252.000000=1.047619
,254.000000=1.157894
,256.000000=2.315789
;
#FAKES:;
#LABELS:0.000000=Song Start
;
#NOTES:
0000
0000
0000
0000
,
0000
0000
0000
0000
,
0000
0000
0000
0000
,
0000
0000
0000
0000
,
0001
0000
0000
0000
,
1000
0000
0000
0000
,
0100
0000
0100
0000
,
0010
0000
0001
0000
,
1001
0000
1001
0000
,
1001
0000
0000
0000
,
1001
0000
0110
0000
,
2002
3003
0000
0000
,
2000
0000
0000
3000
,
0001
0000
0010
0000
,
0002
0000
0003
0000
,
1000
0000
0010
0000
,
1000
0000
0000
0000
,
0001
0000
0000
0000
,
1000
0000
0000
0000
,
0001
0000
1000
0000
,
0001
0000
0010
0000
,
0001
0000
1000
0000
,
0001
0000
0100
0000
,
0001
0000
1000
0000
,
0100
0000
0100
0000
,
0010
0000
0010
0000
,
0100
0000
0100
0000
,
0010
0000
0010
0000
,
0001
0000
1000
0000
,
0001
0000
1000
0000
,
0010
0000
0100
0000
,
0001
0000
1000
0000
,
0002
0000
0000
0003
,
1000
0000
0010
0000
,
2000
0000
3000
0000
,
0001
0000
0010
0000
,
0002
0000
0000
0003
,
1000
0000
0100
0000
,
0020
0000
0030
0000
,
0001
0000
0100
0000
,
0010
0000
0000
0000
,
0100
0000
0000
0000
,
0010
0000
0000
0000
,
0100
0000
0010
0000
,
1000
0000
0001
0000
,
1000
0000
0100
0000
,
1000
0000
0010
0000
,
1000
0000
0001
0000
,
1000
0000
1000
0000
,
0001
0000
0001
0000
,
1000
0000
1000
0000
,
0001
0000
0001
0000
,
1000
0000
0100
0000
,
1000
0000
0100
0000
,
0010
0000
0001
0000
,
1000
0000
0001
0000
,
0100
0000
0100
0000
,
0010
0000
0010
0000
,
1000
0000
1000
0000
,
0001
0000
0010
0000
,
0001
0000
0001
0000
,
1000
0000
1000
0000
,
0010
0000
0100
0000
,
0001
0000
1000
0000
,
0100
0200
0000
0000
,
0300
0000
0000
0000
;

//---------------dance-single - ----------------
#NOTEDATA:;
#CHARTNAME:;
#STEPSTYPE:dance-single;
#DESCRIPTION:;
#CHARTSTYLE:;
#DIFFICULTY:Challenge;
#METER:15;
#RADARVALUES:0.670328,0.708690,0.242287,0.436117,0.549184,581.000000,551.000000,30.000000,54.000000,0.000000,0.000000,0.000000,0.000000,0.000000,0.670328,0.708690,0.242287,0.436117,0.549184,581.000000,551.000000,30.000000,54.000000,0.000000,0.000000,0.000000,0.000000,0.000000;
#CREDIT:;
#NOTES:
0000
0000
0000
0000
,
0000
0000
0000
0000
,
0000
0000
0000
0000
,
0000
0000
0000
0000
0000
0000
0000
1000
,
0002
0000
0000
0000
0023
0000
0000
0000
0031
1000
0002
0000
0003
0000
0001
1000
,
0010
0000
1000
0001
0010
0000
0100
0000
0010
0001
1000
0000
0100
0000
1000
0001
,
2000
3010
0200
0310
0002
0013
0200
0320
,
2030
0000
3000
0001
0020
0000
0000
0000
0130
0000
0010
0000
0001
1000
0001
0000
,
2001
0000
3010
1000
1200
0000
0310
0001
,
0201
0000
0310
1000
1001
0001
0100
0010
,
0210
0000
0000
0000
0310
0000
1000
0001
2000
0000
0000
3100
0000
0000
0010
0000
,
0001
1000
0002
0000
0000
0000
1003
0000
0001
0010
0001
0000
0010
0001
0010
0001
,
2000
0000
0010
0010
0010
0000
3001
1001
,
0000
0000
0001
0000
0100
0000
0010
0000
1000
0010
1000
0000
0010
1000
0010
1000
,
0002
0000
0010
0010
0013
0000
0001
1001
,
0000
1000
0010
0100
0101
0000
0000
0000
,
1000
0000
0100
0000
0010
0000
0100
1000
0001
1000
0010
1000
0001
0000
0010
0000
,
0001
0100
0010
0000
1000
0000
0010
0100
0001
0000
1000
0100
0010
0000
0000
0000
,
0001
0000
0100
0000
0010
0000
0100
0001
1000
0001
0010
0001
1000
0000
0010
0000
,
0100
0000
0001
0000
1000
0100
0010
0001
0100
0000
0000
0000
0100
0000
0001
1000
,
0100
0000
0010
0000
0001
0000
0100
0010
1000
0001
0010
0001
1000
0000
0001
0000
,
1000
0100
0010
0000
0001
0000
0100
0000
0020
0000
0000
0000
1030
0000
0000
0000
,
1000
0000
0100
0000
0010
0000
0100
0010
0001
1000
0010
1000
0001
0000
1000
0000
,
0100
0000
0010
0000
0001
0100
0010
1000
0002
0000
0000
0000
1003
0000
0100
0000
,
0001
0000
0100
0000
0001
0000
0100
0000
1000
0100
0010
0100
1000
0001
1000
0001
,
0200
0000
0000
0000
0000
0000
0000
0000
0000
0000
0000
0000
0310
0000
0100
0000
0010
0000
0100
0000
0000
0010
0000
0000
1000
0000
0000
0000
0000
0000
0100
0000
0000
0000
0000
0000
0010
0000
0000
0000
0000
0000
0001
0000
0000
0100
0000
0000
,
1000
0000
0100
0000
1000
0000
0100
0000
0001
0100
0010
0100
0001
1000
0001
1000
,
0100
0000
1000
0100
0010
0001
0100
0010
1000
0000
0100
0000
0010
0000
0001
0000
,
2000
0000
3000
0000
2000
0000
3000
0000
1000
0010
0100
0001
1000
0000
0100
0000
,
0020
0000
0030
0000
0020
0000
0130
0010
0001
0000
0100
0000
0010
0000
1000
0001
,
0020
0000
0030
0000
0010
0000
0010
0001
0100
0000
0010
1000
0100
0000
0010
0000
,
2002
0000
3003
0000
1001
0000
0001
1000
0001
0000
0010
0000
1000
0000
0010
0000
,
0002
0000
0010
0010
0010
0000
1003
1001
,
0000
0000
0001
0000
0100
0000
0010
0000
1000
0000
0001
0000
0010
0001
0010
0001
,
2000
0000
0010
0010
3010
0000
1000
1001
,
0000
0000
0001
0000
0010
0000
0100
0000
1000
0100
0010
0000
0001
0000
0100
0000
,
2010
0000
0001
0001
3001
0000
0110
1001
,
0000
0000
1000
0000
0001
0000
1000
0000
0100
0010
0001
0000
1000
0000
0010
0000
,
0102
0000
1000
1000
0013
0000
0110
1001
,
0000
0001
0100
0010
1010
0000
0000
0000
,
0001
0000
0100
0000
0010
0000
1000
0100
0010
0001
0100
0010
0100
0000
0001
0000
,
0010
0100
0010
0000
1000
0000
0010
0000
0001
0000
0100
0010
1000
0000
0000
0000
,
1000
0000
0100
0000
0010
0000
0001
0100
0010
1000
0100
0010
0100
0000
1000
0000
,
0010
0000
0001
0000
0010
1000
0001
1000
0100
0000
0000
0000
0100
0000
1000
0001
,
1000
0000
0001
0000
0100
0000
0010
0100
1000
0100
0010
0100
0001
0000
0100
0000
,
1000
0000
0100
0010
1000
0000
0100
0000
0020
0000
0001
0000
0031
0000
0000
0000
,
0001
0000
0010
0000
0100
0000
1000
0100
0010
0100
0001
0100
0010
0000
0001
0000
,
0100
0000
0010
0000
0001
0010
0100
0010
2000
0000
0001
0000
3001
0000
0010
0000
,
1000
0000
0010
0000
1000
0000
0010
0000
0100
0000
0010
0001
0010
0100
1000
0001
,
0100
0000
0000
0000
0000
0000
0010
0000
0000
0000
0000
0000
1000
0000
0001
0000
1000
0000
0001
0000
0000
0010
0000
0000
0100
0000
0000
0000
0000
0000
1000
0000
0000
0000
0000
0000
0010
0000
0000
0000
0000
0000
1000
0000
0000
0010
0000
0000
,
0001
0000
0010
0000
0001
0000
0010
1000
0100
0000
1000
0100
0010
0001
0100
0010
,
1000
0000
0010
0100
0001
1000
0100
0010
0001
0000
0100
0000
0010
0000
1000
0000
,
0002
0000
0003
0002
0000
0003
0002
0000
0103
0000
0010
1000
0010
0100
0001
1000
,
0200
0000
0300
0200
0000
0300
0100
0010
0001
0000
0100
0000
1000
0000
0100
0001
,
0020
0000
0030
0010
0100
0000
1000
0010
0001
0000
0001
0010
1000
0000
0100
0000
,
2100
0000
3000
0000
0001
0100
0010
1000
0100
0000
0001
0000
0100
0010
0001
0100
,
0010
0000
2010
0000
0000
0000
3001
1000
0100
0000
1100
0000
0010
0000
0001
0100
,
0010
0000
1020
0000
0000
0000
0130
0001
2000
0000
0000
0000
3100
0000
0010
0001
,
1000
0000
2001
0000
0000
0000
3100
0010
0001
0000
1001
0000
1000
0000
0001
0100
,
0010
0000
0000
1010
0000
0000
1100
0000
0012
0000
0000
0000
0013
0100
0010
0001
,
2000
0000
3001
0100
0000
0000
0010
0000
0100
0001
0020
0000
0000
0000
0130
1000
,
0020
0000
0031
0010
0000
0000
1000
0000
0100
0010
0002
0000
1003
0000
0100
1000
,
0002
0000
0003
0000
1001
0000
0001
0100
0020
0000
0000
0000
1030
0001
1000
0000
,
0001
0010
0001
0010
0100
1000
0001
0100
0010
1000
0010
1000
0100
0010
0100
1000
,
0001
2002
0000
0000
,
3003
0000
0000
0000
;
