#VERSION:0.83;
#TITLE:Alice In Voodooland;
#SUBTITLE:;
#ARTIST:RoughSketch ft.Aikapin;
#TITLETRANSLIT:;
#SUBTITLETRANSLIT:;
#ARTISTTRANSLIT:;
#GENRE:Terrorcore;
#ORIGIN:;
#CREDIT:;
#BANNER:Alice In Voodooland.png;
#BACKGROUND:Alice In Voodooland-bg.png;
#PREVIEWVID:;
#JACKET:Alice In Voodooland-jacket.png;
#CDIMAGE:;
#DISCIMAGE:;
#LYRICSPATH:;
#CDTITLE:cdtitle.png;
#MUSIC:Alice In Voodooland.ogg;
#OFFSET:-0.036783;
#SAMPLESTART:69.369118;
#SAMPLELENGTH:10.666672;
#SELECTABLE:YES;
#BPMS:0.000=90.000,
16.000=180.000,
91.000=90.000,
104.000=135.000,
105.500=180.000,
107.500=90.000,
124.000=180.000,
213.000=90.000,
215.000=180.000,
253.000=90.000,
254.000=180.000,
260.000=90.000,
261.000=180.000,
277.000=90.000;
#STOPS:26.000=1.667,
107.500=0.333,
148.000=1.000;
#DELAYS:;
#WARPS:;
#TIMESIGNATURES:0.000=4=4;
#TICKCOUNTS:0.000=4;
#COMBOS:0.000=1;
#SPEEDS:0.000=1.000=0.000=0;
#SCROLLS:0.000=1.000;
#FAKES:;
#LABELS:0.000=Song Start;
#BGCHANGES:0.000=Alice In Voodooland.avi=1.000=1=0=0=StretchNoLoop==CrossFade==,
289.000=Alice In Voodooland-bg.png=1.000=1=0=1===CrossFade==,
99999=-nosongbg-=1.000=0=0=0 // don't automatically add -songbackground-
;
#KEYSOUNDS:;
#ATTACKS:
;

//---------------dance-single - ----------------
#NOTEDATA:;
#CHARTNAME:;
#STEPSTYPE:dance-single;
#DESCRIPTION:;
#CHARTSTYLE:;
#DIFFICULTY:Challenge;
#METER:13;
#RADARVALUES:0.577406,0.817797,0.360733,0.541099,0.102481,493.000000,449.000000,44.000000,66.000000,0.000000,0.000000,16.000000,0.000000,0.000000,0.577406,0.817797,0.360733,0.541099,0.102481,493.000000,449.000000,44.000000,66.000000,0.000000,0.000000,16.000000,0.000000,0.000000;
#CREDIT:;
#OFFSET:-0.036783;
#BPMS:0.000000=90.000000
,16.000000=180.000000
,91.000000=90.000000
,104.000000=135.000000
,105.500000=180.000000
,107.500000=90.000000
,124.000000=180.000000
,209.000000=90.000000
,211.000000=180.000000
,249.000000=90.000000
,250.000000=180.000000
,256.000000=90.000000
,257.000000=180.000000
,273.000000=90.000000
;
#STOPS:26.000000=1.666667
,107.500000=0.333332
,148.000000=2.333336
;
#DELAYS:;
#WARPS:;
#TIMESIGNATURES:0.000000=4=4
;
#TICKCOUNTS:0.000000=4
;
#COMBOS:0.000000=1
;
#SPEEDS:0.000000=1.000000=0.000000=0
;
#SCROLLS:0.000000=1.000000
;
#FAKES:;
#LABELS:0.000000=Song Start
;
#NOTES:
0000
0000
0000
0000
,
0000
0000
0000
0000
,
1000
0100
0001
0100
1000
0010
0001
0010
,
0100
1000
0100
0001
0010
1000
0010
0011
,
2001
0001
0100
0100
,
0010
0000
0010
0000
0100
0000
3100
1000
,
1002
1000
0103
1001
,
1000
0100
0001
0000
0001
0100
1000
0000
,
0001
0000
0001
0100
0010
4000
3001
0000
,
0001
0100
1000
0000
1000
0100
0220
0330
,
0202
0303
2010
0001
3001
0000
2002
3003
,
0001
0010
1000
0000
1000
0010
0001
0000
,
1000
0000
1000
0010
0100
0004
0013
0100
,
1000
0010
0001
0000
0001
0010
2000
3100
,
2200
3300
0002
0103
0202
0303
1000
0100
,
1000
0100
1000
0000
1000
0000
0001
0100
,
0001
0100
0001
0000
0001
0000
1000
0010
,
1000
0010
1000
0100
1000
0100
0002
0000
,
0023
0000
2030
0000
3001
1000
0001
0000
,
1000
0100
1000
0100
1000
0100
0010
0001
,
0100
0001
0100
0001
0100
0000
0002
0000
,
0023
0000
2030
0000
3200
0000
0301
0010
,
0001
0000
0010
0000
0100
0000
1000
0000
0100
0000
1000
0000
0001
0100
0001
0100
,
0001
0100
0010
0000
1000
0100
1000
0100
1000
0100
0010
0000
0001
1000
0001
1000
,
0001
0100
0001
0100
2000
0000
3020
0000
0032
0000
1003
0000
0001
0010
0001
0010
,
0001
0010
0100
1000
0020
0000
1030
0100
1000
0100
1000
0100
0020
0000
0000
0000
,
0200
0000
0000
0000
0000
0000
0000
0330
,
2001
0000
3020
0230
0302
0000
2003
3200
,
0320
0000
0032
0203
2300
0000
3200
0302
,
0023
0000
0230
2300
3020
0000
2030
3200
,
0302
0000
0203
2300
3002
0000
0203
0000
,
0310
1000
0001
1000
0010
1000
0001
1000
,
0100
0010
0100
1000
0100
0010
0100
1000
,
0001
0100
0010
0100
0001
0100
0010
0100
,
0001
1000
0001
0040
0031
1000
0010
0100
,
0001
0010
0001
0010
0100
1000
0100
1000
,
0040
0400
0000
0000
0000
0000
0000
0000
0000
0000
0000
0000
0000
0000
0000
0000
,
0330
1001
1001
1100
,
1000
0100
0000
0100
0001
0000
0101
0000
,
1100
1001
1001
0101
,
0001
0000
0100
0000
0000
0000
0100
0000
1000
0000
0000
0000
1100
0000
0000
0100
,
0001
0000
0000
0000
0040
0000
0000
0030
0011
0000
0000
0000
0000
0000
0000
0000
0011
0000
0000
0000
0000
0000
0000
0000
1001
0000
0000
0000
0000
0000
0000
0000
,
1000
0010
0000
0010
0001
0000
0011
0000
,
0110
0010
1010
0000
1010
0000
1001
0000
,
1000
0100
0001
0100
1000
0000
0001
0100
,
0020
0000
0000
0000
2030
0000
0000
3000
1001
0000
0000
0000
0000
0000
0000
0000
0101
0000
0000
0000
0000
0000
0000
0000
1001
0000
0000
0000
0000
0000
0000
0000
,
1000
0100
0000
0100
0001
0000
0011
0000
,
1010
0000
1000
0001
1000
0000
0000
0000
1010
0000
0000
0000
1001
0000
0000
0000
,
0001
0010
1000
0040
0031
0000
1001
0000
,
0101
0000
0000
0000
0400
0000
0000
0300
0110
0000
0000
0000
0000
0000
0000
0000
1010
0000
0000
0000
0000
0000
0000
0000
1001
0000
0000
0000
0000
0000
0000
0000
,
1000
0200
0300
0100
0001
0000
0101
0100
,
2200
3300
1001
0000
0101
0400
0301
0010
,
1000
0000
0010
0000
0002
0000
0000
0000
0000
0000
1000
1003
0001
0000
0100
0000
,
0010
0100
0001
0010
0100
0010
0001
0100
,
0010
0100
0001
0010
0100
2000
3010
0100
,
0010
1000
0100
0010
0100
1000
0010
0100
,
0010
0000
2000
0000
3100
0000
0010
0100
0010
0000
0400
0000
1300
0000
0010
0000
,
0001
0000
0010
0000
1000
0000
0001
1000
0001
0000
1000
0000
0001
0000
0010
0000
,
1000
0010
0001
1000
0010
1000
0001
0100
,
1000
0100
0001
1000
0100
0002
0103
1000
,
0010
4000
3001
0010
0200
2300
3001
0100
,
0010
0100
0001
1000
0010
1000
0001
0100
,
1000
0100
0002
0000
1003
0100
0010
0100
,
1000
0001
0010
0001
1000
0100
0001
0100
,
2000
0000
3001
0100
1000
0100
0001
0100
,
1000
0400
0301
0010
1000
0010
0001
0010
,
1000
0000
0010
0000
0004
0400
0000
0000
0000
0000
0003
0300
0040
4000
0000
0000
,
0000
0000
0030
3000
0002
0000
0000
0000
0000
0000
0000
0000
0000
0000
0000
0000
,
0000
0000
1003
0100
0001
0100
1000
0010
,
0001
0010
0100
1000
0100
0001
0010
1000
,
0010
0001
0200
0000
0000
0000
0000
0000
,
0000
0300
0000
0000
;

//---------------dance-single - ----------------
#NOTEDATA:;
#CHARTNAME:;
#STEPSTYPE:dance-single;
#DESCRIPTION:;
#CHARTSTYLE:;
#DIFFICULTY:Hard;
#METER:10;
#RADARVALUES:0.477854,0.554934,0.401725,0.418122,0.000000,408.000000,359.000000,49.000000,51.000000,0.000000,0.000000,0.000000,0.000000,0.000000,0.477854,0.554934,0.401725,0.418122,0.000000,408.000000,359.000000,49.000000,51.000000,0.000000,0.000000,0.000000,0.000000,0.000000;
#CREDIT:;
#OFFSET:-0.036783;
#BPMS:0.000000=90.000000
,16.000000=180.000000
,91.000000=90.000000
,104.000000=135.000000
,105.500000=180.000000
,107.500000=90.000000
,124.000000=180.000000
,209.000000=90.000000
,211.000000=180.000000
,249.000000=90.000000
,250.000000=180.000000
,256.000000=90.000000
,257.000000=180.000000
,273.000000=90.000000
;
#STOPS:26.000000=1.666667
,107.500000=0.333332
,148.000000=2.333336
;
#DELAYS:;
#WARPS:;
#TIMESIGNATURES:0.000000=4=4
;
#TICKCOUNTS:0.000000=4
;
#COMBOS:0.000000=1
;
#SPEEDS:0.000000=1.000000=0.000000=0
;
#SCROLLS:0.000000=1.000000
;
#FAKES:;
#LABELS:0.000000=Song Start
;
#NOTES:
0000
0000
0000
0000
,
0000
0000
0000
0000
,
0001
0100
0001
0100
0010
1000
0010
1000
,
0100
1000
0100
1000
0001
0010
0001
0110
,
1001
1000
0010
0010
,
0100
0000
0100
0000
0001
0000
0010
0001
,
1000
1000
0100
1001
,
0001
0100
0001
0000
1000
0100
1000
0000
,
0001
0000
1000
0001
1000
0001
1000
0000
,
0001
0100
0001
0000
1000
0000
1100
0000
,
0011
0220
0330
1001
,
1000
0010
1000
0000
0001
0010
0001
0000
,
1000
0000
0001
1000
0001
1000
0001
0000
,
1000
0010
1000
0000
0001
0000
0011
0000
,
1100
1010
0101
1000
,
1000
0100
0010
0001
,
0001
0100
0010
1000
,
1000
0100
0100
0002
,
0023
0000
2030
0000
3001
1000
0001
0000
,
0100
0100
0010
1000
,
0100
0100
0010
0002
,
0203
0000
2300
0000
3020
0000
0031
0100
,
0001
0100
0010
1000
0010
1000
0002
0100
,
0103
0010
2000
0100
3100
0010
0002
1000
,
1003
0100
0002
0023
2030
0000
3002
0010
,
0013
0100
2000
0010
3010
0100
0002
0000
,
2000
0000
0000
3003
,
2001
0000
3200
0320
0032
0000
2003
3020
,
0230
0300
0002
0023
0230
0000
0320
0032
,
2003
0000
3020
2030
3002
0000
2003
3200
,
0320
0000
0032
0203
0320
0000
2030
0000
,
3001
0001
0010
0010
,
0100
0000
0100
0000
1000
0000
0001
1000
,
0001
0001
0100
0100
,
0010
0000
0010
0000
1000
0001
1000
0000
,
0001
0010
0001
0010
0100
1000
0100
1000
,
0002
0203
0320
2000
,
3030
1001
1001
1100
,
0001
0100
0000
0100
0001
0000
1100
0000
,
0011
1001
1001
0101
,
1000
0100
0000
0100
1000
0000
0101
0000
,
1001
0011
0011
1100
,
0010
0001
0000
0001
0010
0000
1100
0000
,
1001
1010
1010
0101
,
1000
0010
0000
0010
1000
0000
0101
0000
,
0010
1001
1001
1100
,
0010
0001
0000
0001
0100
0000
1010
0000
,
1100
1001
1001
0101
,
0010
1000
0000
1000
0100
0000
0011
0000
,
0101
1010
1010
0101
,
1000
0100
0000
0100
1000
0000
0101
0000
,
1010
0011
0011
1100
,
0001
0200
0000
0000
0000
0310
1000
0000
,
0100
1000
0100
0000
0010
0001
0010
0000
,
0100
1000
0100
0000
1000
0010
1000
0000
,
0001
0100
0001
0000
1000
0010
1000
0000
,
0001
0100
0001
0000
0010
0100
0010
0000
,
0001
1000
0001
0000
0100
0010
0100
0000
,
0001
1000
0001
0000
1000
0100
1000
0000
,
0001
0100
0001
0000
1000
0010
0100
0001
,
1000
0000
0001
0010
0100
1000
0001
0000
,
0001
0010
0100
0000
0100
0010
0001
0000
,
0001
0100
0020
0000
1030
0000
1000
0010
,
0100
0000
0100
0010
1000
0000
1000
0100
,
0020
0000
0031
0000
1000
0010
0000
0100
,
0001
0000
0010
0100
1000
0000
0010
0100
,
0001
0000
1000
0001
1000
0001
0010
0100
,
0010
0001
2000
0000
0000
0000
0000
0000
,
0000
0000
3001
0100
0001
0100
0010
1000
,
0010
1000
0100
1000
0100
1000
0001
0010
,
0001
0010
0200
0000
0000
0000
0000
0000
,
0000
0300
0000
0000
;

//---------------dance-single - ----------------
#NOTEDATA:;
#CHARTNAME:;
#STEPSTYPE:dance-single;
#DESCRIPTION:;
#CHARTSTYLE:;
#DIFFICULTY:Medium;
#METER:8;
#RADARVALUES:0.382986,0.500004,0.073786,0.327939,0.000000,327.000000,318.000000,9.000000,40.000000,0.000000,0.000000,0.000000,0.000000,0.000000,0.382986,0.500004,0.073786,0.327939,0.000000,327.000000,318.000000,9.000000,40.000000,0.000000,0.000000,0.000000,0.000000,0.000000;
#CREDIT:;
#OFFSET:-0.036783;
#BPMS:0.000000=90.000000
,16.000000=180.000000
,91.000000=90.000000
,104.000000=135.000000
,105.500000=180.000000
,107.500000=90.000000
,124.000000=180.000000
,209.000000=90.000000
,211.000000=180.000000
,275.000000=90.000000
;
#STOPS:26.000000=1.666667
,107.500000=0.333332
,148.000000=2.333336
;
#DELAYS:;
#WARPS:;
#TIMESIGNATURES:0.000000=4=4
;
#TICKCOUNTS:0.000000=4
;
#COMBOS:0.000000=1
;
#SPEEDS:0.000000=1.000000=0.000000=0
;
#SCROLLS:0.000000=1.000000
;
#FAKES:;
#LABELS:0.000000=Song Start
;
#NOTES:
0000
0000
0000
0000
,
0000
0000
0000
0000
,
1000
0010
1000
0010
0100
0001
0100
0001
,
1000
0100
1000
0100
0010
0001
0010
0001
,
1000
1000
0010
0010
,
0100
0100
0001
0001
,
0010
0100
1000
0001
,
0100
0001
0100
0001
,
1000
0000
0010
1000
0010
0000
1000
0000
,
0100
1000
0100
0011
,
1100
2002
3003
1000
,
0100
1000
0100
1000
,
0001
0000
0010
0001
0010
0000
0001
0000
,
0100
0001
0100
1010
,
0101
0011
1100
0001
,
0100
0001
0001
1000
,
0100
1000
1000
0001
,
0100
0001
1000
0100
,
0010
0002
0003
1000
,
0010
1000
1000
0001
,
0010
0001
0001
0100
,
0010
1000
0001
0010
,
0100
0000
0020
0000
0030
0000
0001
0100
,
0001
0100
0010
1000
0010
1000
0001
0010
,
0001
0010
0100
1000
0020
0000
1030
0100
,
1000
0010
0100
0001
0010
0001
0200
0000
,
0020
0000
0000
0000
0000
0000
0000
0330
,
2001
0000
3002
0203
0302
0000
2003
3020
,
2030
3000
0002
0023
0032
0000
0203
0320
,
0230
0000
0302
2003
3002
0000
2003
3200
,
2300
0000
3002
0203
0302
0000
2003
0000
,
3001
0010
0001
0010
,
0100
0000
1000
0000
0010
0000
0100
0001
,
0100
0001
0100
0001
,
0010
0000
0100
0000
1000
0000
0001
1000
,
0001
0100
0010
1000
,
0002
0023
0230
2000
,
3300
1000
1000
0010
,
0100
0001
0100
0000
0010
0000
1000
0000
,
1000
0001
0001
0010
,
0100
1000
0100
0000
0010
0000
0001
0000
,
0001
0100
0100
0010
,
1000
0001
1000
0000
0010
0000
1000
0000
,
1000
0100
0100
0010
,
0001
1000
0001
0000
0010
0000
0001
0000
,
0001
0100
0100
0001
,
1000
0100
1000
0000
0001
0000
0010
0000
,
0010
0100
0100
1000
,
0001
0100
0001
0000
1000
0000
0010
0000
,
0010
1000
1000
0001
,
0010
0100
0010
0000
0001
0000
0100
0000
,
0100
0001
0001
0010
,
0100
0010
0200
0000
0000
0000
1300
0000
,
0100
0010
0001
0100
,
0010
0000
1000
0000
0001
1000
0100
0000
,
0010
0100
1000
0010
,
0100
0000
0001
0000
0010
0001
1000
0000
,
0100
1000
0010
1000
,
0100
0000
0010
0000
0001
1000
0010
0000
,
0100
0001
0010
0001
,
0001
0000
0100
0001
1000
0000
0001
0000
,
0100
1000
0100
0001
,
0001
0010
0200
0000
0000
0000
1300
0000
,
0100
0001
0100
1000
,
1000
0010
0200
0000
0000
0000
0301
0000
,
0100
0010
0000
0010
1000
0000
0001
0000
,
0010
0000
0100
0000
1000
0000
0001
0100
,
0010
0000
1000
0100
0010
0000
2002
0000
,
0000
0000
0000
0000
3003
0000
1000
0010
,
1000
0010
0100
0001
0100
0001
1000
0100
,
1000
0100
0010
0001
0010
0001
0200
0000
,
0000
0000
0000
0300
;

//---------------dance-single - ----------------
#NOTEDATA:;
#CHARTNAME:;
#STEPSTYPE:dance-single;
#DESCRIPTION:;
#CHARTSTYLE:;
#DIFFICULTY:Easy;
#METER:4;
#RADARVALUES:0.238927,0.290021,0.065588,0.278748,0.000000,204.000000,196.000000,8.000000,34.000000,0.000000,0.000000,0.000000,0.000000,0.000000,0.238927,0.290021,0.065588,0.278748,0.000000,204.000000,196.000000,8.000000,34.000000,0.000000,0.000000,0.000000,0.000000,0.000000;
#CREDIT:;
#OFFSET:-0.036783;
#BPMS:0.000000=90.000000
,16.000000=180.000000
,91.000000=90.000000
,120.000000=180.000000
,205.000000=90.000000
,207.000000=180.000000
,271.000000=90.000000
;
#STOPS:26.000000=1.666667
,103.000000=2.000000
,144.000000=2.333329
;
#DELAYS:;
#WARPS:;
#TIMESIGNATURES:0.000000=4=4
;
#TICKCOUNTS:0.000000=4
;
#COMBOS:0.000000=1
;
#SPEEDS:0.000000=1.000000=0.000000=0
;
#SCROLLS:0.000000=1.000000
;
#FAKES:;
#LABELS:0.000000=Song Start
;
#NOTES:
0000
0000
0000
0000
,
0000
0000
0000
0000
,
1000
0100
1000
0100
,
0010
0001
0010
0001
,
2002
3003
0010
0000
,
0010
0000
0010
0000
,
2002
3003
0100
1000
,
0000
0001
0000
1000
,
0001
1000
0000
0001
,
0000
1000
0000
1001
,
0110
2002
3003
0010
,
0000
0100
0000
0010
,
0100
0010
0000
0100
,
0000
0010
0000
0110
,
1001
2002
3003
1000
,
0100
2000
3000
0001
,
0100
0002
0003
1000
,
0000
0001
0000
0010
,
0100
0020
0030
0001
,
0100
0001
0000
1000
,
0100
1000
0000
0010
,
0000
0010
0000
1000
,
0001
2000
3000
0001
,
0010
0001
0010
0100
,
1000
0100
1000
0001
,
0100
0001
0100
0010
,
2000
3200
0320
0032
,
2003
3020
0230
0302
,
0023
0032
2003
3020
,
2030
3200
0320
0032
,
1003
0000
1000
0000
,
0001
0000
0001
0000
,
0100
0000
0100
0000
,
0010
0000
0010
0000
,
1000
1000
0001
0001
,
1000
0001
1000
0001
,
0000
1000
0100
1000
,
0000
0010
0000
0100
,
0000
0001
0100
0001
,
0000
0010
0000
0100
,
0000
0010
0001
1000
,
0000
0010
0000
0100
,
0000
0010
1000
0001
,
0000
0010
0000
0100
,
0000
1000
0001
1000
,
0000
0010
0000
0100
,
0000
0001
1000
0001
,
0000
0010
0000
0100
,
0000
1000
0010
0100
,
0000
0010
0000
1000
,
0000
0001
0010
0100
,
0000
0000
2000
0000
0000
3000
0001
0000
,
0100
0001
0000
1000
,
0010
1000
0000
0001
,
0010
0001
0000
1000
,
0100
1000
0000
0001
,
0100
0010
0000
1000
,
0010
0100
0000
0001
,
0010
0100
0000
1000
,
0100
0010
0000
0001
,
1000
0001
0000
0001
,
0010
0002
0000
1003
,
0001
1000
0000
1000
,
0010
2000
0000
3001
,
0100
0010
0000
1000
,
0010
0100
0000
0001
,
1000
0001
2000
0002
,
0000
3003
0000
1000
,
0100
1000
0100
0010
,
0001
0010
0001
2000
,
0000
0000
0000
3000
;

//---------------dance-single - ----------------
#NOTEDATA:;
#CHARTNAME:;
#STEPSTYPE:dance-single;
#DESCRIPTION:;
#CHARTSTYLE:;
#DIFFICULTY:Beginner;
#METER:2;
#RADARVALUES:0.148744,0.221359,0.032794,0.163969,0.000000,127.000000,123.000000,4.000000,20.000000,0.000000,0.000000,0.000000,0.000000,0.000000,0.148744,0.221359,0.032794,0.163969,0.000000,127.000000,123.000000,4.000000,20.000000,0.000000,0.000000,0.000000,0.000000,0.000000;
#CREDIT:;
#OFFSET:-0.036783;
#BPMS:0.000000=180.000000
;
#STOPS:;
#DELAYS:;
#WARPS:;
#TIMESIGNATURES:0.000000=4=4
;
#TICKCOUNTS:0.000000=4
;
#COMBOS:0.000000=1
;
#SPEEDS:0.000000=1.000000=0.000000=0
;
#SCROLLS:0.000000=1.000000
;
#FAKES:;
#LABELS:0.000000=Song Start
;
#NOTES:
0000
0000
0000
0000
,
0000
0000
0000
0000
,
0000
0000
0000
0000
,
0000
0000
0000
0000
,
1000
0000
0000
0000
,
0001
0000
0000
0000
,
1000
0000
0000
0000
,
0001
0000
0000
0000
,
2002
0000
0000
0000
,
0000
0000
3003
0000
,
0220
0000
0330
0000
,
0000
0000
0000
0000
,
1000
0000
1000
0000
,
1000
0000
0100
0000
,
1000
0000
1000
0000
,
2002
0000
3003
0000
,
0001
0000
0001
0000
,
0001
0000
0100
0000
,
0001
0000
0001
0000
,
2002
0000
3003
0000
,
1000
0000
0000
0000
,
0100
0000
0000
0000
,
0010
0000
0001
0000
,
1000
0000
0000
0000
,
0001
0000
0000
0000
,
0100
0000
0000
0000
,
0010
0000
0010
0000
,
1000
0000
0001
0000
,
1000
0000
0000
0000
,
0100
0000
0000
0000
,
1000
0000
0000
0000
,
0100
0000
0000
0000
,
0010
0000
0000
0000
,
0001
0000
0000
0000
,
0200
0000
0000
0000
,
0000
0000
0300
0000
,
0002
0000
0003
0000
,
0200
0000
0300
0000
,
0020
0000
0030
0000
,
2000
0000
3000
0000
,
0002
0000
0003
0000
,
0020
0000
0030
0000
,
0200
0000
0300
0000
,
2000
0000
3000
0000
,
0001
0000
0001
0000
,
1000
0000
1000
0000
,
0001
0000
0001
0000
,
1000
0000
1000
0000
,
0001
0000
1000
0000
,
0001
0000
1000
0000
,
0000
0000
0000
0000
,
0000
0000
0000
0000
,
1000
0000
0100
0000
,
1000
0000
0100
0000
,
0010
0000
0001
0000
,
0010
0000
0001
0000
,
1000
0000
0010
0000
,
1000
0000
0010
0000
,
0100
0000
0001
0000
,
0100
0000
0001
0000
,
0010
0000
0100
0000
,
0010
0000
0100
0000
,
1000
0000
0001
0000
,
1000
0000
0001
0000
,
0100
0000
0010
0000
,
0100
0000
0010
0000
,
1000
0000
0001
0000
,
2000
0000
0000
3000
,
0001
0000
0001
0000
,
0100
0000
0100
0000
,
0010
0000
0010
0000
,
1000
0000
1000
0000
,
0100
0000
0100
0000
,
0010
0000
0010
0000
,
0001
0000
0001
0000
,
1000
0000
1000
0000
,
0010
0000
0100
0000
,
0010
0000
0000
0000
,
0100
0000
0010
0000
,
0100
0000
0000
0000
,
0001
0000
1000
0000
,
0001
0000
1000
0000
,
0100
0000
0010
0000
,
0200
0000
0300
0000
,
1000
0000
0000
0000
,
0001
0000
0000
0000
,
1000
0000
0000
0000
,
0001
0000
0000
0000
,
0200
0000
0000
0000
,
0000
0000
0000
0000
,
0300
0000
0000
0000
;
