#VERSION:0.83;
#TITLE:1950;
#SUBTITLE:;
#ARTIST:Slam;
#TITLETRANSLIT:;
#SUBTITLETRANSLIT:;
#ARTISTTRANSLIT:;
#GENRE:Hardcore;
#ORIGIN:;
#CREDIT:;
#BANNER:1950.png;
#BACKGROUND:1950-bg.png;
#PREVIEWVID:;
#JACKET:1950-jacket.png;
#CDIMAGE:;
#DISCIMAGE:;
#LYRICSPATH:;
#CDTITLE:cdtitle.png;
#MUSIC:1950.ogg;
#OFFSET:0.521800;
#SAMPLESTART:11.481200;
#SAMPLELENGTH:19.200001;
#SELECTABLE:YES;
#BPMS:0.000=200.000,
100.000=100.000,
102.000=200.000,
166.000=100.000,
182.000=200.000,
306.000=100.000,
308.000=200.000;
#STOPS:;
#DELAYS:;
#WARPS:;
#TIMESIGNATURES:0.000=4=4;
#TICKCOUNTS:0.000=4;
#COMBOS:0.000=1;
#SPEEDS:0.000=1.000=0.000=0;
#SCROLLS:0.000=1.000;
#FAKES:;
#LABELS:0.000=Song Start;
#BGCHANGES:1.250=1950.avi=1.000=1=0=1===CrossFade==,
380.000=1950-bg.png=1.000=1=0=1===CrossFade==,
99999=-nosongbg-=1.000=0=0=0 // don't automatically add -songbackground-
;
#KEYSOUNDS:;
#ATTACKS:
;

//---------------dance-single - ----------------
#NOTEDATA:;
#CHARTNAME:;
#STEPSTYPE:dance-single;
#DESCRIPTION:;
#CHARTSTYLE:;
#DIFFICULTY:Challenge;
#METER:18;
#RADARVALUES:1.105068,1.305206,0.749400,0.457967,1.078304,929.000000,839.000000,90.000000,55.000000,38.000000,0.000000,0.000000,0.000000,0.000000,1.105068,1.305206,0.749400,0.457967,1.078304,929.000000,839.000000,90.000000,55.000000,38.000000,0.000000,0.000000,0.000000,0.000000;
#CREDIT:;
#NOTES:
// measure 0
0000
0000
0000
0000
,  // measure 1
0000
0000
0000
0000
,  // measure 2
0000
0000
0000
0000
,  // measure 3
0000
0000
0000
0000
,  // measure 4
0000
0000
0000
0000
,  // measure 5
0000
0000
0000
0000
,  // measure 6
0001
0001
0100
0010
1010
0000
0001
0000
,  // measure 7
1000
1000
0100
0000
0011
0000
1000
0000
,  // measure 8
0010
0010
0100
0001
1001
0000
0001
1000
,  // measure 9
0001
0010
0000
0001
1000
0010
1000
0010
0100
0010
0100
0010
0100
0001
0100
0001
,  // measure 10
1000
0100
0110
0010
0001
0100
0110
0010
,  // measure 11
1000
0000
0001
0010
0001
0000
0010
0000
0100
0000
1000
0010
2000
0000
0000
0000
,  // measure 12
3001
0000
0100
0000
0110
0000
0010
0000
1000
0000
0100
0010
0100
0000
1000
0000
,  // measure 13
0001
0000
0001
0000
1000
0000
1000
0000
0001
0100
0010
1000
0100
1000
0010
0100
,  // measure 14
0001
0100
0110
0010
1000
0100
0110
0010
,  // measure 15
0001
0000
1000
0010
1000
0000
0010
0000
0100
0000
0001
0010
0002
0000
0000
0000
,  // measure 16
1003
0000
0100
0000
0110
0000
0010
0000
0001
0000
0100
0010
0100
0000
0001
0000
,  // measure 17
1000
0100
1000
0100
1000
0100
0010
0001
0100
0001
0100
0001
0100
0001
0100
0001
,  // measure 18
1000
0001
0011
0001
1000
0001
0101
0001
,  // measure 19
1000
0000
0010
1000
0100
0000
0001
0000
0100
0000
0010
0001
2000
0000
0000
0000
,  // measure 20
3001
0000
0100
0000
0110
0000
0010
0000
1000
0000
0100
0010
0001
0000
1000
0000
,  // measure 21
0010
0000
0010
0000
0100
0000
0100
0000
0001
0100
0010
0100
1000
0100
0010
0100
,  // measure 22
0001
1000
1100
1000
0001
1000
1010
1000
,  // measure 23
0001
0000
0010
0001
0100
0000
1000
0000
0100
0000
0010
0100
0001
0000
0010
0000
,  // measure 24
0001
0000
0100
0000
0110
0000
0010
0000
1000
0000
0100
0010
0001
0000
0100
0000
,  // measure 25
0220
0000
0000
0330
1001
1000
1010
1000
,  // measure 26
1010
0000
1000
0010
1000
0000
1000
0000
1001
0000
0001
0000
0011
0000
0001
0010
,  // measure 27
0001
0000
0001
1000
0020
0000
0000
0030
1010
0000
1000
0000
1000
0000
1001
0000
,  // measure 28
1000
0000
1000
0100
0020
0000
0000
0000
0130
0000
1001
0000
0000
0000
1001
0000
,  // measure 29
2020
3030
0000
0220
0330
0000
0202
0303
1001
0000
0001
0000
0011
0000
0001
0000
,  // measure 30
0011
0000
0001
0010
0001
0000
0001
0000
1001
0000
1000
0000
1010
0000
1000
0010
,  // measure 31
1000
0000
1000
0001
0020
0000
0000
0030
0011
0000
1001
0000
0000
0000
1001
0000
,  // measure 32
0000
0000
1000
0010
1000
0000
0001
0000
1000
0100
0010
0001
1000
0010
0100
0001
,  // measure 33
0010
0100
1000
0001
0200
0000
0000
0300
0101
0000
0001
0000
0101
0000
0001
0100
,  // measure 34
0010
0000
1000
0000
1001
0000
1000
0100
0010
0000
0100
1000
0010
0000
0100
0000
,  // measure 35
0001
0000
1000
0000
0001
0000
1000
0000
0200
0000
0000
0000
0000
0000
0000
0000
0310
0000
0000
0001
0000
0000
0100
0000
0000
0010
0000
0000
1000
0000
0000
0100
,  // measure 36
0000
0000
0010
0000
0000
0001
0000
0000
0200
0000
0000
0000
0000
0000
0000
0000
0310
0000
0000
0000
1001
0000
0000
0000
0000
0000
0000
0000
0001
0000
0000
0000
,  // measure 37
2000
3200
0300
0020
0032
0003
0200
0320
1030
0000
1000
0000
1010
0000
1000
0001
,  // measure 38
0010
0000
0001
0000
1001
0000
0001
0100
0010
0000
0100
0001
0010
0000
0100
0000
,  // measure 39
1000
0000
0001
0000
1000
0000
0001
0000
0200
0000
0000
0000
0000
0000
0000
0000
0310
0000
0000
1000
0000
0000
0100
0000
0000
0010
0000
0000
0001
0000
0000
0100
,  // measure 40
0000
0000
0010
0000
0000
1000
0000
0000
0100
0000
0000
0010
0000
0000
0001
0000
1000
0000
0010
0000
1000
0000
0010
0000
0100
0000
0001
0000
0100
0000
0001
0000
,  // measure 41
1000
0100
0010
0001
0200
0000
0000
0000
0020
0000
0000
0000
0300
0000
0000
0000
,  // measure 42
0030
2000
0002
3000
,  // measure 43
0003
0000
0000
0000
2000
0000
0000
0000
3100
0000
0010
0001
0000
0001
0010
0001
,  // measure 44
1000
0000
0010
1000
0000
1000
0010
1000
0001
0000
1000
0100
0000
0010
0001
0100
,  // measure 45
0000
0M00
0000
0M00
1001
1000
1100
0000
,  // measure 46
1010
0000
0000
0000
1001
0000
0000
0000
0001
0010
0001
0010
0100
1000
0100
1000
,  // measure 47
0010
0000
1001
0000
0110
0110
0000
0110
,  // measure 48
0000
0000
0000
0000
0110
0000
0000
0000
0110
0000
0000
0000
0000
0000
0000
0000
1000
0000
0000
0100
0000
0000
0010
0000
0000
1000
0000
0000
0010
0000
0000
0100
,  // measure 49
0000
0000
1000
0000
0000
0001
0000
0000
2000
0000
0000
0000
0000
0000
3000
0000
1001
0000
0000
0000
0001
0000
0000
0000
0101
0000
0000
0000
0000
0000
0000
0000
,  // measure 50
0011
0000
0000
0000
1001
0000
1000
0010
0100
0000
0001
0010
0100
0000
0010
0001
,  // measure 51
0100
0010
0100
0010
1000
0000
0000
0000
1001
0000
1001
0000
0000
0000
1001
0000
,  // measure 52
0000
0000
1001
0000
1001
0000
0001
0010
0100
0000
0001
0000
0100
0000
0010
0000
,  // measure 53
M002
0000
0000
0000
0M00
0000
0000
0000
00M0
0000
0000
0000
M000
0000
0000
0000
0M00
0000
0000
0000
00M0
0000
0000
0000
1003
0000
0000
0001
0000
0000
1000
0000
0000
0001
0000
0000
0100
0000
0000
0001
0000
0000
0100
0000
0000
0001
0000
0000
,  // measure 54
0100
0010
1000
0100
0010
0001
1000
0001
1000
0100
0010
0001
1000
0001
0100
0010
,  // measure 55
1000
0001
1000
0001
0010
0100
0010
0100
1000
0001
1000
0001
0100
0001
0100
0001
,  // measure 56
1000
0001
1000
0001
1000
0100
1000
0100
0010
0001
1000
0001
0100
0010
1000
0100
,  // measure 57
0010
0001
0100
0010
1000
0001
1000
0001
1000
0100
0010
0100
1000
0010
0100
0010
,  // measure 58
1000
0001
0010
0100
0010
0001
0100
0010
0100
0001
0010
0100
1000
0001
0100
0010
,  // measure 59
1000
0100
0010
0001
0100
0010
1000
0001
0020
0000
0000
0000
0000
0000
0130
1000
,  // measure 60
0002
0000
0000
0000
0000
0000
1000
0000
1003
0010
0000
1000
0001
0010
0001
0010
,  // measure 61
0100
0010
0100
0010
0100
1000
0100
1000
0001
0000
0100
0000
0110
0000
0010
0000
,  // measure 62
1000
0000
0100
0000
0110
0000
0010
0000
0001
0000
1000
0010
1000
0000
0010
0000
,  // measure 63
0100
0000
0001
0010
0002
0000
0000
0000
1003
0000
0100
0000
0110
0000
0010
0000
,  // measure 64
0001
0000
0100
0010
0100
0000
0001
0000
1000
0000
1000
0000
0001
0000
0001
0000
,  // measure 65
1000
0100
0010
0001
0100
0001
0010
0100
1000
0000
0100
0000
0110
0000
0010
0000
,  // measure 66
0001
0000
0100
0000
0110
0000
0010
0000
1000
0000
0001
0010
0001
0000
0010
0000
,  // measure 67
0100
0000
1000
0010
2000
0000
0000
0000
3001
0000
0100
0000
0110
0000
0010
0000
,  // measure 68
1000
0000
0100
0010
0100
0000
1000
0000
0001
0100
0001
0100
0001
0100
0010
1000
,  // measure 69
0100
1000
0100
1000
0100
1000
0100
1000
0001
0000
1000
0000
1010
0000
1000
0000
,  // measure 70
0001
0000
1000
0000
1100
0000
1000
0000
0001
0000
0010
0001
0100
0000
1000
0000
,  // measure 71
0100
0000
0010
1000
0002
0000
0000
0000
1003
0000
0100
0000
0110
0000
0010
0000
,  // measure 72
0001
0000
0100
0010
1000
0000
0001
0000
0010
0000
0010
0000
0100
0000
0100
0000
,  // measure 73
1000
0100
0010
0100
0001
0100
0010
0100
1000
0000
0001
0000
0101
0000
0001
0000
,  // measure 74
1000
0000
0001
0000
0011
0000
0001
0000
1000
0000
0010
1000
0100
0000
0001
0000
,  // measure 75
0100
0000
0010
0100
1000
0000
0010
0000
1000
0000
0100
0000
0110
0000
0010
0000
,  // measure 76
0001
0000
0100
0010
1000
0000
0100
0000
0220
0000
0000
0000
0000
0000
0330
0000
,  // measure 77
1001
0000
0000
0000
0000
0000
0000
0000
0001
0000
0000
0000
0001
0000
0000
0000
0001
0000
0000
0000
M2MM
0000
0000
0300
1001
0000
0000
0000
0000
0000
0000
0000
,  // measure 78
MM2M
0000
0000
0030
1001
0000
0000
0000
M000
0000
0MM2
0000
1003
0000
0000
0000
1000
0000
0000
0000
1000
0000
0000
0000
M2MM
0000
0000
0000
0000
0000
0000
0300
,  // measure 79
1001
0000
0000
0000
0000
0000
0000
0000
1000
0000
0000
0000
1100
0000
0000
0000
0000
0000
0001
0000
0100
0000
0000
0000
MM2M
0000
0000
0000
0000
0000
0000
0030
,  // measure 80
1001
0000
0000
0000
2MMM
0000
0000
3000
0001
0000
1000
0000
0100
0000
0000
0000
0110
0000
0000
0000
0000
0000
0110
0000
0000
0000
0000
0000
0110
0000
0000
0000
,  // measure 81
1001
0000
0000
0000
1000
0000
MM2M
0000
0000
0000
0030
1000
0000
1000
0001
0000
,  // measure 82
2MMM
0000
0000
3000
0100
0000
0000
0000
MMM2
0000
0000
0003
0100
0000
0000
0000
1000
0000
0100
0000
20MM
0000
0M00
3000
0020
0000
0000
0000
0000
0000
0000
0030
,  // measure 83
0101
0000
1010
0000
0000
0000
1001
0000
0000
0000
1000
0100
0010
0000
0100
0000
,  // measure 84
0010
0001
0100
0001
0000
0000
1001
0000
0010
1000
0100
1000
0002
0000
0000
0000
,  // measure 85
1003
0010
0100
0001
0010
0100
1000
0010
0100
0001
0010
0100
1000
0010
0100
0001
,  // measure 86
1000
0100
1000
0001
0100
0001
1000
0100
0010
0001
0010
0100
2000
0000
0000
0000
,  // measure 87
3001
0010
0100
1000
0010
0100
0001
0010
0100
1000
0010
0100
0001
0010
0100
1000
,  // measure 88
0001
0100
0010
1020
0000
0000
1030
0100
0010
0021
0000
0000
,  // measure 89
0130
1000
0001
0000
1000
0010
0100
0010
1000
0001
0010
0000
0100
1000
0001
1000
,  // measure 90
0010
0100
0000
0100
0001
0000
1000
0100
0010
0001
0100
0010
1000
0000
0001
0000
,  // measure 91
1000
0000
0010
1000
0100
0000
0010
0001
0010
0000
0100
1000
0010
0000
0100
0001
,  // measure 92
1000
0100
1000
0100
0010
0001
0100
0010
1000
0100
0010
0000
0001
0100
0010
2000
,  // measure 93
0002
0000
0000
0000
,  // measure 94
0000
0000
0000
0000
,  // measure 95
3003
0000
0000
0000
;

//---------------dance-single - ----------------
#NOTEDATA:;
#CHARTNAME:;
#STEPSTYPE:dance-single;
#DESCRIPTION:;
#CHARTSTYLE:;
#DIFFICULTY:Hard;
#METER:16;
#RADARVALUES:0.919502,1.067896,0.299760,0.466294,0.761890,773.000000,737.000000,36.000000,56.000000,28.000000,0.000000,0.000000,0.000000,0.000000,0.919502,1.067896,0.299760,0.466294,0.761890,773.000000,737.000000,36.000000,56.000000,28.000000,0.000000,0.000000,0.000000,0.000000;
#CREDIT:;
#NOTES:
// measure 0
0000
0000
0000
0000
,  // measure 1
0000
0000
0000
0000
,  // measure 2
0000
0000
0000
0000
,  // measure 3
0000
0000
0000
0000
,  // measure 4
0000
0000
0000
0000
,  // measure 5
0000
0000
0000
0000
,  // measure 6
1000
0100
1000
0000
1100
0000
1000
0000
,  // measure 7
0001
0100
0001
0000
0101
0000
0001
0000
,  // measure 8
1000
0010
1000
0010
1010
0000
1000
0001
,  // measure 9
1001
0000
0010
0100
0010
0100
0010
0100
,  // measure 10
2001
0000
3020
0000
1030
0001
0010
0001
,  // measure 11
0100
0000
0001
1000
0001
0000
0010
0000
0100
0000
1000
0001
2000
0000
0000
0000
,  // measure 12
3010
0000
1000
0000
0100
0000
0010
0000
0001
0000
0100
0001
0100
0000
0010
0000
,  // measure 13
1000
0000
0001
0000
1000
0000
0001
0000
1000
0001
1000
0001
1000
0001
1000
0001
,  // measure 14
1000
0001
0020
0000
0031
1000
0010
1000
,  // measure 15
0100
0000
1000
0001
1000
0000
0010
0000
0100
0000
0001
1000
0002
0000
0000
0000
,  // measure 16
0013
0000
0001
0000
0100
0000
0010
0000
1000
0000
0100
0010
0100
0000
1000
0000
,  // measure 17
0001
0100
1000
0100
1000
0100
0001
0100
,  // measure 18
0120
0000
2030
0000
3001
0010
1000
0010
,  // measure 19
0001
0000
1000
0010
1000
0000
0100
0000
0010
0000
0001
0100
0002
0000
0000
0000
,  // measure 20
1003
0000
0100
0000
0001
0000
0100
0000
1000
0000
0001
0100
0001
0000
1000
0000
,  // measure 21
0100
0000
0010
0000
0100
0000
0010
0000
0100
0010
0100
0010
0100
0010
0100
0010
,  // measure 22
0100
1000
0002
0000
1003
0010
0001
0010
,  // measure 23
1000
0000
0001
0010
0001
0000
0100
0000
0010
0000
1000
0100
1000
0000
0010
0000
,  // measure 24
1000
0000
0100
0000
0001
0000
0100
0000
1000
0000
0010
0100
0010
0000
1000
0000
,  // measure 25
2002
0000
0000
3003
1000
0010
0001
0010
,  // measure 26
1000
0000
0100
0010
0100
0000
1000
0000
0010
0000
0001
0000
0010
0000
1000
0100
,  // measure 27
1000
0000
0001
0100
0002
0000
0000
0000
0013
0000
0001
0000
0100
0000
1000
0000
,  // measure 28
0100
0000
0001
0010
0001
0000
0000
0000
0000
0000
0011
0000
0000
0000
0001
1000
,  // measure 29
0001
0000
0000
0110
0000
0000
1001
0000
0001
0000
0010
0000
1000
0000
0010
0000
,  // measure 30
0001
0000
0100
0010
0100
0000
0001
0000
0010
0000
1000
0000
0010
0000
0001
0100
,  // measure 31
0001
0000
1000
0100
2000
0000
0000
0000
3010
0000
1010
0000
0000
0000
1001
0000
,  // measure 32
0000
0000
0001
0010
0001
0000
1000
0000
0010
0100
0010
0100
0010
0100
0010
0100
,  // measure 33
0010
0100
0010
0100
0002
0000
0000
0000
1003
0000
0100
0000
0010
0000
0001
0100
,  // measure 34
0001
0000
0100
0000
0010
0000
1000
0100
1000
0000
0001
0100
0001
0000
1000
0000
,  // measure 35
0100
0000
0010
0000
0100
0000
0010
0000
0200
0000
0000
0000
0000
0000
0000
0000
1300
0000
0000
0010
0000
0000
1000
0000
0000
0001
0000
0000
0100
0000
0000
0001
,  // measure 36
0000
0000
1000
0000
0000
0100
0000
0000
1000
0000
0000
0000
0000
0000
0000
0000
0000
0000
0000
0000
1001
0000
0000
0000
0000
0000
0000
0000
1000
0000
0000
0000
,  // measure 37
0001
0010
0000
0001
0010
0000
0001
1000
0001
0000
0100
0000
0010
0000
1000
0100
,  // measure 38
1000
0000
0100
0000
0010
0000
0001
0100
0001
0000
1000
0100
1000
0000
0001
0000
,  // measure 39
0100
0000
0010
0000
0100
0000
0010
0000
0200
0000
0000
0000
0000
0000
0000
0000
0301
0000
0000
1000
0000
0000
0001
0000
0000
1000
0000
0000
0100
0000
0000
0010
,  // measure 40
0000
0000
0100
0000
0000
0010
0000
0000
0001
0000
0000
1000
0000
0000
0001
0000
0100
0000
0000
0000
0100
0000
0000
0000
1000
0000
0000
0000
0100
0000
0000
0000
,  // measure 41
0010
0100
0010
0100
0002
0000
0000
0000
2000
0000
0000
0000
0003
0000
0000
0000
,  // measure 42
3000
2000
0002
3000
,  // measure 43
0003
0000
0000
0000
2000
0000
0000
0000
3100
0000
0010
0100
0000
0010
0100
1000
,  // measure 44
0001
0000
0100
0010
0000
0100
0010
1000
0001
0000
1000
0100
0000
0010
0001
1000
,  // measure 45
0000
00M0
0000
00M0
1100
0000
0101
0000
,  // measure 46
0011
0000
0000
0000
1010
0000
0000
0000
1000
0001
1000
0001
1000
0001
1000
0001
,  // measure 47
1000
0000
0110
0000
0001
0001
0000
0001
,  // measure 48
0000
0000
0000
0000
0001
0000
0000
0000
0001
0000
0000
0000
0000
0000
0000
0000
1000
0000
0000
0010
0000
0000
1000
0000
0000
0001
0000
0000
0010
0000
0000
0001
,  // measure 49
0000
0000
1000
0000
0000
0001
0000
0000
0100
0000
0000
0000
0000
0000
0000
0000
0101
0000
0000
0000
0000
0000
0000
0000
1010
0000
0000
0000
0000
0000
0000
0000
,  // measure 50
1001
0000
0000
0000
1000
0000
0001
0010
0001
0000
1000
0010
1000
0000
0001
0010
,  // measure 51
0001
0010
0001
0010
0001
0000
0000
0000
1000
0000
1000
0000
0000
0000
1000
0000
,  // measure 52
0000
0000
1000
0000
1000
0000
0010
0100
0010
0000
1000
0000
0100
0000
0010
0000
,  // measure 53
M002
0000
0000
0000
0M00
0000
0000
0000
00M0
0000
0000
0000
M000
0000
0000
0000
0M00
0000
0000
0000
00M0
0000
0000
0000
1003
0000
0000
0000
0000
0000
0010
0000
0000
0000
0000
0000
0001
0000
0000
0000
0000
0000
0010
0000
0000
0100
0000
0000
,  // measure 54
0010
0000
1000
0001
1000
0000
0100
0000
0010
0001
0010
0000
0100
0000
1000
0001
,  // measure 55
1000
0001
0100
1000
0100
0001
0010
1000
,  // measure 56
0010
0000
0001
0000
0100
0000
0010
0000
1000
0010
1000
0010
0100
0010
0100
0010
,  // measure 57
0100
0000
0000
0001
0000
0000
0100
0000
0000
0001
0000
0000
2000
0000
0000
0000
0000
0000
0000
0000
0000
0000
0000
0000
3001
0000
0000
0000
0010
0000
0000
0000
0001
0000
0000
0000
1000
0000
0000
0000
0001
0000
0000
0000
1000
0000
0000
0000
,  // measure 58
0001
0000
0000
0000
0100
0000
0000
0000
0001
0000
0000
0000
1000
0000
0000
0000
0100
0000
0000
0000
0010
0000
0000
0000
0001
0000
0000
0000
0000
0000
1000
0000
0000
0100
0000
0000
1000
0000
0000
0000
0000
0000
0001
0000
0000
0000
0000
0000
,  // measure 59
0100
0010
0100
0000
0001
0000
1000
0000
2001
0000
0000
0000
0000
0000
0000
0000
,  // measure 60
0002
0000
0000
3003
1001
0000
0010
0100
,  // measure 61
0010
0100
0010
0100
1002
0000
0023
0000
,  // measure 62
0031
0000
1000
0000
0010
0000
1000
0000
0100
0000
1000
0001
1000
0000
0010
0000
,  // measure 63
0100
0000
0001
1000
0002
0000
0000
0000
0013
0000
0001
0000
0100
0000
0010
0000
,  // measure 64
1000
0000
0100
1000
0100
0000
0010
0000
0001
0000
1000
0000
0001
0000
1000
0000
,  // measure 65
0001
1000
0001
1000
0001
1000
0001
1000
0001
0000
1000
0000
0020
0000
0000
0000
,  // measure 66
1030
0000
0001
0000
0010
0000
0001
0000
0100
0000
0001
1000
0001
0000
0010
0000
,  // measure 67
0100
0000
1000
0001
2000
0000
0000
0000
3010
0000
1000
0000
0100
0000
0010
0000
,  // measure 68
0001
0000
0100
0010
0100
0000
0001
0000
1000
0000
0100
0000
0001
0000
0100
0000
,  // measure 69
0001
0100
1000
0100
0120
0000
0032
0000
,  // measure 70
1003
0000
0010
0000
0001
0000
0010
0000
1000
0000
0001
0010
0001
0000
0100
0000
,  // measure 71
0010
0000
1000
0100
2000
0000
0000
0000
3001
0000
0100
0000
1000
0000
0100
0000
,  // measure 72
0001
0000
1000
0100
1000
0000
0001
0000
0100
0000
0010
0000
0100
0000
0010
0000
,  // measure 73
0100
0010
0100
0010
0100
0010
0100
0010
0100
0000
0001
0000
2000
0000
0000
0000
,  // measure 74
3001
0000
0010
0000
1000
0000
0010
0000
0001
0000
1000
0010
1000
0000
0100
0000
,  // measure 75
0010
0000
0001
0100
0001
0000
0010
0000
0001
0000
0100
0000
1000
0000
0100
0000
,  // measure 76
0001
0000
0010
0100
0010
0000
0001
0000
2002
0000
0000
0000
0000
0000
3003
0000
,  // measure 77
2001
0000
0000
0000
0000
0000
0000
0000
3100
0000
0000
0000
1000
0000
0000
0000
0100
0000
0000
0000
2MM0
0000
0000
3000
0001
0000
0000
0000
0000
0000
0000
0000
,  // measure 78
0MM2
0000
0000
0003
0100
0000
0000
0000
0001
0000
2MM0
3000
0001
0000
0000
0000
0100
0000
0000
0000
0001
0000
0000
0000
2MM0
0000
0000
0000
0000
0000
0000
3000
,  // measure 79
1002
0000
0000
0000
0000
0000
0000
0003
0010
0000
0000
0000
0100
0000
0000
0000
0000
0000
0010
0000
0001
0000
0000
0000
2MM0
0000
0000
0000
0000
0000
0000
3000
,  // measure 80
0010
0000
0000
0000
2MM0
0000
0000
3000
0010
0000
0100
0000
0010
0000
0000
0000
1001
0000
0000
0000
0000
0000
0110
0000
0000
0000
0000
0000
1001
0000
0000
0000
,  // measure 81
2001
0000
0000
0000
0000
0000
0000
0000
3100
0000
0000
0000
M02M
0000
0000
0000
0000
0000
0000
0030
0000
0000
0001
0000
0000
0000
1000
0000
0001
0000
0000
0000
,  // measure 82
M20M
0000
0000
0300
0010
0000
0000
0000
M20M
0000
0000
0300
0010
0000
0000
0000
1000
0000
0000
0000
M20M
0300
0010
0000
0002
0000
0000
0000
0000
0000
0000
0000
,  // measure 83
0103
0000
1001
0000
0000
0000
1001
0000
0000
0000
0001
1000
0001
0000
1000
0000
,  // measure 84
0001
0100
0001
0000
0000
0000
1000
0000
0001
0010
0001
0010
0002
0000
0000
0000
,  // measure 85
1003
0010
1000
0010
1000
0010
0100
0010
0100
0010
0100
0010
1000
0010
1000
0010
,  // measure 86
1000
0000
0000
1010
0000
0000
1001
0000
1000
0000
0100
0000
0020
0000
0000
0000
,  // measure 87
0031
0010
0001
0010
0001
0010
0100
0010
0100
0010
0100
0010
0001
0010
0001
0010
,  // measure 88
0001
1000
0001
2000
0000
0000
3010
0100
0010
0200
0000
0000
,  // measure 89
0301
0100
0000
0000
0010
1000
0010
1000
0001
0100
0000
0000
0001
1000
0001
1000
,  // measure 90
0100
0010
0000
0100
0010
0000
0001
1000
0010
0100
0010
0100
0010
0000
1000
0000
,  // measure 91
0100
0000
0010
0001
1000
0000
0001
1000
0001
0000
1000
0010
0100
0000
0010
0100
,  // measure 92
0010
0000
1000
0000
0100
0000
0001
0000
0100
0000
0010
0000
0001
0100
0010
2000
,  // measure 93
0002
0000
0000
0000
,  // measure 94
0000
0000
0000
0000
,  // measure 95
3003
0000
0000
0000
;

//---------------dance-single - ----------------
#NOTEDATA:;
#CHARTNAME:;
#STEPSTYPE:dance-single;
#DESCRIPTION:;
#CHARTSTYLE:;
#DIFFICULTY:Medium;
#METER:13;
#RADARVALUES:0.647101,0.672379,0.258127,0.707767,0.049960,544.000000,513.000000,31.000000,85.000000,12.000000,0.000000,4.000000,0.000000,0.000000,0.647101,0.672379,0.258127,0.707767,0.049960,544.000000,513.000000,31.000000,85.000000,12.000000,0.000000,4.000000,0.000000,0.000000;
#CREDIT:;
#NOTES:
// measure 0
0000
0000
0000
0000
,  // measure 1
0000
0000
0000
0000
,  // measure 2
0000
0000
0000
0000
,  // measure 3
0000
0000
0000
0000
,  // measure 4
0000
0000
0000
0000
,  // measure 5
0000
0000
0000
0000
,  // measure 6
1000
0010
1000
0000
0001
0000
1000
0000
,  // measure 7
0001
0010
0001
0000
1000
0000
0001
0000
,  // measure 8
1000
0010
1000
0010
0100
0000
0001
1000
,  // measure 9
0200
0000
0000
0300
,  // measure 10
2001
0000
3020
0000
1030
0100
0010
0001
,  // measure 11
0100
0001
0020
0000
0031
0100
0020
0000
,  // measure 12
1030
0100
0010
0000
0011
0000
1100
0000
,  // measure 13
1000
0001
1000
0001
0400
0000
0000
0300
,  // measure 14
1002
0000
0023
0000
0031
0100
0010
1000
,  // measure 15
0100
1000
0020
0000
1030
0100
0020
0000
,  // measure 16
0031
0100
0010
0000
1000
0010
0100
0001
,  // measure 17
2000
3200
0320
0031
,  // measure 18
1002
0000
0203
0000
0310
1000
0100
1000
,  // measure 19
0001
0100
0020
0000
0031
0010
0200
0000
,  // measure 20
0310
1000
0100
0000
0110
0000
1001
0000
,  // measure 21
0001
0100
0010
1000
0004
0000
0000
0003
,  // measure 22
2001
0000
3200
0000
0310
0001
0100
0001
,  // measure 23
1000
0100
0020
0000
1030
0010
0200
0000
,  // measure 24
0310
0001
0100
0000
0010
1000
0001
0010
,  // measure 25
0200
0000
0300
0000
1000
0001
0100
0001
,  // measure 26
0100
0001
0010
0001
1000
0001
0100
0001
,  // measure 27
0100
0010
2000
0000
3001
1000
0100
0010
,  // measure 28
0001
0100
0010
0000
0000
1000
0000
1000
,  // measure 29
0010
0000
0000
1010
0000
0000
0100
0000
0001
0000
1000
0000
0100
0000
1000
0000
,  // measure 30
0100
1000
0010
1000
0001
1000
0100
1000
,  // measure 31
0100
0010
0002
0000
1003
0010
0000
0100
,  // measure 32
0000
0010
0100
0010
1000
0100
0010
0001
,  // measure 33
0100
0010
2000
0000
3001
0010
0100
1000
,  // measure 34
0100
1000
0010
0100
0001
0010
0100
1000
,  // measure 35
0001
0100
0020
0000
2030
0000
3100
0020
,  // measure 36
0000
0000
0032
0000
0000
1003
0000
1000
,  // measure 37
0001
0000
0000
0110
0000
0000
0001
0000
1000
0000
0010
0000
0100
0000
0001
0000
,  // measure 38
0100
0001
0010
0100
1000
0010
0100
0001
,  // measure 39
1000
0100
0020
0000
0032
0000
0203
0000
,  // measure 40
0320
0000
2030
0000
3001
0100
0010
1000
,  // measure 41
0100
0010
0002
0000
0203
0000
0000
0000
,  // measure 42
0300
0020
2000
0030
,  // measure 43
3000
0000
0000
0000
0002
0000
0000
0000
1003
0000
0100
0010
0000
0100
0010
0000
,  // measure 44
0001
0000
0100
0010
0000
0100
0010
0000
1000
0000
0001
0010
0000
0100
1000
0000
,  // measure 45
0000
00M0
0000
00M0
1001
0000
0101
0000
,  // measure 46
1001
0000
1100
0000
1000
0001
0100
0001
,  // measure 47
1000
0000
2100
0000
3001
0100
0000
0100
,  // measure 48
0000
0100
0001
0000
0020
0000
0230
0000
,  // measure 49
2300
3001
1001
1010
,  // measure 50
1001
0000
0001
0010
0100
0010
0001
0100
,  // measure 51
0010
1000
0002
0000
1003
0100
0000
0100
,  // measure 52
0000
0100
1000
0001
0100
0010
0100
0001
,  // measure 53
2000
0000
0000
0000
3001
0010
0001
0010
,  // measure 54
0001
1000
0001
1000
0001
0100
0001
0100
,  // measure 55
0001
1000
0001
1000
0100
1000
0100
1000
,  // measure 56
0001
1000
0001
1000
0001
0100
0010
1000
,  // measure 57
0100
0010
0002
0000
1003
0010
0100
0001
,  // measure 58
0010
0100
1000
0001
0100
0010
1000
0100
,  // measure 59
0010
0001
0100
0010
2000
0000
0000
0000
,  // measure 60
3002
0000
0203
0000
,  // measure 61
0000
0300
1002
0023
,  // measure 62
0031
0100
0010
1000
0100
1000
0020
0000
,  // measure 63
1030
0100
0020
0000
0031
0100
0010
0000
,  // measure 64
1010
0000
0101
0000
0001
1000
0001
1000
,  // measure 65
0400
0000
0000
0300
2001
0000
3020
0000
,  // measure 66
1030
0100
0010
0001
0100
0001
0020
0000
,  // measure 67
0031
0100
0020
0000
1030
0100
0010
0000
,  // measure 68
0001
0010
0100
1000
0002
0000
0203
0000
,  // measure 69
0320
1030
2001
3200
,  // measure 70
0310
0001
0100
0001
1000
0100
0020
0000
,  // measure 71
1030
0010
0200
0000
0310
0001
0100
0000
,  // measure 72
0110
0000
1001
0000
1000
0100
0010
0001
,  // measure 73
4000
0000
0000
3000
1002
0000
0203
0000
,  // measure 74
0310
1000
0100
1000
0001
0100
0020
0000
,  // measure 75
0031
0010
0200
0000
0310
1000
0100
0000
,  // measure 76
0010
0001
1000
0010
0200
0000
0300
0000
,  // measure 77
1001
0000
0000
0000
0000
0000
0000
0000
0001
0000
0000
0000
0100
0000
0000
0000
0001
0000
0000
0000
02M0
0000
0000
0300
0001
0000
0000
0000
0000
0000
0000
0000
,  // measure 78
20M0
0000
0000
3000
0100
0000
0000
0000
0000
0000
20M0
3000
0000
0000
0000
0000
0100
0000
0000
0000
1000
0000
0000
0000
02M0
0000
0000
0000
0000
0000
0000
0300
,  // measure 79
1001
0000
0000
0000
0000
0000
0000
0000
1000
0000
0000
0000
0010
0000
0000
0000
0000
0000
0000
0000
0010
0000
0000
0000
2M00
0000
0000
0000
0000
0000
0000
3000
,  // measure 80
0001
0000
0000
0000
0M20
0000
0000
0030
0001
0000
0000
0000
1000
0000
0000
0000
0010
0000
0000
0000
0000
0000
0110
0000
0000
0000
0000
0000
0100
0000
0000
0000
,  // measure 81
0001
0000
0000
0000
0000
0000
0000
0000
0001
0000
0000
0000
M200
0000
0000
0000
0000
0000
0000
0300
0001
0000
0000
0000
1000
0000
0000
0000
0100
0000
0000
0000
,  // measure 82
002M
0000
0000
0030
0100
0000
0000
0000
002M
0000
0000
0030
0100
0000
0000
0000
1000
0000
0000
0000
00M2
0000
0000
0003
0200
0000
0000
0000
0000
0000
0000
0300
,  // measure 83
0001
1000
0000
1000
0000
0001
1000
0001
,  // measure 84
0010
0100
0000
0010
0100
1000
0002
0000
,  // measure 85
1003
0010
0100
0001
0010
0100
1000
0010
,  // measure 86
0100
0000
0000
0100
0000
0000
0001
0000
1000
0000
0100
0000
0020
0000
0000
0000
,  // measure 87
0031
0010
0100
1000
0010
0100
0001
1000
,  // measure 88
0100
0012
0103
2010
,  // measure 89
3001
0000
0100
0001
0010
0000
0100
1000
,  // measure 90
0010
0000
0000
0100
0000
0000
0010
0000
0100
0000
0001
0000
0010
0000
0001
0000
,  // measure 91
1000
0010
1000
0010
0001
0010
0001
0010
,  // measure 92
1000
0100
0010
0001
0100
0010
1000
0200
,  // measure 93
0020
0000
0000
0000
,  // measure 94
0000
0000
0000
0000
,  // measure 95
0330
0000
0000
0000
;

//---------------dance-single - ----------------
#NOTEDATA:;
#CHARTNAME:;
#STEPSTYPE:dance-single;
#DESCRIPTION:;
#CHARTSTYLE:;
#DIFFICULTY:Easy;
#METER:11;
#RADARVALUES:0.547181,0.632827,0.341394,0.599520,0.000000,460.000000,419.000000,41.000000,72.000000,0.000000,0.000000,0.000000,0.000000,0.000000,0.547181,0.632827,0.341394,0.599520,0.000000,460.000000,419.000000,41.000000,72.000000,0.000000,0.000000,0.000000,0.000000,0.000000;
#CREDIT:;
#NOTES:
// measure 0
0000
0000
0000
0000
,  // measure 1
0000
0000
0000
0000
,  // measure 2
0000
0000
0000
0000
,  // measure 3
0000
0000
0000
0000
,  // measure 4
0000
0000
0000
0000
,  // measure 5
0000
0000
0000
0000
,  // measure 6
1000
0100
1000
0000
0100
0000
0000
0000
,  // measure 7
0001
0100
0001
0000
0100
0000
0000
0000
,  // measure 8
1000
0100
1000
0000
0100
0000
0000
0000
,  // measure 9
2002
0000
0000
3003
,  // measure 10
1001
0000
1000
0000
0010
1000
0010
0000
,  // measure 11
0100
0000
0001
0000
0010
0001
0010
0000
,  // measure 12
0100
1000
0010
0100
,  // measure 13
0001
1000
0001
2000
0002
0000
3003
0000
,  // measure 14
1001
0000
0001
0000
0010
0001
0010
0000
,  // measure 15
0100
0000
1000
0000
0010
1000
0010
0000
,  // measure 16
0100
0000
0001
0000
0010
0001
1000
0000
,  // measure 17
0020
0230
0002
0303
,  // measure 18
1001
0000
1000
0000
0010
0100
0010
0000
,  // measure 19
1000
0000
0001
0000
0010
0100
0010
0000
,  // measure 20
0001
0100
0010
1000
,  // measure 21
0100
0010
0100
0020
0200
0000
0330
0000
,  // measure 22
1001
0000
0001
0000
0010
0100
0010
0000
,  // measure 23
0001
0000
1000
0000
0010
0100
0010
0000
,  // measure 24
1000
0000
0100
0000
0010
0001
1000
0000
,  // measure 25
2002
0000
3003
0000
2001
0000
3100
1000
,  // measure 26
0100
0100
1002
0103
,  // measure 27
0001
0100
0010
0000
2001
0000
3100
0010
,  // measure 28
0100
0000
1001
0000
0000
1000
0000
0010
,  // measure 29
0100
0000
0110
0000
1002
0000
0103
0001
,  // measure 30
0100
0100
2001
3100
,  // measure 31
1000
0001
1000
0000
0001
0100
0000
0100
,  // measure 32
0000
0100
0001
0000
1000
0100
1000
0100
,  // measure 33
1000
0100
0010
0000
0012
0000
1003
0001
,  // measure 34
1000
1000
2010
3001
,  // measure 35
0100
0001
0010
0000
0002
0000
0203
0000
,  // measure 36
0320
0000
2030
0000
0000
3001
0000
0010
,  // measure 37
0001
0000
0101
0000
2010
0000
3001
1000
,  // measure 38
0001
0001
0012
1003
,  // measure 39
0010
1000
0100
0000
0020
0000
0230
0000
,  // measure 40
2300
0000
3002
0000
0103
0010
0100
0010
,  // measure 41
0200
0320
2000
0030
,  // measure 42
3000
0002
0020
0003
,  // measure 43
0030
0000
0200
0000
1300
0001
0100
0001
,  // measure 44
1000
0001
0010
0001
0100
0010
1000
0100
,  // measure 45
0000
0000
1001
1001
,  // measure 46
0110
0000
0110
0000
1000
0001
1000
0001
,  // measure 47
1000
0000
0110
0000
0001
1000
0000
0001
,  // measure 48
0000
1000
0001
0000
2000
0000
3200
0000
,  // measure 49
0320
0031
1001
0110
,  // measure 50
1001
0000
1000
0010
1000
0000
0001
0010
,  // measure 51
0001
0000
1001
0000
1000
0001
0000
1000
,  // measure 52
0000
0001
1000
0000
0001
0010
0100
1000
,  // measure 53
0002
0000
0000
0000
1003
0000
0001
0100
,  // measure 54
0001
0000
1000
0100
1000
0000
0001
0100
,  // measure 55
0001
0000
1000
0010
1000
0000
0001
0010
,  // measure 56
0001
0000
1000
0010
2000
0000
3200
0000
,  // measure 57
0320
0000
0032
0000
1003
0010
0100
0000
,  // measure 58
0010
0100
0001
0000
1000
0100
0010
0000
,  // measure 59
0100
0010
0001
0000
0200
0000
0300
0000
,  // measure 60
0020
0030
2002
0000
,  // measure 61
0000
3003
1001
0001
,  // measure 62
0010
0001
0010
0000
0100
0000
1000
0000
,  // measure 63
0010
1000
0010
0000
0100
0000
0001
0000
,  // measure 64
0010
0000
0100
0000
1000
0001
1000
0002
,  // measure 65
2000
3003
1001
1000
,  // measure 66
0010
1000
0010
0000
0100
0000
0001
0000
,  // measure 67
0010
0001
0010
0000
0100
0000
1000
0000
,  // measure 68
0010
1000
0001
0000
0020
0000
0230
0000
,  // measure 69
2000
3300
1001
0001
,  // measure 70
0010
0100
0010
0000
0001
0000
1000
0000
,  // measure 71
0010
0100
0010
0000
1000
0000
0100
0000
,  // measure 72
0010
0000
0001
0000
0100
0010
0100
0020
,  // measure 73
0200
0330
1001
1000
,  // measure 74
0010
0100
0010
0000
1000
0000
0001
0000
,  // measure 75
0010
0100
0010
0000
0001
0000
0100
0000
,  // measure 76
0010
1000
0001
0000
2002
0000
3003
0000
,  // measure 77
1001
0000
1000
0000
1000
0002
0103
0000
,  // measure 78
0002
1003
0000
0002
0103
0001
2000
3000
,  // measure 79
1001
0000
0001
1000
0001
0000
0020
0000
,  // measure 80
0031
2000
3001
1000
0010
0000
0110
0000
,  // measure 81
1001
0000
1000
0200
0000
1300
0100
0000
,  // measure 82
0020
0030
0200
0300
0010
0002
2003
0000
,  // measure 83
3001
1000
0000
0001
0000
1000
0001
0000
,  // measure 84
0100
0010
0000
1000
0010
0100
0002
0000
,  // measure 85
1003
0100
1000
0100
1000
0100
1000
0100
,  // measure 86
1000
0001
1000
2001
,  // measure 87
3001
0100
0001
0100
0001
0100
0001
0100
,  // measure 88
0001
0102
1003
2100
,  // measure 89
3001
0000
1000
0010
1000
0000
0001
0000
,  // measure 90
1000
0000
0001
0010
0001
0000
1000
0000
,  // measure 91
0001
0100
0001
0000
1000
0100
1000
0000
,  // measure 92
0001
1000
0001
1000
0001
1000
0001
0000
,  // measure 93
2002
0000
0000
0000
,  // measure 94
0000
0000
0000
0000
,  // measure 95
3003
0000
0000
0000
;

//---------------dance-single - ----------------
#NOTEDATA:;
#CHARTNAME:;
#STEPSTYPE:dance-single;
#DESCRIPTION:;
#CHARTSTYLE:;
#DIFFICULTY:Beginner;
#METER:7;
#RADARVALUES:0.377079,0.416334,0.183187,0.416334,0.000000,317.000000,295.000000,22.000000,50.000000,0.000000,0.000000,0.000000,0.000000,0.000000,0.377079,0.416334,0.183187,0.416334,0.000000,317.000000,295.000000,22.000000,50.000000,0.000000,0.000000,0.000000,0.000000,0.000000;
#CREDIT:;
#OFFSET:0.521800;
#BPMS:0.000000=200.000000
;
#STOPS:;
#DELAYS:;
#WARPS:;
#TIMESIGNATURES:0.000000=4=4
;
#TICKCOUNTS:0.000000=4
;
#COMBOS:0.000000=1
;
#SPEEDS:0.000000=1.000000=0.000000=0
;
#SCROLLS:0.000000=1.000000
;
#FAKES:;
#LABELS:0.000000=Song Start
;
#NOTES:
// measure 0
0000
0000
0000
0000
,  // measure 1
0000
0000
0000
0000
,  // measure 2
0000
0000
0000
0000
,  // measure 3
0000
0000
0000
0000
,  // measure 4
0000
0000
0000
0000
,  // measure 5
0000
0000
0000
0000
,  // measure 6
0001
0001
0100
0000
,  // measure 7
1000
1000
0100
0000
,  // measure 8
0001
0001
0100
0000
,  // measure 9
2002
0000
0000
3003
,  // measure 10
1000
0100
0010
0100
,  // measure 11
1000
0010
0100
0010
,  // measure 12
1000
0100
0010
0001
,  // measure 13
0100
0100
0200
0000
,  // measure 14
0301
0100
0010
0100
,  // measure 15
0001
0010
0100
0010
,  // measure 16
0001
0100
0010
1000
,  // measure 17
2002
3003
0220
0330
,  // measure 18
1000
0001
0010
0001
,  // measure 19
1000
0010
1000
0001
,  // measure 20
1000
0100
0010
0001
,  // measure 21
0100
0010
2002
3003
,  // measure 22
1000
0100
1000
0001
,  // measure 23
0100
0001
1000
0100
,  // measure 24
0010
0001
1000
0010
,  // measure 25
0220
0000
0330
0000
,  // measure 26
0001
0100
0100
0001
,  // measure 27
1000
0100
0100
2000
,  // measure 28
3001
0100
0100
0001
,  // measure 29
0000
1000
0000
0000
2002
0000
3003
0000
,  // measure 30
1000
0010
0010
1000
,  // measure 31
0001
0010
0010
0002
,  // measure 32
0103
0000
0000
0100
0000
0000
0100
0000
,  // measure 33
0010
0010
1000
0002
,  // measure 34
1003
0100
0100
0010
,  // measure 35
0001
0100
0100
0020
,  // measure 36
1030
0001
0001
1000
,  // measure 37
0000
0001
0000
0000
2002
0000
3003
0000
,  // measure 38
0001
0010
0010
0100
,  // measure 39
1000
0010
0010
0200
,  // measure 40
0301
1000
0001
1000
,  // measure 41
0100
0020
0200
0330
,  // measure 42
2002
0000
3000
0000
,  // measure 43
0003
0000
0000
0000
,  // measure 44
0220
0000
0300
0000
,  // measure 45
0030
0000
0000
0000
,  // measure 46
1000
0000
1000
0000
,  // measure 47
0001
0000
0001
0000
,  // measure 48
0100
0000
0100
0000
,  // measure 49
0000
0000
0000
0000
,  // measure 50
0001
0001
0010
0010
,  // measure 51
0100
0100
1000
1000
,  // measure 52
0001
0000
0000
0001
0000
0000
0001
0000
,  // measure 53
0100
0010
0100
0010
,  // measure 54
1000
1000
0100
0100
,  // measure 55
0010
0010
0001
0001
,  // measure 56
1000
0000
0000
1000
0000
0000
1000
0000
,  // measure 57
0010
0100
0002
0000
,  // measure 58
1003
0100
0010
0001
,  // measure 59
1000
0010
0100
0001
,  // measure 60
0010
0100
1000
0001
,  // measure 61
0100
0001
0010
0001
,  // measure 62
1000
1000
0010
0010
,  // measure 63
0100
0100
0001
0001
,  // measure 64
0020
0030
0200
0300
,  // measure 65
2002
0000
0000
3003
,  // measure 66
0001
0100
0010
0100
,  // measure 67
0001
0010
0100
0010
,  // measure 68
0001
0100
0010
1000
,  // measure 69
0100
0100
0200
0000
,  // measure 70
1300
0100
0010
0100
,  // measure 71
1000
0010
0100
0010
,  // measure 72
1000
0100
0010
0001
,  // measure 73
2002
3003
0220
0330
,  // measure 74
0001
1000
0010
1000
,  // measure 75
0001
0010
0001
1000
,  // measure 76
0001
0100
0010
1000
,  // measure 77
0100
0010
2002
3003
,  // measure 78
0001
0100
0001
1000
,  // measure 79
0100
1000
0001
0100
,  // measure 80
0010
1000
0001
0010
,  // measure 81
0220
0000
0330
0000
,  // measure 82
1001
0000
0100
0000
,  // measure 83
0010
0000
0100
0000
,  // measure 84
1001
0000
0100
0000
,  // measure 85
0010
0000
2002
3003
,  // measure 86
1001
0000
0100
0000
,  // measure 87
0010
0000
0100
0000
,  // measure 88
1001
0000
0000
1000
0000
0000
1000
0000
,  // measure 89
0001
1000
0200
0300
,  // measure 90
1000
0100
0010
0001
,  // measure 91
0010
0100
1000
2000
,  // measure 92
3001
0100
0010
1000
,  // measure 93
2002
3003
0220
0330
,  // measure 94
0001
0010
0100
1000
,  // measure 95
0100
0010
0001
0001
,  // measure 96
1000
0010
1000
0001
,  // measure 97
1000
0100
0010
0001
,  // measure 98
2002
0000
0000
0000
,  // measure 99
0000
0000
0000
0000
,  // measure 100
3003
0000
0000
0000
;
