#VERSION:0.83;
#TITLE:wanna be a "BAD GIRL" feat. Nana Takahashi;
#SUBTITLE:;
#ARTIST:Nhato;
#TITLETRANSLIT:;
#SUBTITLETRANSLIT:;
#ARTISTTRANSLIT:;
#GENRE:Funk Pop;
#ORIGIN:;
#CREDIT:;
#BANNER:wanna be a BAD GIRL feat. Nana Takahashi.png;
#BACKGROUND:wanna be a BAD GIRL feat. Nana Takahashi-bg.png;
#PREVIEWVID:;
#JACKET:wanna be a BAD GIRL feat. Nana Takahashi-jacket.png;
#CDIMAGE:;
#DISCIMAGE:;
#LYRICSPATH:;
#CDTITLE:cdtitle.png;
#MUSIC:wanna be a BAD GIRL feat. Nana Takahashi.ogg;
#OFFSET:-0.988000;
#SAMPLESTART:87.607719;
#SAMPLELENGTH:13.521126;
#SELECTABLE:YES;
#BPMS:0.000=142.000;
#STOPS:;
#DELAYS:;
#WARPS:;
#TIMESIGNATURES:0.000=4=4;
#TICKCOUNTS:0.000=4;
#COMBOS:0.000=1;
#SPEEDS:0.000=1.000=0.000=0;
#SCROLLS:0.000=1.000;
#FAKES:;
#LABELS:0.000=Song Start;
#BGCHANGES:;
#KEYSOUNDS:;
#ATTACKS:
;

//---------------dance-single - ----------------
#NOTEDATA:;
#CHARTNAME:;
#STEPSTYPE:dance-single;
#DESCRIPTION:;
#CHARTSTYLE:;
#DIFFICULTY:Easy;
#METER:5;
#RADARVALUES:0.230404,0.280840,0.112336,0.200600,0.000000,201.000000,187.000000,14.000000,25.000000,0.000000,0.000000,0.000000,0.000000,0.000000,0.230404,0.280840,0.112336,0.200600,0.000000,201.000000,187.000000,14.000000,25.000000,0.000000,0.000000,0.000000,0.000000,0.000000;
#CREDIT:;
#NOTES:
0000
0000
0000
0000
,
0000
0000
0000
0000
,
0000
0000
0000
0000
,
0000
0000
0000
0000
,
0001
0000
0100
0000
,
0001
0100
0010
1000
,
0001
0000
0001
0000
,
0100
0000
0001
0000
,
1000
0000
0100
0000
,
1000
0100
0010
0001
,
1000
0000
1000
0000
,
0100
0000
1000
0001
,
1000
0010
0100
0000
,
0010
0100
0001
1000
,
0100
0000
1001
0000
,
1001
0000
0001
1000
,
0001
0010
0100
0000
,
0010
0100
1000
0001
,
0100
0100
0100
0000
,
1001
0000
0001
0010
,
0200
0000
0320
0000
,
0230
0000
1300
0010
,
0100
0010
0200
0000
,
0320
0000
1030
1000
,
0001
0010
0100
1000
,
0010
0100
0001
0000
,
2002
0000
0000
0000
3003
0000
0000
1001
,
0000
0000
0000
0000
,
0001
0010
1000
0000
,
1000
0010
0001
0000
,
0001
0100
1000
0100
,
0002
0003
1000
1000
,
0001
0010
0001
1000
,
0010
1000
0100
0010
,
0220
0000
0330
0000
,
0100
0010
0100
1001
,
0010
0000
1000
0000
,
0100
1000
0100
0000
,
0010
0000
0001
0000
,
0100
0001
0100
0000
,
0010
0000
0010
0000
,
1000
0001
1000
0001
,
0010
0100
1000
0001
,
0001
0000
1000
0010
,
0200
0000
0320
0000
,
0230
0000
0301
0010
,
0100
0010
0200
0000
,
0320
0000
0031
0001
,
1000
0010
0100
0001
,
0010
0100
1000
0000
,
2002
0000
0000
0000
3003
0000
0000
1001
,
0000
0000
0000
0000
,
1000
0010
0001
0000
,
0001
0010
1000
0000
,
1000
0100
0001
0100
,
2000
3000
0001
0001
,
1000
0010
1000
0001
,
0010
0001
0100
0010
,
0220
0000
0330
0000
,
0100
0010
1000
0001
,
1000
0100
0001
0000
,
0001
0010
1000
0000
,
0001
0100
1000
0010
,
0002
0003
1001
1001
,
0002
0000
0003
2000
,
0000
3000
0100
0010
,
0001
0100
0010
1000
,
0100
0010
0100
2002
,
3003
0000
0000
0000
,
0000
0000
0000
0000
,
0110
0000
0000
0000
;

//---------------dance-single - ----------------
#NOTEDATA:;
#CHARTNAME:;
#STEPSTYPE:dance-single;
#DESCRIPTION:;
#CHARTSTYLE:;
#DIFFICULTY:Challenge;
#METER:15;
#RADARVALUES:0.762281,0.730185,0.353056,0.168504,0.734197,665.000000,621.000000,44.000000,21.000000,0.000000,0.000000,0.000000,0.000000,0.000000,0.762281,0.730185,0.353056,0.168504,0.734197,665.000000,621.000000,44.000000,21.000000,0.000000,0.000000,0.000000,0.000000,0.000000;
#CREDIT:;
#NOTES:
// measure 0
0000
0000
0000
0000
,  // measure 1
0000
0000
0000
0000
,  // measure 2
0000
0000
0000
0000
,  // measure 3
0000
0000
0000
0000
,  // measure 4
0001
0010
0000
0000
0001
0010
0000
0000
0001
0000
1000
0010
0000
1000
0010
0000
,  // measure 5
0100
0000
1000
0000
0100
0000
0001
0000
0010
0000
0100
0010
0000
0100
0001
0000
,  // measure 6
0100
0000
1000
0000
0001
0100
0001
0100
0010
0000
0010
0100
0001
0000
0001
0010
,  // measure 7
0000
0000
0100
0010
0001
0000
0010
0001
0100
0000
0001
0100
0010
0000
0000
0000
,  // measure 8
1000
0010
0000
0000
1000
0010
0000
0000
1000
0000
0001
0010
0000
0001
0010
0000
,  // measure 9
0100
0000
0001
0000
0100
0000
1000
0000
0010
0000
0100
0010
0000
0100
1000
0000
,  // measure 10
0100
0000
0001
0000
1000
0100
0010
0001
1000
0000
1000
0010
0100
0000
0100
0010
,  // measure 11
0000
0000
0100
0010
1000
0000
0010
1000
0100
0000
0010
0000
0110
0000
0000
0000
,  // measure 12
0001
0010
0100
0000
0010
0100
0000
0001
0100
0000
0010
0001
0000
1000
0010
0000
,  // measure 13
0100
0010
0100
0000
0010
0001
0000
0010
0100
0000
0001
1000
0100
0000
0010
0000
,  // measure 14
0001
0000
1000
0000
0010
0100
0010
0100
0001
0000
0001
0010
0100
0000
0100
0001
,  // measure 15
0000
0100
0010
0100
0010
0000
0100
0010
0001
0000
0010
0001
0100
0000
0100
0010
,  // measure 16
1000
0000
0010
0100
0010
0100
0000
1000
0100
0000
0010
1000
0000
0001
0010
0000
,  // measure 17
0100
0010
0100
0000
0010
1000
0000
0010
0100
0000
1000
0001
0100
0000
0010
0000
,  // measure 18
1000
0000
0001
0000
0010
0100
1000
0001
0100
0000
0100
0010
0100
0000
0010
0100
,  // measure 19
1000
0000
1100
0000
0101
0000
0000
0000
0001
0010
0100
1000
0001
0100
0010
1000
,  // measure 20
0001
0010
0001
0010
1000
0001
1000
0010
,  // measure 21
0001
0000
1000
0010
0100
0001
0000
0001
0010
0100
1000
0000
1001
0000
0000
0000
,  // measure 22
0001
0100
0001
0100
1000
0001
1000
0100
,  // measure 23
0001
0000
1000
0000
0100
0010
0001
0000
0011
0000
0000
0000
1001
0000
1000
0001
,  // measure 24
1000
0010
1000
0010
0100
1000
0001
0010
,  // measure 25
1000
0100
0001
1000
0010
0100
0010
0001
,  // measure 26
1002
0000
0000
0000
0103
0010
0100
0000
2001
0000
0100
0000
3100
0000
0011
0000
,  // measure 27
0000
2000
3020
0230
,  // measure 28
0301
0010
0001
0000
1000
0010
1000
0000
0001
0010
0001
0000
1000
0000
0001
0100
,  // measure 29
0010
1000
0001
0000
1000
0100
1000
0000
0001
0100
0001
0000
1000
0000
0001
0010
,  // measure 30
0100
0000
0001
0000
0100
0010
0001
0000
0010
0000
0001
0100
0010
0000
0200
0000
,  // measure 31
0000
0000
0310
1000
0010
1000
0100
0010
0001
0000
0000
0000
0110
0000
0000
0000
,  // measure 32
1000
0000
0010
0100
0010
0000
0001
0000
0010
0100
0010
0000
1000
0000
0001
1000
,  // measure 33
0100
0000
0010
0000
0100
1000
0001
0000
1001
0000
0000
0000
1010
0000
0010
0000
,  // measure 34
0100
0000
0001
1000
0001
0010
0000
0010
0100
0000
1000
0001
1000
0010
0100
0010
,  // measure 35
0100
1010
1001
0011
,  // measure 36
1001
0000
0000
0000
1000
0100
0020
0000
1000
0000
0000
0000
0130
0000
0000
0000
,  // measure 37
0010
0000
0000
0000
0100
0000
0000
0000
1000
0000
0000
0000
0001
0000
0000
0000
0000
0000
1000
0000
0000
0010
0000
0000
1000
0000
0000
0000
0010
0000
0000
0000
0100
0000
0000
0000
0001
0000
0000
0000
0010
0000
0000
0000
0100
0000
0000
0000
,  // measure 38
1000
0000
0000
0000
0000
0000
0000
0000
0000
0000
0000
0000
0001
0000
0000
0000
0100
0000
0000
0000
0020
0000
0000
0000
0001
0000
0000
0000
0000
0000
0000
0000
0000
0000
0000
0000
0130
0000
0000
0010
0000
0000
0100
0000
0000
0010
0000
0000
,  // measure 39
1000
0000
0000
1010
0000
0000
1001
0000
1100
0000
0000
0011
0000
0000
1000
0000
,  // measure 40
0001
0000
0000
0000
0000
0000
0000
0000
0000
0000
0000
0000
0100
0000
0000
0000
0010
0000
0000
0000
0100
0000
0000
0000
1001
0000
0000
0000
0000
0000
0000
0000
0000
0001
0000
0000
1000
0000
0000
0000
0000
0000
0001
0000
0000
0000
0000
0000
,  // measure 41
1001
0000
0010
1000
0001
0000
1000
0000
1001
0000
0010
0001
1000
0000
0001
0000
,  // measure 42
0100
0000
0100
0000
0100
0000
0100
0000
0010
0100
0001
1000
0100
0010
0001
1000
,  // measure 43
0100
0000
0000
0000
0000
0000
0000
0000
0000
0000
0000
0000
0000
0000
0000
0000
0000
0000
0010
0000
0000
0001
0000
0000
1000
0000
0000
0000
0010
0000
0000
0000
0100
0000
0000
0000
0001
0000
0000
0000
0010
0000
0000
0000
0100
0000
0000
0000
,  // measure 44
1000
0010
1000
0010
0001
1000
0001
0010
,  // measure 45
1000
0000
0001
0010
0100
1000
0000
1000
0010
0100
0001
0000
1001
0000
0000
0000
,  // measure 46
1000
0100
1000
0100
0001
1000
0001
0100
,  // measure 47
1000
0000
0001
0000
0100
0010
1000
0000
1010
0000
0000
0000
1001
0000
0001
1000
,  // measure 48
0001
0010
0001
0010
0100
0001
1000
0010
,  // measure 49
0001
0100
1000
0001
0010
0100
0010
1000
,  // measure 50
2001
0000
0000
0000
3100
0010
0100
0000
1002
0000
0100
0000
0103
0000
1010
0000
,  // measure 51
0000
0002
0023
0230
,  // measure 52
1300
0010
1000
0000
0001
0010
0001
0000
1000
0010
1000
0000
0001
0000
1000
0100
,  // measure 53
0010
0001
1000
0000
0001
0100
0001
0000
1000
0100
1000
0000
0001
0000
1000
0010
,  // measure 54
0100
0000
1000
0000
0100
0010
1000
0000
0010
0000
1000
0100
0010
0000
0200
0000
,  // measure 55
0000
0000
0310
0001
0010
0001
0100
0010
1000
0000
0000
0000
0110
0000
0000
0000
,  // measure 56
0001
0000
0010
0100
0010
0000
1000
0000
0010
0100
0010
0000
0001
0000
1000
0001
,  // measure 57
0100
0000
0010
0000
0100
0001
1000
0000
1001
0000
0000
0000
0011
0000
0010
0000
,  // measure 58
0100
0000
1000
0001
1000
0010
0000
0010
0100
0000
0001
1000
0001
0010
0100
0010
,  // measure 59
0100
0000
0022
0033
2002
3003
2020
3030
,  // measure 60
0001
1000
0010
0000
1000
0001
0010
0000
0001
1000
0010
0000
0100
0000
0010
1000
,  // measure 61
0001
1000
0100
0000
1000
0001
0100
0000
0001
1000
0100
0000
1000
0000
0001
0100
,  // measure 62
0010
0000
0001
0000
0010
0100
0001
0000
0100
0000
0001
1000
0100
0000
0210
0000
,  // measure 63
0000
0000
0310
0000
1000
0010
0100
1000
0001
0000
0000
0000
1001
0000
0000
0000
,  // measure 64
0001
0000
0100
0000
0010
0100
0000
0010
0100
0010
1000
0000
1010
0000
0001
1000
,  // measure 65
0100
0000
0010
0000
0100
0010
0000
0010
0001
0000
0000
0000
0011
0000
1000
0000
,  // measure 66
0001
0000
0100
0010
1000
0000
0100
0010
0001
0000
0100
0010
1000
0000
0100
0000
,  // measure 67
0011
0100
1010
0100
0011
0000
0110
0000
,  // measure 68
1001
0000
0000
0000
1000
0010
0100
0001
1000
0100
0000
0010
0001
1000
0001
0100
,  // measure 69
0000
0010
0000
1000
0100
0010
0000
0001
0100
0010
0000
0100
0010
1000
0000
0100
,  // measure 70
0010
0000
0000
0000
;

//---------------dance-single - ----------------
#NOTEDATA:;
#CHARTNAME:;
#STEPSTYPE:dance-single;
#DESCRIPTION:;
#CHARTSTYLE:;
#DIFFICULTY:Hard;
#METER:11;
#RADARVALUES:0.483733,0.505513,0.361080,0.561681,0.132396,422.000000,377.000000,45.000000,70.000000,0.000000,0.000000,0.000000,0.000000,0.000000,0.483733,0.505513,0.361080,0.561681,0.132396,422.000000,377.000000,45.000000,70.000000,0.000000,0.000000,0.000000,0.000000,0.000000;
#CREDIT:;
#NOTES:
0000
0000
0000
0000
,
0000
0000
0000
0000
,
0000
0000
0000
0000
,
0000
0000
0000
0000
,
1010
0000
0000
0000
1010
0000
0000
0000
0001
0000
0000
0010
0000
0000
0100
0000
,
0000
0000
0010
0000
0001
0000
0010
0000
0001
0000
0000
0100
0000
0000
0010
0000
,
0100
0001
1000
0000
1000
0000
1100
0000
,
0101
0000
1000
0000
1000
0100
0010
0000
,
0011
0000
0000
0000
0011
0000
0000
0000
1000
0000
0000
0010
0000
0000
0100
0000
,
0000
0000
0010
0000
1000
0000
0010
0000
1000
0000
0000
0100
0000
0000
0010
0000
,
0100
1000
0001
0100
0010
0000
0101
0000
,
1010
0000
0001
0010
1000
0000
0011
0000
,
1000
0000
0010
0000
0000
1000
0000
0000
0100
0000
0000
1000
0000
0000
0010
0000
,
1000
0000
0001
0000
0010
0000
0001
0000
0100
0000
0000
0001
0000
0000
0010
0000
,
0100
1000
0001
0000
0001
0000
0101
0000
,
1100
0000
0001
0000
0001
0100
0010
1000
,
0001
0000
0010
0000
0000
0001
0000
0000
0100
0000
0000
0001
0000
0000
0010
0000
,
0001
0000
1000
0000
0010
0000
1000
0000
0100
0000
0000
1000
0000
0000
0010
0000
,
0100
0001
1000
0100
0010
0001
1000
0010
,
0001
0010
1000
0000
0002
0000
0023
0000
,
2030
0000
3001
0100
2000
0000
3001
0010
,
0100
1000
1000
0000
0020
0000
0032
0000
,
1003
0100
1000
0100
0002
0000
1003
0010
,
0100
0001
0001
0000
0011
0000
1100
0000
,
0002
0000
0023
0000
2030
0000
3010
0002
,
0000
0203
0000
2300
0000
3100
0001
1000
,
2002
0000
0000
0000
3003
0100
0010
1001
,
0000
2000
3020
0230
,
0301
0010
0001
0010
0001
0010
0100
0002
,
0000
0103
0010
0001
0010
0001
0100
0010
,
0002
0000
0013
2000
0000
3200
0000
0302
,
0000
0103
0010
0100
1100
0000
0011
0000
,
2001
0000
0000
0010
0000
0000
0001
0000
0000
3001
0000
0000
1002
0000
0000
0010
,
0000
0000
1000
0000
0000
0103
0000
0000
0110
0000
0000
0000
1000
0000
0010
0000
,
0001
0010
1000
0000
0010
0000
0010
1000
,
0100
1100
0110
0011
,
1000
0000
0001
0200
1000
0000
0010
0000
,
0301
0000
1000
0100
0000
0000
1000
0000
0001
0100
0000
0000
,
1001
0000
1000
0200
0001
0000
0010
0000
,
2300
0000
0000
3020
0000
0000
0230
0000
0302
0000
0000
0023
0000
0000
0130
0000
,
1000
0000
0000
0000
0000
0000
0001
0000
1000
0000
0001
0000
1000
0000
0000
0000
0000
0000
0001
0000
0000
1000
0000
0000
,
1001
0000
0000
1000
0000
0000
0010
0000
1001
0000
0000
0001
0000
0000
0010
0000
,
1001
0000
0001
0100
0010
1000
0100
0010
,
0001
0000
0000
0000
0000
0000
1000
0001
2000
0000
0000
0000
3020
0000
0000
0000
,
0032
0000
1003
0100
0002
0000
1003
0010
,
0100
0001
0001
0000
0020
0000
2030
0000
,
3001
0100
0001
0100
2000
0000
3001
0010
,
0100
1000
1000
0000
1010
0000
0101
0000
,
2000
0000
3020
0000
0032
0000
0013
2000
,
0000
3200
0000
0302
0000
0103
1000
0001
,
2002
0000
0000
0000
3003
0100
0010
1001
,
0000
0002
0023
0230
,
1300
0010
1000
0010
1000
0010
0100
2000
,
0000
3100
0010
1000
0010
1000
0100
0010
,
2000
0000
3010
0002
0000
0203
0000
2300
,
0000
3100
0010
0100
0101
0000
1010
0000
,
1002
0000
0000
0010
0000
0000
1000
0000
0000
1003
0000
0000
2001
0000
0000
0010
,
0000
0000
0001
0000
0000
3100
0000
0000
0110
0000
0000
0000
0001
0000
0010
0000
,
1000
0010
0001
0000
0010
0000
0010
0001
,
0100
0000
0202
0303
0220
0330
2020
3030
,
0001
0010
1000
0010
1000
0001
0100
2000
,
0000
3010
0001
0010
0001
1000
0100
0001
,
2000
0000
3100
0002
0000
2003
0000
3020
,
0000
0000
0031
0000
0000
0100
0000
0000
1010
0000
0000
0000
0101
0000
0000
0000
,
1000
0100
0001
0100
0010
0000
1001
0000
,
1000
0010
0001
0010
0100
0000
0010
1000
,
0001
0010
1000
0010
0001
0100
1000
0100
,
0001
0001
1000
1000
1001
0000
2002
0000
,
3003
0000
0000
0000
0001
0000
0010
0000
0100
1000
0000
0000
1000
0000
0010
0100
,
0000
0001
0000
0000
1000
0000
0000
0000
0001
0010
0000
0000
0100
1000
0000
0000
,
1001
0000
0000
0000
;

//---------------dance-single - ----------------
#NOTEDATA:;
#CHARTNAME:;
#STEPSTYPE:dance-single;
#DESCRIPTION:;
#CHARTSTYLE:;
#DIFFICULTY:Medium;
#METER:7;
#RADARVALUES:0.355349,0.449344,0.337008,0.224672,0.000000,310.000000,268.000000,42.000000,28.000000,0.000000,0.000000,0.000000,0.000000,0.000000,0.355349,0.449344,0.337008,0.224672,0.000000,310.000000,268.000000,42.000000,28.000000,0.000000,0.000000,0.000000,0.000000,0.000000;
#CREDIT:;
#NOTES:
0000
0000
0000
0000
,
0000
0000
0000
0000
,
0000
0000
0000
0000
,
0000
0000
0000
0000
,
1000
1000
0100
0010
,
0001
0100
1000
0100
,
0001
0010
0100
0010
,
0010
0100
0010
0010
,
0001
0001
0100
0010
,
1000
0100
0001
0100
,
1000
0010
0010
0100
,
0010
1000
0001
1001
,
0001
1000
0001
0000
0100
0000
0100
0000
,
0001
1000
0001
0000
0010
0000
0100
0000
,
1000
0010
0100
0010
,
0010
0100
0010
0010
,
1000
0001
1000
0000
0100
0000
0100
0000
,
1000
0001
1000
0000
0010
0000
0100
0000
,
0001
0010
0100
0010
,
2002
3003
0001
0100
,
0020
1000
0230
0001
,
0310
0000
0110
1001
,
0002
0010
2003
0100
,
3001
0000
0011
1100
,
0001
0000
0100
0000
0100
0000
0010
1000
,
0100
0000
0010
0001
0100
0000
0010
0000
,
0220
0000
0330
0000
0000
1000
0001
1000
,
0000
0001
0100
0010
,
1010
0000
0101
0000
1010
0000
0001
0010
,
0000
1000
0100
0000
0011
0000
1000
0010
,
1000
0010
0001
0100
,
1000
0001
1001
1001
,
2000
0010
0010
3002
,
0100
0000
0100
0000
1003
0000
0001
1000
,
0200
0000
0000
0000
0310
0000
0100
0010
,
0100
0011
1001
1010
,
0001
0000
0001
1001
,
0010
0000
0010
0010
,
1000
0000
1000
1001
,
0200
0300
0002
0003
,
1000
1000
0001
0001
,
1000
0001
1000
0001
,
1000
0000
0100
0000
0010
0000
0001
0100
,
0010
0000
1000
0100
,
0020
0001
0230
1000
,
0310
0000
0110
1001
,
2000
0010
3002
0100
,
1003
0000
1010
0101
,
1000
0000
0100
0000
0100
0000
0010
0001
,
0100
0000
0010
1000
0100
0000
0010
0000
,
0220
0000
0330
0000
0000
0001
1000
0001
,
0000
1000
0100
0010
,
0011
0000
1100
0000
0011
0000
1000
0010
,
0000
0001
0100
0000
1010
0000
0001
0010
,
0001
0010
1000
0100
,
0001
1000
1001
1001
,
0002
0010
0010
2003
,
0100
0000
0100
0000
3001
0000
1000
0001
,
0200
0000
0000
0000
0310
0000
0100
0010
,
0100
1001
1001
1001
,
1100
0000
0011
0000
1100
0000
0001
0100
,
0000
1000
0010
0000
0101
0000
1000
0100
,
1000
0010
0100
0001
,
0010
0001
0100
0000
1001
0000
0110
0000
,
2002
0000
3003
0220
,
0000
0000
0330
0000
0001
0000
1000
0001
,
0010
0100
1000
0001
,
0100
0010
0100
0010
0100
0000
2002
0000
,
3003
1000
0010
1000
,
0100
1000
0001
0100
,
1001
0000
0000
0000
;

//---------------dance-single - ----------------
#NOTEDATA:;
#CHARTNAME:;
#STEPSTYPE:dance-single;
#DESCRIPTION:;
#CHARTSTYLE:;
#DIFFICULTY:Beginner;
#METER:2;
#RADARVALUES:0.136408,0.224672,0.048144,0.056168,0.000000,119.000000,113.000000,6.000000,7.000000,0.000000,0.000000,0.000000,0.000000,0.000000,0.136408,0.224672,0.048144,0.056168,0.000000,119.000000,113.000000,6.000000,7.000000,0.000000,0.000000,0.000000,0.000000,0.000000;
#CREDIT:;
#NOTES:
0000
0000
0000
0000
,
0000
0000
0000
0000
,
0000
0000
0000
0000
,
0000
0000
0000
0000
,
0001
0000
0001
0000
,
1000
0000
0001
0000
,
1000
0000
0000
0000
,
0000
0000
0000
0000
,
1000
0000
1000
0000
,
0001
0000
1000
0000
,
0001
0000
0000
0000
,
0000
0000
0000
0000
,
0001
0000
0001
0000
,
0010
0000
0100
0000
,
1000
0000
0000
0000
,
0001
0000
0000
0000
,
1000
0000
1000
0000
,
0010
0000
0100
0000
,
0001
0000
0000
0000
,
1001
0000
0000
0000
,
0001
0000
0010
0000
,
0001
0000
0000
0000
,
1000
0000
0010
0000
,
1000
0000
0000
0000
,
0100
0000
0100
0000
,
0010
0000
0001
0000
,
0200
0000
0000
0000
0000
0000
0000
0300
,
0000
0000
0000
0000
,
0010
0010
0010
0000
,
0010
0010
0010
0000
,
1000
0000
0100
0000
,
0010
0000
0001
0001
,
0001
0000
1000
0000
,
0001
0000
1000
0000
,
0020
0000
0030
0000
,
0100
0100
0100
0200
,
0300
0000
1001
0000
,
0000
0000
0010
0000
,
0000
0000
1001
0000
,
0000
0000
0100
0000
,
1000
0000
1000
0000
,
0001
0000
0001
0000
,
1000
0000
0001
0000
,
1000
0000
0000
0000
,
1000
0000
0010
0000
,
1000
0000
0000
0000
,
0001
0000
0010
0000
,
0001
0000
0000
0000
,
0100
0000
0100
0000
,
0010
0000
1000
0000
,
0200
0000
0000
0000
0000
0000
0000
0300
,
0000
0000
0000
0000
,
0010
0010
0010
0000
,
0010
0010
0010
0000
,
0001
0000
0100
0000
,
0010
0000
1000
1000
,
1000
0000
0001
0000
,
1000
0000
0001
0000
,
0020
0000
0030
0000
,
1001
0000
1001
0000
,
1000
1000
1000
0000
,
0001
0001
0001
0000
,
0100
0000
0010
0000
,
1000
0000
0001
0000
,
2000
0000
3000
0002
,
0000
0003
1000
0000
,
0100
0000
0010
0000
,
0100
0100
0100
0100
,
0000
0000
0000
0000
,
0000
0000
0000
0000
,
1001
0000
0000
0000
;
