#VERSION:0.83;
#TITLE:in the Sky;
#SUBTITLE:;
#ARTIST:Ryu☆;
#TITLETRANSLIT:;
#SUBTITLETRANSLIT:;
#ARTISTTRANSLIT:;
#GENRE:Happy Hardcore;
#ORIGIN:;
#CREDIT:;
#BANNER:in the Sky.png;
#BACKGROUND:in the Sky-bg.png;
#PREVIEWVID:;
#JACKET:in the Sky-jacket.png;
#CDIMAGE:;
#DISCIMAGE:;
#LYRICSPATH:;
#CDTITLE:cdtitle.png;
#MUSIC:in the Sky.ogg;
#OFFSET:-1.691040;
#SAMPLESTART:47.024376;
#SAMPLELENGTH:10.666668;
#SELECTABLE:YES;
#BPMS:0.000=180.000,
65.000=90.000,
81.000=180.000,
210.000=90.000,
227.000=180.000;
#STOPS:32.000=1.000,
113.000=1.000,
210.000=2.000,
227.000=1.000;
#DELAYS:;
#WARPS:;
#TIMESIGNATURES:0.000=4=4;
#TICKCOUNTS:0.000=4;
#COMBOS:0.000=1;
#SPEEDS:0.000=1.000=0.000=0;
#SCROLLS:0.000=1.000;
#FAKES:;
#LABELS:0.000=Song Start;
#BGCHANGES:;
#KEYSOUNDS:;
#ATTACKS:
;

//---------------dance-single - ----------------
#NOTEDATA:;
#CHARTNAME:;
#STEPSTYPE:dance-single;
#DESCRIPTION:;
#CHARTSTYLE:;
#DIFFICULTY:Challenge;
#METER:12;
#RADARVALUES:0.529969,0.629104,0.213395,0.640184,0.057452,452.000000,426.000000,26.000000,78.000000,0.000000,0.000000,0.000000,0.000000,0.000000,0.529969,0.629104,0.213395,0.640184,0.057452,452.000000,426.000000,26.000000,78.000000,0.000000,0.000000,0.000000,0.000000,0.000000;
#CREDIT:;
#NOTES:
// measure 0
0000
0000
0000
0000
,  // measure 1
0000
0000
0000
0000
,  // measure 2
0000
0000
0000
0000
,  // measure 3
0000
0000
0000
0000
,  // measure 4
1000
0200
0000
0320
0000
0130
0010
0001
,  // measure 5
0100
0010
0000
0010
0000
1000
0100
0010
,  // measure 6
0001
0200
0000
0320
0000
0130
0010
0100
,  // measure 7
1001
0000
0001
0010
0100
1000
0010
0100
,  // measure 8
0001
0000
0000
0000
0001
0000
0000
0001
0000
0000
0001
0000
0010
0000
0001
0000
,  // measure 9
1000
0000
0001
0000
0100
0000
0000
0100
0000
0000
0100
0000
0010
0000
0100
0000
,  // measure 10
0001
0000
1000
0000
0100
0000
0000
0100
0000
0000
0100
0000
0010
0000
0100
0000
,  // measure 11
1000
0000
0001
0000
1000
0000
0000
1000
0000
0000
0010
0000
0100
0000
0001
0000
,  // measure 12
0010
0000
0100
0000
1000
0000
0000
1000
0000
0000
1000
0000
0010
0000
1000
0000
,  // measure 13
0001
0000
1000
0000
0100
0000
0000
0100
0000
0000
0100
0000
0010
0000
0100
0000
,  // measure 14
1000
0000
0001
0000
0100
0000
0000
0100
0000
0000
0100
0000
0010
0000
0100
0000
,  // measure 15
0001
0000
1000
0000
0001
0000
0000
0001
0000
0000
0010
0000
0100
0000
1000
0000
,  // measure 16
0010
0100
0001
0000
0010
0000
0100
0000
,  // measure 17
1000
0010
0100
0000
0001
1000
0001
0000
,  // measure 18
0000
2000
3020
0032
,  // measure 19
2003
3200
0302
0000
2003
3200
0320
0000
,  // measure 20
0000
0030
0011
0000
0100
0000
1010
0000
,  // measure 21
0100
0011
0100
1010
,  // measure 22
1100
1010
0001
0011
,  // measure 23
0101
0000
0011
0000
1000
0000
0001
0100
,  // measure 24
0010
1000
0002
0000
0013
0100
0020
0000
,  // measure 25
1030
0010
2000
0000
3010
0001
0200
0000
,  // measure 26
2300
0000
3200
0000
0301
1000
0200
0000
,  // measure 27
0302
0000
0203
0000
1300
0001
0010
0001
,  // measure 28
1000
0000
0000
0000
0010
0000
0000
0000
0000
0000
0000
0000
0000
0000
0000
0000
1000
0000
0000
0000
0001
0000
0000
0000
1000
0000
0000
0000
0020
0030
0000
0000
,  // measure 29
0000
0000
0000
0000
0020
0030
0000
0000
0000
0000
0000
0000
0001
0000
0000
0000
1000
0000
0000
0000
0010
0000
0000
0000
1000
0000
0000
0000
0200
0300
0000
0000
,  // measure 30
0000
0000
0000
0000
0200
0300
0000
0000
0000
0000
0000
0000
0001
0000
0000
0000
1000
0000
0000
0000
0100
0000
0000
0000
1000
0000
0000
0000
0020
0030
0000
0000
,  // measure 31
0000
0000
0000
0000
0020
0030
0000
0000
0000
0000
0000
0000
0001
0000
0000
0000
0010
0000
0000
0000
1000
0000
0000
0000
0010
0000
0000
0000
0001
0000
0000
0000
,  // measure 32
0100
0000
0000
0000
1000
0000
0000
0000
0100
0000
0000
0000
0000
0000
0000
0000
0001
0000
0000
0000
1000
0000
0000
0000
0001
0000
0000
0000
0020
0030
0000
0000
,  // measure 33
0000
0000
0000
0000
0020
0030
0000
0000
0000
0000
0000
0000
1000
0000
0000
0000
0001
0000
0000
0000
0010
0000
0000
0000
0001
0000
0000
0000
0200
0300
0000
0000
,  // measure 34
0000
0000
0000
0000
0200
0300
0000
0000
0000
0000
0000
0000
1000
0000
0000
0000
0001
0000
0000
0000
0100
0000
0000
0000
0001
0000
0000
0000
0020
0030
0000
0000
,  // measure 35
0000
0000
0000
0000
0020
0030
0000
0000
0000
0000
0000
0000
1000
0000
0000
0000
0010
0000
0000
0000
0001
0000
0000
0000
0010
0000
0000
0000
1000
0000
0000
0000
,  // measure 36
0100
0000
0000
0000
0001
0000
0000
0000
0100
0000
0000
0000
0000
0000
0000
0000
1000
0000
0000
0000
0010
0000
0000
0000
1000
0000
0000
0000
0200
0300
0000
0000
,  // measure 37
0000
0000
0000
0000
0200
0300
0000
0000
0000
0000
0000
0000
0001
0000
0000
0000
0100
0000
0000
0000
0010
0000
0000
0000
0100
0000
0000
0000
2000
3000
0000
0000
,  // measure 38
0000
0000
0000
0000
2000
3000
0000
0000
0000
0000
0000
0000
0010
0000
0000
0000
1000
0000
0000
0000
0100
0000
0000
0000
0010
0000
0000
0000
0200
0300
0000
0000
,  // measure 39
0000
0000
0000
0000
0200
0300
0000
0000
0000
0000
0000
0000
0001
0000
0000
0000
0010
0000
0000
0000
1000
0000
0000
0000
0010
0000
0000
0000
0001
0000
0000
0000
,  // measure 40
0100
0000
0000
0000
1000
0000
0000
0000
0100
0000
0000
0000
0000
0000
0000
0000
0001
0000
0000
0000
0010
0000
0000
0000
0001
0000
0000
0000
0200
0300
0000
0000
,  // measure 41
0000
0000
0000
0000
0200
0300
0000
0000
0000
0000
0000
0000
1000
0000
0000
0000
0100
0000
0000
0000
0010
0000
0000
0000
0100
0000
0000
0000
0002
0003
0000
0000
,  // measure 42
0000
0000
0000
0000
0002
0003
0000
0000
0000
0000
0000
0000
0010
0000
0000
0000
0001
0000
0000
0000
0100
0000
0000
0000
0010
0000
0000
0000
0200
0300
0000
0000
,  // measure 43
0000
0000
0000
0000
0200
0300
0000
0000
0000
0000
0000
0000
1000
0000
0000
0000
0020
0000
0000
0000
0000
0000
0000
0000
0230
0000
0000
0000
0000
0000
0000
0000
,  // measure 44
0302
0000
2003
0000
3100
0010
0000
1100
,  // measure 45
0000
0001
0000
0011
0000
1000
0000
1100
,  // measure 46
0000
0001
0100
1000
0100
0001
0000
1001
,  // measure 47
0000
1000
0100
0001
0000
1100
0000
0011
,  // measure 48
0000
1010
0000
0001
0100
0010
0000
0101
,  // measure 49
0000
1000
0000
1010
0000
0001
0000
0101
,  // measure 50
0000
1000
0010
1000
0100
0010
0100
0010
,  // measure 51
0001
0100
0010
0000
1000
0100
0010
0001
,  // measure 52
0100
0010
1000
0010
1000
0000
0001
0010
,  // measure 53
1000
0000
0001
0000
0100
0000
1000
0000
0001
0010
0100
1000
0002
0000
0203
0000
,  // measure 54
0320
0000
0032
0000
0023
0000
0230
0000
0301
0100
0010
1000
0100
0000
0001
0000
,  // measure 55
1000
0000
0010
0000
0001
0000
1000
0000
0001
0010
0100
1000
0020
0000
0230
0000
,  // measure 56
2300
3200
0302
0000
0000
0000
0003
0000
,  // measure 57
1000
0000
0000
0000
0001
0000
0000
0000
0100
0000
0000
0000
0001
0000
0000
0000
1000
0000
0000
0000
0001
0000
0000
0000
0010
0000
0000
0000
0020
0030
0000
0000
,  // measure 58
0000
0000
0000
0000
0020
0030
0000
0000
0000
0000
0000
0000
1000
0000
0000
0000
0010
0000
0000
0000
0001
0000
0000
0000
1000
0000
0000
0000
0100
0000
0000
0000
,  // measure 59
0001
0000
0000
0000
0010
0000
0000
0000
0100
0000
0000
0000
1000
0000
0000
0000
0001
0000
0000
0000
0100
0000
0000
0000
0010
0000
0000
0000
0020
0030
0000
0000
,  // measure 60
0000
0000
0000
0000
0020
0030
0000
0000
0000
0000
0000
0000
0100
0000
0000
0000
1000
0000
0000
0000
0001
0000
0000
0000
1001
0000
0000
0000
0000
0000
0000
0000
,  // measure 61
0001
0000
0000
0000
1000
0000
0000
0000
0100
0000
0000
0000
1000
0000
0000
0000
0001
0000
0000
0000
1000
0000
0000
0000
0010
0000
0000
0000
0020
0030
0000
0000
,  // measure 62
0000
0000
0000
0000
0020
0030
0000
0000
0000
0000
0000
0000
0001
0000
0000
0000
0010
0000
0000
0000
1000
0000
0000
0000
0001
0000
0000
0000
0100
0000
0000
0000
,  // measure 63
1000
0010
0100
0001
1000
0100
0010
0020
,  // measure 64
0000
0000
0001
0000
0130
1000
0001
1000
,  // measure 65
0010
0000
0000
0000
0100
0000
0000
0000
1000
0000
0000
0000
0100
0000
0000
0000
0010
0000
0000
0000
0100
0000
0000
0000
1000
0000
0000
0000
2000
3000
0000
0000
,  // measure 66
0000
0000
0000
0000
2000
3000
0000
0000
0000
0000
0000
0000
0010
0000
0000
0000
0100
0000
0000
0000
0001
0000
0000
0000
1000
0000
0000
0000
0001
0000
0000
0000
,  // measure 67
0010
0000
0000
0000
0100
0000
0000
0000
0001
0000
0000
0000
0100
0000
0000
0000
0010
0000
0000
0000
0100
0000
0000
0000
0001
0000
0000
0000
0002
0003
0000
0000
,  // measure 68
0000
0000
0000
0000
0002
0003
0000
0000
0000
0000
0000
0000
0010
0000
0000
0000
0100
0000
0000
0000
1000
0000
0000
0000
0001
0000
0000
0000
0100
0000
0000
0000
,  // measure 69
0010
1020
0000
0001
0000
1030
0000
0100
,  // measure 70
0010
0021
0000
1000
0000
0001
0031
0000
,  // measure 71
1000
0000
0000
0000
0020
0030
0000
0000
0020
0030
0000
0000
0001
0000
0000
0000
1000
0000
0000
0000
0200
0300
0000
0000
0200
0300
0000
0000
0001
0000
0000
0000
,  // measure 72
1000
1001
0000
1001
0000
1001
0100
0010
,  // measure 73
0100
0000
0000
0000
;

//---------------dance-single - ----------------
#NOTEDATA:;
#CHARTNAME:;
#STEPSTYPE:dance-single;
#DESCRIPTION:;
#CHARTSTYLE:;
#DIFFICULTY:Hard;
#METER:11;
#RADARVALUES:0.459619,0.509274,0.254432,0.500657,0.000000,392.000000,361.000000,31.000000,61.000000,0.000000,0.000000,0.000000,0.000000,0.000000,0.459619,0.509274,0.254432,0.500657,0.000000,392.000000,361.000000,31.000000,61.000000,0.000000,0.000000,0.000000,0.000000,0.000000;
#CREDIT:;
#NOTES:
0000
0000
0000
0000
,
0000
0000
0000
0000
,
0000
0000
0000
0000
,
0000
0000
0000
0000
,
1000
0200
0000
0320
0000
0001
0000
0130
,
1000
0001
0000
1000
0000
1000
0000
1000
,
0001
0200
0000
0320
0000
1000
0000
0130
,
0001
0000
0001
0000
1000
0001
0010
0100
,
1000
0000
0001
0000
0001
0000
1000
0010
,
1000
0010
0100
0000
0100
0000
0010
1000
,
0010
1000
0100
0000
0100
0000
0010
0100
,
1000
0100
0010
0000
0001
0000
1000
0010
,
0100
0001
1000
0000
1000
0000
0001
0010
,
0001
0010
0100
0000
0100
0000
0010
0001
,
0010
0001
0100
0000
0100
0000
0010
0100
,
0001
0100
0010
0000
1000
0000
0001
0010
,
0100
1000
0001
0000
0100
0000
0010
0000
,
0100
0010
1000
0000
0100
0010
0001
0000
,
0000
2000
3200
0320
,
0230
0320
0032
0000
0203
0320
2030
0000
,
0000
3001
0010
1000
,
0010
0001
0100
1000
,
1000
1000
0100
0001
,
0001
0000
0001
0000
0010
0000
0100
0010
,
0100
2000
0010
3002
,
0010
2003
0100
3002
,
2003
3002
0100
2003
,
3002
0000
2003
0000
0100
0000
3001
0100
,
0010
1000
0000
0000
1000
0010
2000
0010
,
0000
0010
0000
3001
1000
0100
2000
0100
,
0000
0100
0000
3001
0100
0010
0200
0001
,
0000
0001
0000
0310
1010
0000
0101
0000
,
0011
0000
1100
0000
0001
0010
0002
0010
,
0000
0010
0000
1003
0001
0100
0002
0100
,
0000
0100
0000
1003
0100
0010
0200
1000
,
0000
1000
0000
0310
0011
0000
1100
0000
,
1010
0000
0101
0000
1000
0001
0020
0100
,
0000
0001
0000
0130
1000
0001
0200
0010
,
0000
0001
0000
0310
0100
0001
0020
0100
,
0000
0001
0000
0130
1100
0000
0011
0000
,
0101
0000
1010
0000
0001
1000
0020
0100
,
0000
1000
0000
0130
0001
1000
0200
0010
,
0000
1000
0000
0310
0100
1000
0020
0100
,
0000
1000
0000
0130
0002
0000
0023
0000
,
0230
2300
3001
0101
,
1000
1010
0001
0101
,
1000
0000
0010
1000
0100
0000
1100
0000
,
0001
0000
0101
0000
0010
0100
0000
1001
,
0000
1001
0000
0001
1000
0000
1100
0000
,
0001
0011
1000
1100
,
0001
0000
0010
0001
0100
0000
0010
1000
,
0100
0000
0010
0001
0100
0000
0100
0000
,
0010
0100
0001
1000
0100
0000
1000
0100
,
0010
0001
1000
1000
0001
0010
0200
2300
,
3020
0230
0320
2030
3200
0320
0031
0100
,
0010
1000
0001
0001
1000
0010
0200
0302
,
0023
0230
0320
0000
0000
0000
0030
0000
,
0002
0000
0010
0000
1000
0000
0100
0100
,
0000
0103
0000
0001
0100
0010
0100
0010
,
2000
0000
0010
0000
0001
0000
0100
0100
,
0000
3100
0000
0010
0001
0100
0010
0000
,
2000
0000
0100
0000
0001
0000
0010
0010
,
0000
3010
0000
1000
0010
0100
0010
0100
,
0002
0000
0100
0000
1000
0000
0010
0023
,
0000
1000
0100
0031
,
0011
0000
1001
0000
0201
0000
0010
0010
,
0000
1000
0000
0310
0100
0010
0100
0010
,
1010
0000
1001
0000
1200
0000
0010
0010
,
0000
0001
0000
0310
0100
1000
0001
0000
,
2000
0010
0000
0010
0000
0010
0000
3001
,
0002
0010
0000
0010
0000
1000
1003
0000
,
0101
0000
1100
0000
1010
0000
0001
0020
,
0000
0100
0000
0100
0000
0100
0000
0100
,
0130
0000
0000
0000
;

//---------------dance-single - ----------------
#NOTEDATA:;
#CHARTNAME:;
#STEPSTYPE:dance-single;
#DESCRIPTION:;
#CHARTSTYLE:;
#DIFFICULTY:Medium;
#METER:7;
#RADARVALUES:0.288435,0.449360,0.049245,0.402167,0.000000,246.000000,240.000000,6.000000,49.000000,0.000000,0.000000,0.000000,0.000000,0.000000,0.288435,0.449360,0.049245,0.402167,0.000000,246.000000,240.000000,6.000000,49.000000,0.000000,0.000000,0.000000,0.000000,0.000000;
#CREDIT:;
#NOTES:
0000
0000
0000
0000
,
0000
0000
0000
0000
,
0000
0000
0000
0000
,
0000
0000
0000
0000
,
1000
0100
0020
0000
,
0130
0000
0100
0010
,
0001
0100
0020
0000
,
0130
0000
0100
0100
,
1001
0001
0001
0010
,
0000
0100
0100
0010
,
0000
0001
0001
0100
,
0000
0010
0100
0001
,
0000
1000
1000
0010
,
0000
0100
0100
0010
,
0000
1000
1000
0100
,
0000
0010
0100
1000
,
0000
0001
0010
0100
,
0010
0100
1000
0000
0010
0100
0001
0000
,
0000
2000
3020
0230
,
0320
0230
0302
0000
0023
0230
2300
0000
,
0000
3001
0000
0010
,
0000
0100
0000
0010
,
0001
0100
0000
0010
,
0100
0001
0000
0010
,
0100
2000
0000
3020
,
0000
0230
0000
0320
,
2030
3200
0000
0320
,
0230
2300
0000
3001
,
1000
0000
1000
0010
,
1000
0000
0010
0100
,
0010
0000
0001
0010
,
0001
0000
0020
2030
,
3200
0320
0031
0010
,
0001
0000
0010
0100
,
0010
0000
1000
0010
,
1000
0000
0020
0032
,
0203
0320
1030
0010
,
0001
0000
0010
0001
,
0100
0000
0001
0100
,
1000
0000
0002
0203
,
0320
2030
3001
0010
,
1000
0000
0010
1000
,
0100
0000
1000
0100
,
0001
0000
2002
0000
,
0000
3003
0001
0010
,
0001
0010
0100
1000
,
0100
1000
0001
0010
,
0100
0010
0002
1000
,
1003
0000
1000
0010
,
1000
0010
0100
0001
,
0100
0001
1000
0010
,
1000
0001
0010
0001
,
1000
0000
0010
0000
0100
0000
0001
0010
,
0100
1000
0100
0010
0001
0000
2000
3020
,
2030
3002
0023
0032
2003
3000
1000
0010
,
0100
0001
0100
0010
1000
0000
0002
0203
,
0302
2003
3200
0000
0000
0000
0300
0000
,
1000
0100
0001
0100
,
1000
1000
0001
0010
,
0001
0100
1000
0100
,
0001
0001
0001
1000
,
0001
0010
1000
0010
,
0001
0001
1000
0100
,
1000
0010
0001
0010
,
2000
0000
0001
3001
,
1000
0100
0001
0010
,
1000
1000
0010
1010
,
0001
0100
1000
0010
,
0001
0001
0010
0011
,
1001
0000
0100
0000
,
1001
0000
0010
0000
,
1000
0100
0010
0001
,
0200
0000
0000
0000
,
0300
0000
0000
0000
;

//---------------dance-single - ----------------
#NOTEDATA:;
#CHARTNAME:;
#STEPSTYPE:dance-single;
#DESCRIPTION:;
#CHARTSTYLE:;
#DIFFICULTY:Easy;
#METER:5;
#RADARVALUES:0.201670,0.269616,0.090282,0.172357,0.000000,172.000000,161.000000,11.000000,21.000000,0.000000,0.000000,0.000000,0.000000,0.000000,0.201670,0.269616,0.090282,0.172357,0.000000,172.000000,161.000000,11.000000,21.000000,0.000000,0.000000,0.000000,0.000000,0.000000;
#CREDIT:;
#NOTES:
0000
0000
0000
0000
,
0000
0000
0000
0000
,
0000
0000
0000
0000
,
0000
0000
0000
0000
,
1000
0000
0100
0000
,
1001
0000
0000
0000
,
0001
0000
0100
0000
,
2002
0000
3003
0000
,
1001
0001
0000
0001
,
0000
0010
0000
0010
,
0000
0100
0000
0100
,
0000
1000
0000
0001
,
0000
1000
0000
1000
,
0000
0010
0000
0010
,
0000
0100
0000
0100
,
0000
0001
0000
1000
,
0000
0100
0000
0000
,
0000
0000
0000
0000
,
0000
0020
0230
0320
,
0032
2003
3002
0203
,
0000
0310
0000
0010
,
0000
0100
0000
0001
,
1000
0001
0000
1000
,
0001
1000
0000
0000
,
0000
0001
0000
0010
,
0000
0100
0000
1000
,
0010
0100
0000
0010
,
0100
0002
0000
0000
,
0000
0003
0001
0001
,
0010
0000
0001
0001
,
1000
0000
0001
0001
,
0100
0000
0110
0000
,
0110
0000
1000
1000
,
0010
0000
1000
1000
,
0001
0000
1000
1000
,
0100
0000
0110
0000
,
0110
0000
0001
0010
,
0100
0000
0010
0001
,
0100
0000
0001
0100
,
0010
0000
0110
0000
,
0110
0000
1000
0010
,
0100
0000
0010
1000
,
0100
0000
1000
0100
,
0010
0000
0002
0000
,
0000
0000
1003
0000
,
0001
0000
1000
0000
,
0001
0000
1000
0000
,
0001
0000
0010
0000
,
0100
0000
1000
0000
,
1000
0000
0001
0000
,
0001
0000
0100
0100
,
0100
0000
0010
0100
,
0020
0000
0030
0000
,
0000
0000
0000
2000
,
3020
0230
0302
0003
,
0000
0000
0000
0002
,
0023
0230
0000
0300
,
1000
0010
1000
0010
,
1000
0000
0001
0000
,
1000
0100
0010
0001
,
1000
0000
1000
0000
,
0001
0010
0001
0010
,
0001
0000
1000
0000
,
0001
0100
0010
1000
,
0002
0000
0003
0000
,
0010
0001
0100
0001
,
0010
0000
1001
0000
,
0010
1000
0100
1000
,
0010
0000
1001
0000
,
0100
0000
0100
0000
,
0010
0000
0010
0000
,
0001
1000
0001
1000
,
0200
0000
0000
0000
,
0300
0000
0000
0000
;

//---------------dance-single - ----------------
#NOTEDATA:;
#CHARTNAME:;
#STEPSTYPE:dance-single;
#DESCRIPTION:;
#CHARTSTYLE:;
#DIFFICULTY:Beginner;
#METER:2;
#RADARVALUES:0.093800,0.139527,0.008207,0.147735,0.000000,80.000000,79.000000,1.000000,18.000000,0.000000,0.000000,0.000000,0.000000,0.000000,0.093800,0.139527,0.008207,0.147735,0.000000,80.000000,79.000000,1.000000,18.000000,0.000000,0.000000,0.000000,0.000000,0.000000;
#CREDIT:;
#OFFSET:-1.691040;
#BPMS:0.000000=180.000000
;
#STOPS:;
#DELAYS:;
#WARPS:;
#TIMESIGNATURES:0.000000=4=4
;
#TICKCOUNTS:0.000000=4
;
#COMBOS:0.000000=1
;
#SPEEDS:0.000000=1.000000=0.000000=0
;
#SCROLLS:0.000000=1.000000
;
#FAKES:;
#LABELS:0.000000=Song Start
;
#NOTES:
0000
0000
0000
0000
,
0000
0000
0000
0000
,
0000
0000
0000
0000
,
0000
0000
0000
0000
,
2000
0000
0000
0000
,
3000
0000
0000
0000
,
0002
0000
0000
0000
,
0003
0000
0000
0000
,
1001
0000
0000
0000
,
0001
0000
0000
0000
,
0010
0000
0000
0000
,
0100
0000
0000
0000
,
1000
0000
0000
0000
,
0001
0000
0000
0000
,
0100
0000
0000
0000
,
0010
0000
0000
0000
,
1000
0000
0000
0000
,
0100
0000
0000
0000
,
0000
0000
0000
0000
,
0000
0000
0000
0000
,
0000
0000
0000
0000
,
2000
0000
3000
0000
,
0002
0000
0003
0000
,
2000
0000
3000
0000
,
0002
0000
0003
0000
,
1000
0000
0000
0000
,
0100
0000
0000
0000
,
0010
0000
0000
0000
,
0001
0000
0000
0000
,
0002
0000
0003
0000
,
0200
0000
0300
0000
,
0020
0000
0030
0000
,
2000
0000
0000
0000
,
3000
0000
0000
0000
,
1000
0000
0000
0000
,
0100
0000
0000
0000
,
0010
0000
0000
0000
,
0001
0000
0001
0000
,
0001
0000
0000
0000
,
0100
0000
0000
0000
,
0010
0000
0000
0000
,
1000
0000
1000
0000
,
1000
0000
0000
0000
,
0100
0000
0000
0000
,
1000
0000
0000
0000
,
0010
0000
0010
0000
,
0001
0000
0000
0000
,
0100
0000
0000
0000
,
0001
0000
0000
0000
,
0020
0000
0030
0000
,
1000
0000
0000
0000
,
0100
0000
0000
0000
,
0010
0000
0000
0000
,
0001
0000
0000
0000
,
0100
0000
0000
0000
,
0010
0000
0000
0000
,
1000
0000
0001
0000
,
2000
0000
0000
0000
,
3000
0000
0000
0000
,
0000
0000
0000
0000
,
0000
0000
0000
0000
,
0000
0000
0000
0000
,
0002
0000
0003
0000
,
2000
0000
3000
0000
,
0000
0000
0000
0000
,
0000
0000
0000
0000
,
2000
0000
3000
0000
,
0002
0000
0000
0000
,
0003
0000
0000
0000
,
1000
0000
1000
0000
,
1000
0000
0000
0000
,
0100
0000
0100
0000
,
0100
0000
0000
0000
,
0010
0000
0010
0000
,
0010
0000
0000
0000
,
0001
0000
0001
0000
,
0002
0000
0003
0000
,
1000
0000
0001
0000
,
1000
0000
0000
0000
,
0001
0000
1000
0000
,
0001
0000
0000
0000
,
0100
0000
0000
0000
,
0100
0000
0000
0000
,
1000
0000
0001
0000
,
2000
0000
0000
0000
,
3000
0000
0000
0000
;
