#VERSION:0.83;
#TITLE:corps-sans-organes;
#SUBTITLE:;
#ARTIST:cybermiso;
#TITLETRANSLIT:;
#SUBTITLETRANSLIT:;
#ARTISTTRANSLIT:;
#GENRE:Dark Glitch Hop;
#ORIGIN:;
#CREDIT:;
#BANNER:corps-sans-organes.png;
#BACKGROUND:corps-sans-organes-bg.png;
#PREVIEWVID:;
#JACKET:corps-sans-organes-jacket.png;
#CDIMAGE:;
#DISCIMAGE:;
#LYRICSPATH:;
#CDTITLE:cdtitle.png;
#MUSIC:corps-sans-organes.ogg;
#OFFSET:1.999713;
#SAMPLESTART:39.143143;
#SAMPLELENGTH:18.285713;
#SELECTABLE:YES;
#DISPLAYBPM:105.000000:210.000000;
#BPMS:0.000=105.000,
160.000=210.000,
272.000=105.000;
#STOPS:;
#DELAYS:;
#WARPS:;
#TIMESIGNATURES:0.000=4=4;
#TICKCOUNTS:0.000=4;
#COMBOS:0.000=1;
#SPEEDS:0.000=1.000=0.000=0;
#SCROLLS:0.000=0.250,
4.000=0.444,
4.500=0.639,
5.000=0.833,
5.500=1.028,
6.000=1.222,
6.500=1.417,
7.000=1.611,
7.500=1.806,
8.000=2.000,
40.000=1.000,
56.000=2.000,
136.000=1.000,
159.000=2.000,
160.000=1.000,
280.000=2.000;
#FAKES:4.000=3.875;
#LABELS:0.000=Song Start;
#BGCHANGES:;
#KEYSOUNDS:;
#ATTACKS:
;

//---------------dance-single - ----------------
#NOTEDATA:;
#CHARTNAME:;
#STEPSTYPE:dance-single;
#DESCRIPTION:;
#CHARTSTYLE:;
#DIFFICULTY:Challenge;
#METER:16;
#RADARVALUES:0.739037,1.003178,0.302691,0.426518,0.846157,752.000000,708.000000,44.000000,62.000000,0.000000,0.000000,0.000000,0.000000,16.000000,0.739037,1.003178,0.302691,0.426518,0.846157,752.000000,708.000000,44.000000,62.000000,0.000000,0.000000,0.000000,0.000000,16.000000;
#CREDIT:;
#OFFSET:1.999713;
#BPMS:0.000000=105.000000
,160.000000=210.000000
,272.000000=105.000000
;
#STOPS:;
#DELAYS:;
#WARPS:;
#TIMESIGNATURES:0.000000=4=4
;
#TICKCOUNTS:0.000000=4
;
#COMBOS:0.000000=1
;
#SPEEDS:0.000000=1.000000=0.000000=0
;
#SCROLLS:0.000000=5.000000
,4.000000=0.444000
,4.500000=0.638888
,5.000000=0.833332
,5.500000=1.027776
,6.000000=1.222220
,6.500000=1.416664
,7.000000=1.611108
,7.500000=1.805552
,8.000000=2.000000
,40.000000=1.000000
,56.000000=2.000000
,136.000000=1.000000
,159.000000=2.000000
,160.000000=1.000000
,280.000000=2.000000
;
#FAKES:4.000000=3.875000
;
#LABELS:0.000000=Song Start
;
#ATTACKS:TIME=-1.712607:LEN=5.000000:MODS=*10 stealth:TIME=0.287393:LEN=5.000000:MODS=*0.5 0% stealth;
#DISPLAYBPM:105.000000:210.000000;
#NOTES:
// measure 0
0000
0000
0000
0000
,  // measure 1
000M
00M0
M000
0M00
000M
00M0
M000
0M00
000M
00M0
M000
0M00
000M
00M0
M000
0M00
,  // measure 2
0001
0000
0000
1000
0000
0000
0100
0000
0000
0000
0000
0000
0000
0000
0000
0000
,  // measure 3
1000
0000
0000
0001
0000
0000
0100
0000
0000
0000
0000
0000
0000
0000
0000
0000
,  // measure 4
0001
0000
0000
0000
0000
0000
1000
0000
0000
0000
0100
0000
0010
0000
0001
0000
0000
0000
0000
0000
1000
0000
0001
1000
0001
0000
0100
0000
0010
0000
1000
0000
,  // measure 5
0001
0010
0001
0010
0100
1000
0001
1000
0010
0000
1001
0000
0100
0010
1001
0000
,  // measure 6
0001
0010
0000
0001
0010
0000
0100
1000
0000
1000
0000
0001
1000
0000
0001
0000
,  // measure 7
1000
0010
0000
1000
0010
0000
0100
0001
0000
0001
1000
0100
0010
0000
0010
0000
,  // measure 8
0001
0000
0010
0000
0000
0000
0100
0000
1000
0000
0000
0000
0001
0000
0100
0000
0000
0000
0010
0000
1000
0000
0001
1000
0001
0000
0010
0000
0100
0000
1000
0000
,  // measure 9
0001
0100
0010
0100
1000
0000
0100
0001
1000
0001
0010
0000
1000
0010
0001
0000
,  // measure 10
0012
0000
0010
1000
0200
0000
0303
0000
,  // measure 11
0000
2000
0010
0001
0200
0000
3300
0000
,  // measure 12
0002
0010
2003
0010
,  // measure 13
0002
0000
0000
0000
0000
0000
0000
0000
3003
0000
1001
0000
0100
0010
1001
0000
,  // measure 14
0001
0000
1000
0000
0100
0000
0000
0000
0210
0000
0000
0000
0001
0000
0000
0000
0310
0000
0000
0000
0000
0000
0000
0000
0110
0000
0000
0000
0100
0010
0100
0000
,  // measure 15
1000
0000
0001
0000
0100
0000
0000
0000
0210
0000
0000
0000
1000
0000
0000
0000
0310
0100
0010
0000
0100
0000
0000
0000
1001
0000
0000
0000
0000
0000
0000
0000
,  // measure 16
0001
0010
0001
1000
0010
1000
0001
0010
0001
0100
0001
1000
0100
1000
0001
0100
,  // measure 17
0001
1000
0001
1000
0001
1000
0001
1000
0001
1000
0001
1000
0001
0000
0000
0000
0000
0001
0010
0100
1000
0001
0000
0000
,  // measure 18
1001
0000
0001
0100
0000
0000
0001
0000
0001
0020
0000
0100
0000
0000
0031
1000
0000
0001
0100
0000
0000
0001
0000
0000
,  // measure 19
1000
0000
1000
0100
0000
0000
1000
0000
1000
0020
0000
0100
0000
0000
1030
0001
0000
1000
0001
0000
0000
1001
0000
0000
,  // measure 20
1000
0000
0100
0020
0000
0000
1000
0000
0000
0130
0000
0000
1000
0000
0010
0200
0000
0000
1000
0000
0000
0310
0000
0000
,  // measure 21
1000
0010
1000
0010
0000
0100
0001
1000
0001
1000
0000
0001
0010
0100
1000
0100
0010
0001
1000
0010
0100
0001
0010
0100
,  // measure 22
1000
0000
0000
0000
0000
0000
0001
0000
0100
0020
0000
1000
0000
0000
0130
0001
0000
0000
1000
0000
0000
0100
0000
0000
,  // measure 23
0110
0000
0000
0110
0000
0000
0001
0000
0010
0200
0000
1000
0000
0000
0310
0001
0000
0010
0001
0000
0000
1000
0000
0000
,  // measure 24
0001
0000
0100
0020
0000
0000
0001
0000
0000
0100
0000
0000
1030
0000
0000
0000
0000
0000
1001
0000
0000
0000
0000
0000
,  // measure 25
0002
0000
0003
0020
0000
0030
0200
0000
0300
0010
0000
2000
0000
3000
0010
0200
0000
0310
0001
0000
1000
0010
0000
0000
,  // measure 26
1010
0000
0001
0010
0000
0000
0011
0000
1000
0002
0000
0100
0000
0000
1003
0001
0000
0000
1000
0100
0010
0001
0000
0000
,  // measure 27
1000
0000
0001
0100
0000
0200
0010
0000
0301
0000
0000
1001
0000
0000
1000
0100
0000
0000
0110
0000
0001
1000
0000
0000
,  // measure 28
0001
0000
0100
0020
0000
0000
0001
0000
0000
0130
0000
0000
0001
0000
0010
0200
0000
0000
0001
0000
0000
0310
0000
0000
,  // measure 29
0001
0010
0001
0010
0000
0100
1000
0001
1000
0001
0000
1000
0010
0100
0001
0100
0010
1000
0001
0010
0100
1000
0010
0100
,  // measure 30
0001
1000
0001
1000
0000
0001
0010
0000
0100
2000
0000
0001
0000
0000
3010
0100
0000
0010
0001
0000
0000
1010
0000
0000
,  // measure 31
0001
0000
0000
0001
0000
0000
0001
0010
0100
2000
0000
0001
0000
0000
3010
0100
0000
0010
0100
0000
0000
1001
0000
0000
,  // measure 32
0001
0000
0010
0200
0000
0000
0001
0000
0000
0010
0000
0000
1300
0000
0010
0200
0000
0000
1000
0000
0000
0010
0000
0000
,  // measure 33
0301
0100
0001
0100
0001
0100
0010
1000
0010
1000
0010
1000
0001
0010
0100
1000
0100
0010
0001
0100
0010
1000
0100
0010
,  // measure 34
0001
0000
0000
1000
0010
0100
2000
0000
0000
3001
0010
0100
,  // measure 35
0002
0000
0000
1003
0010
0100
0002
0000
0000
2003
0000
0000
,  // measure 36
3001
0000
0000
0001
0010
0100
0002
0000
0000
1003
0010
0100
,  // measure 37
2000
0000
0000
3000
,  // measure 38
1001
0000
0000
0001
0100
1000
0002
0000
0000
0013
1000
0100
,  // measure 39
0002
0000
0000
1003
0010
0001
0200
0000
0000
2300
0000
0000
,  // measure 40
3001
0010
0001
0010
1000
0010
1000
0010
,  // measure 41
1000
0100
1000
0100
0001
0100
0001
1000
,  // measure 42
0010
0001
1000
0100
0010
0001
0100
0010
,  // measure 43
2000
0000
0000
3000
0000
0000
0020
0000
0000
0030
1000
0000
0010
0000
0100
0000
0001
0000
1000
0000
0000
0000
0000
0000
,  // measure 44
0001
0000
0010
0000
0200
0000
0001
0000
0000
0000
0310
0000
0001
1000
0001
1000
,  // measure 45
0001
0000
0100
0000
0020
0000
0001
0000
0000
0000
0130
0000
0001
1000
0001
1000
,  // measure 46
0001
0000
0010
0000
0200
0000
0001
0000
0000
0000
0310
0000
0001
1000
0001
1000
,  // measure 47
0001
0000
0100
0000
0010
0000
1000
0000
0001
0010
0100
1000
0001
0000
0000
0000
,  // measure 48
1000
0010
0001
1000
0100
0001
1000
0010
,  // measure 49
0001
1000
0100
0001
1000
0010
0110
0000
,  // measure 50
0001
0000
0001
0000
0010
0100
0010
0000
1000
0000
0010
0000
0100
0000
0010
0000
,  // measure 51
0001
0000
1000
0000
1000
0000
1000
0000
0010
1000
0001
1000
0100
0000
0000
0000
,  // measure 52
1000
0000
0010
0000
0200
0000
1000
0000
0000
0000
0310
0000
1000
0001
1000
0001
,  // measure 53
1000
0000
0100
0000
0020
0000
1000
0000
0000
0000
0130
0000
1000
0001
1000
0001
,  // measure 54
1000
0000
0010
0000
0200
0000
1000
0000
0000
0000
0310
0000
1000
0001
1000
0001
,  // measure 55
1000
0000
0100
0000
0010
0000
0001
0000
1000
0010
0100
0001
1000
0000
0000
0000
,  // measure 56
0001
0010
1000
0001
0100
1000
0001
0010
,  // measure 57
1000
0001
0100
1000
0001
0010
0110
0000
,  // measure 58
1000
0010
0100
0001
1000
1000
0100
0100
,  // measure 59
0001
0000
0000
0100
0000
0000
0010
0000
0000
0100
0000
0000
1000
0000
0001
0000
1000
0000
0010
0000
0000
0000
0000
0000
,  // measure 60
1000
0010
1010
0000
0001
0010
0011
0000
,  // measure 61
1000
0000
0010
0000
0001
0000
0010
0000
1000
0010
0100
0001
1000
0000
0000
0000
,  // measure 62
0001
0010
1100
0000
1000
0010
0101
0000
,  // measure 63
0001
0000
0010
0000
1000
0000
0010
0000
0001
1000
0001
0000
0100
0000
0000
0000
,  // measure 64
1010
1000
1010
0000
0101
0001
0101
0000
,  // measure 65
1100
1000
1100
0000
0011
0001
0011
0000
,  // measure 66
1000
0000
0010
0000
0100
0000
0001
0000
1000
0010
1000
0010
1000
0010
0200
0000
,  // measure 67
0301
0000
1000
0000
0100
0000
0010
0000
0001
0010
0001
0010
0001
0000
0000
0000
,  // measure 68
0012
0103
0102
1003
,  // measure 69
2010
3100
2100
3001
,  // measure 70
1000
0010
0001
0000
1001
0000
1000
0100
0001
0100
0001
0020
0000
0130
1000
0000
,  // measure 71
0001
0000
0000
0010
0000
0000
1000
0000
0000
0001
0000
0000
1000
0000
0000
0000
0000
0000
0001
0000
0000
0000
0100
0000
0010
0000
0000
0000
0100
0000
1000
0000
0000
0000
0001
0000
0000
0000
0000
0000
1000
0000
0010
0000
0100
0000
0001
0000
,  // measure 72
1000
0000
0000
0020
0000
0000
0001
0000
0000
0130
0000
0010
1000
0000
0001
0010
0000
0200
0001
0000
0000
0310
0000
0000
,  // measure 73
0001
0000
0000
0020
0000
0000
1000
0000
0000
0130
0000
0010
0001
1000
0001
0100
0000
0010
0200
0000
0000
1000
0000
0000
,  // measure 74
0301
0000
0100
0010
0000
0000
2010
0000
0000
3100
0000
0000
0010
0000
1000
0000
0010
0000
0012
0000
0000
0103
0000
0000
,  // measure 75
0010
0001
0010
2010
0001
3100
0010
1000
0010
0220
0000
0000
,  // measure 76
0330
1000
0000
0000
0001
0000
0000
0000
0000
1000
0000
0000
0001
0000
0000
0000
;

//---------------dance-single - ----------------
#NOTEDATA:;
#CHARTNAME:;
#STEPSTYPE:dance-single;
#DESCRIPTION:;
#CHARTSTYLE:;
#DIFFICULTY:Hard;
#METER:14;
#RADARVALUES:0.595553,0.739184,0.288932,0.433398,0.447156,606.000000,564.000000,42.000000,63.000000,0.000000,0.000000,0.000000,0.000000,16.000000,0.595553,0.739184,0.288932,0.433398,0.447156,606.000000,564.000000,42.000000,63.000000,0.000000,0.000000,0.000000,0.000000,16.000000;
#CREDIT:;
#OFFSET:1.999713;
#BPMS:0.000000=105.000000
,160.000000=210.000000
,272.000000=105.000000
;
#STOPS:;
#DELAYS:;
#WARPS:;
#TIMESIGNATURES:0.000000=4=4
;
#TICKCOUNTS:0.000000=4
;
#COMBOS:0.000000=1
;
#SPEEDS:0.000000=1.000000=0.000000=0
;
#SCROLLS:0.000000=5.000000
,4.000000=0.444000
,4.500000=0.638888
,5.000000=0.833332
,5.500000=1.027776
,6.000000=1.222220
,6.500000=1.416664
,7.000000=1.611108
,7.500000=1.805552
,8.000000=2.000000
,40.000000=1.000000
,56.000000=2.000000
,136.000000=1.000000
,159.000000=2.000000
,160.000000=1.000000
,280.000000=2.000000
;
#FAKES:4.000000=3.875000
;
#LABELS:0.000000=Song Start
;
#ATTACKS:TIME=-1.712607:LEN=5.000000:MODS=*10 stealth:TIME=0.287393:LEN=5.000000:MODS=*0.5 0% stealth;
#DISPLAYBPM:105.000000:210.000000;
#NOTES:
0000
0000
0000
0000
,
00M0
0M00
00M0
0M00
00M0
0M00
00M0
0M00
00M0
0M00
00M0
0M00
00M0
0M00
00M0
0M00
,
0001
0000
0000
1000
0000
0000
0100
0000
0000
0000
0000
0000
0000
0000
0000
0000
,
1000
0000
0000
0001
0000
0000
0100
0000
0000
0000
0000
0000
0000
0000
0000
0000
,
0001
0000
0000
1000
0000
0000
0100
0000
0000
0000
0010
0100
0010
0000
0001
0000
,
1000
0000
0010
0000
0100
0000
0001
0000
1000
0000
1001
0000
0100
0010
0100
0000
,
1001
0000
0000
0001
0010
0000
0100
1000
0000
0001
0000
0001
0100
0000
0010
0000
,
1000
0010
0000
1000
0010
0000
0100
0001
0000
1000
0100
1000
0100
0000
0010
0000
,
0001
1000
0000
0010
0100
0000
0001
1000
0000
0001
0010
0100
1000
0000
0001
0000
,
1000
0010
1000
0010
0100
0000
0001
1000
0001
0000
0010
0000
0001
0010
0100
0000
,
1000
0000
0001
0100
0020
0000
0030
0000
,
0000
1000
1000
0100
0020
0000
0030
0000
,
0002
0100
2003
0100
,
0002
0000
0000
0000
0000
0000
0000
0000
3003
0000
1001
0000
0100
0010
0100
0000
,
0010
0000
0000
0000
1001
0000
0001
0000
0100
0010
1000
0000
1010
0000
0000
0010
,
0100
0001
1000
0000
1001
0000
1000
0000
0100
0010
0001
0000
0011
0000
0000
0000
,
1000
0000
0010
0001
0000
0010
1000
0000
0001
0000
0010
1000
0000
0010
0001
0000
,
2000
0000
0000
3020
0000
0000
0230
0000
0000
0302
0000
0000
1003
0000
0000
0000
0000
1000
0001
1000
0001
1000
0000
0000
,
1001
0000
0000
0001
0000
0000
0010
0000
0100
0010
0000
0001
0000
0000
1000
0001
0000
0001
1000
0000
0000
1001
0000
0000
,
0001
0000
0000
1000
0000
0000
0010
0000
0100
0010
0000
1000
0000
0000
0001
0100
0000
0010
1000
0000
0000
1001
0000
0000
,
0001
0020
1000
0000
0031
0200
1000
0000
,
0301
0000
0100
0001
0000
0000
1000
0000
0100
1000
0000
0000
0002
0000
0000
0203
0000
0000
0310
1000
0001
0010
0000
0000
,
0110
0000
0000
0000
0000
0000
0010
0000
0100
1000
0000
0001
0000
0000
0001
1000
0000
0000
0010
0000
0000
0100
0000
0000
,
0110
0000
0000
0110
0000
0000
0010
0000
0100
0001
0000
1000
0000
0000
0001
0010
0000
0100
1000
0000
0000
0001
0000
0000
,
0200
0300
1001
0100
0020
0030
1001
0000
,
0002
0000
0003
0020
0000
0030
2000
0000
3000
0000
0000
0020
0000
0030
0100
0020
0000
0030
0001
0000
0000
1000
0000
0000
,
1010
0000
0000
0001
0000
0000
0011
0000
0000
1000
0000
0010
0000
0000
0100
0001
0000
0000
1000
0001
1000
0001
0000
0000
,
0010
0000
0000
2100
0000
0000
3001
0000
0100
0000
0000
1010
0000
0000
0001
0010
0000
0000
0100
0000
1000
0001
0000
0000
,
1000
0020
0001
0000
1030
0200
0001
0000
,
1300
0000
0100
1000
0000
0000
0001
0000
0100
0001
0000
0000
2000
0000
0000
3200
0000
0000
0310
0001
1000
0010
0000
0000
,
0100
0010
0100
0010
0000
0000
1000
0000
0010
0100
0000
0001
0000
0000
0001
1000
0000
0000
0100
0000
0000
0010
0000
0000
,
0110
0000
0000
0110
0000
0000
0001
0000
0010
0100
0000
1000
0000
0000
0001
0100
0000
0010
1000
0000
0000
0001
0000
0000
,
0021
1000
0031
0000
1020
0001
1030
0000
,
0001
0000
0010
0100
0000
0010
0100
0000
0010
0100
0000
1000
0001
0000
0000
0000
0000
0001
1000
0010
0100
0001
0000
0000
,
1000
0000
0000
0001
0010
0100
0020
0000
0000
1030
0010
0100
,
0020
0000
0000
0031
1000
0001
0200
0000
0000
0320
0000
0000
,
1030
0000
0000
1000
0010
0100
0020
0000
0000
0031
0010
0100
,
0020
0000
0000
0030
,
1001
0000
0000
1000
0100
0001
0200
0000
0000
0301
0100
1000
,
0020
0000
0000
1030
0010
0001
0020
0000
0000
2030
0000
0000
,
3002
0000
0010
0000
0103
1000
0100
0001
,
2000
0000
0010
0000
3100
0001
0100
1000
,
0002
0000
0013
1000
0010
0001
1000
0010
,
0200
0300
0020
0030
0110
0000
1001
0000
,
0001
0010
0200
0001
0000
0310
0011
0000
,
0001
0100
0020
0001
0000
0130
0101
0000
,
0001
0010
0200
0001
0000
0310
0011
0000
,
0001
0100
0010
0001
1000
0100
0010
0000
,
1000
0010
0100
0001
1000
0001
0010
0100
,
1000
0001
1000
0010
0100
0001
1001
0000
,
0001
0010
0100
0020
1000
0000
0100
0000
,
0031
0010
0001
0010
0100
1000
0001
0000
,
1000
0010
0200
1000
0000
0310
1010
0000
,
1000
0100
0020
1000
0000
0130
1100
0000
,
1000
0010
0200
1000
0000
0310
1010
0000
,
1000
0100
0010
1000
0001
0100
0010
0000
,
0001
0010
0100
1000
0001
1000
0010
0100
,
0001
1000
0001
0010
0100
1000
1001
0000
,
1000
0010
1000
0010
0100
0010
0001
0010
,
1000
0100
0001
0100
2000
0000
3001
0000
,
1000
0010
1000
0000
1000
0010
1000
0000
,
0010
0100
1000
0100
0020
0000
1030
0000
,
0001
0010
0001
0000
0001
0010
0001
0000
,
0010
0100
0001
0100
0010
0001
1000
0000
,
0001
0100
1000
0000
0001
0010
1000
0000
,
1000
0100
0001
0000
1000
0010
0001
0000
,
0001
0100
1000
0001
0010
1000
0100
0001
,
2000
0000
0000
0000
3001
0100
1000
0000
,
2001
3010
2010
3100
,
1002
0013
0012
0103
,
0001
0100
2000
0000
0001
0000
3100
0000
0001
1000
0001
0010
0000
0100
1000
0000
,
0001
0000
0000
0010
0000
0000
0001
0000
0000
0010
0000
0000
2000
0000
0000
0000
0000
0000
0001
0000
0000
0000
0000
0000
3010
0000
0000
0000
0100
0000
0010
0000
0000
0000
0001
0000
1000
0000
0000
0000
0000
0000
0010
0000
0000
0000
0000
0000
,
0210
0000
0000
1000
0000
0000
0310
0000
0000
0100
0000
0010
1000
0000
0010
1000
0000
0000
0001
0000
0000
0010
0000
0000
,
0210
0000
0000
0001
0000
0000
0310
0000
0000
0100
0000
0000
1000
0001
1000
0001
0000
0100
0010
0000
0000
1001
0000
0000
,
1000
0000
0000
0200
0000
0000
0001
0000
0000
0010
0000
0000
1300
0000
0001
0000
0200
0000
1000
0000
0000
0301
0000
0000
,
0001
1000
0200
0001
0000
1300
0001
0100
0010
1001
0000
0000
,
0000
0100
0000
0000
0010
0000
0000
0000
0000
0100
0000
0000
0010
0000
0000
0000
;

//---------------dance-single - ----------------
#NOTEDATA:;
#CHARTNAME:;
#STEPSTYPE:dance-single;
#DESCRIPTION:;
#CHARTSTYLE:;
#DIFFICULTY:Medium;
#METER:10;
#RADARVALUES:0.420622,0.547165,0.275173,0.488432,0.171983,428.000000,388.000000,40.000000,71.000000,0.000000,0.000000,0.000000,0.000000,16.000000,0.420622,0.547165,0.275173,0.488432,0.171983,428.000000,388.000000,40.000000,71.000000,0.000000,0.000000,0.000000,0.000000,16.000000;
#CREDIT:;
#OFFSET:1.999713;
#BPMS:0.000000=105.000000
,160.000000=210.000000
,272.000000=105.000000
;
#STOPS:;
#DELAYS:;
#WARPS:;
#TIMESIGNATURES:0.000000=4=4
;
#TICKCOUNTS:0.000000=4
;
#COMBOS:0.000000=1
;
#SPEEDS:0.000000=1.000000=0.000000=0
;
#SCROLLS:0.000000=0.222000
,4.000000=0.444000
,4.500000=0.638888
,5.000000=0.833332
,5.500000=1.027776
,6.000000=1.222220
,6.500000=1.416664
,7.000000=1.611108
,7.500000=1.805552
,8.000000=2.000000
,40.000000=1.000000
,56.000000=2.000000
,136.000000=1.000000
,159.000000=2.000000
,160.000000=1.000000
,280.000000=2.000000
;
#FAKES:4.000000=3.875000
;
#LABELS:0.000000=Song Start
;
#DISPLAYBPM:105.000000:210.000000;
#NOTES:
0000
0000
0000
0000
,
00M0
0M00
00M0
0M00
00M0
0M00
00M0
0M00
00M0
0M00
00M0
0M00
00M0
0M00
00M0
0M00
,
0001
0000
0000
1000
0000
0000
0001
0000
0000
0000
0000
0000
0000
0000
0000
0000
,
1000
0000
0000
0001
0000
0000
1000
0000
0000
0000
0000
0000
0000
0000
0000
0000
,
0001
0000
0000
1000
0000
0000
0001
0000
0000
0000
0100
0000
0100
0000
0000
0000
,
0001
1000
0100
0010
0001
0011
1100
0000
,
0001
0000
0000
0100
0000
0000
0010
0000
0000
1010
0000
0000
0001
0000
0000
0000
,
1000
0000
0000
0100
0000
0000
0010
0000
0000
0011
0000
0000
1000
0000
0000
0000
,
0001
0000
0000
0100
0000
0000
0010
0000
0000
0000
1000
0000
1000
0000
0000
0000
,
0001
0010
0001
1000
0010
1000
0001
0010
,
0100
0000
1000
0001
0200
0000
0300
0000
,
0000
0001
0001
1000
0200
0000
0300
0000
,
2000
0010
3002
0010
,
2000
0000
0000
0000
3003
1010
0101
0000
,
1000
1000
2001
3100
0010
0000
0100
0010
,
0001
0001
1002
0103
0010
0000
0110
0000
,
1000
0000
0000
0010
0000
0000
1000
0000
0001
0000
0000
0010
0000
0000
0001
0000
,
2000
3020
0230
0302
1003
0000
1001
0000
,
0001
0000
0000
0010
0000
0000
0100
0000
0000
0000
0000
0100
0000
0000
0000
0010
0000
0000
0001
0000
0000
0000
0000
0000
,
1000
0000
0000
0010
0000
0000
0100
0000
0000
0000
0000
0100
0000
0000
0000
0010
0000
0000
1000
0000
0000
0000
0000
0000
,
0001
0020
1000
0000
0031
0200
1000
0000
,
0301
0001
1000
1000
0200
0302
0203
2300
,
3001
0000
0000
0000
0000
0000
1000
0000
0000
0000
0000
0010
0000
0000
0000
0100
0000
0000
0001
0000
0000
0000
0000
0000
,
1000
0000
0000
1000
0000
0000
0001
0000
0000
0000
0000
0010
0000
0000
0000
0100
0000
0000
1000
0000
0000
0000
0000
0000
,
0020
0030
1001
0000
0200
0300
1001
0000
,
0001
1000
0001
0000
1000
0100
0010
0001
,
1000
0000
0000
1000
0000
0000
0010
0000
0000
0000
0000
0110
0000
0000
0000
0001
0000
0000
1000
0000
0000
0000
0000
0000
,
0001
0000
0000
0001
0000
0000
0010
0000
0000
0000
0000
0110
0000
0000
0000
1000
0000
0000
0001
0000
0000
0000
0000
0000
,
1000
0020
0001
0000
1030
0200
0001
0000
,
1300
1000
0001
0001
0200
2300
3200
0302
,
1003
0000
0000
0001
0000
0000
0010
0000
0000
0000
0000
1100
0000
0000
0000
0001
0000
0000
0011
0000
0000
0000
0000
0000
,
0001
0000
0000
1000
0000
0000
0010
0000
0000
0000
0000
0101
0000
0000
0000
1000
0000
0000
1010
0000
0000
0000
0000
0000
,
2001
0100
3001
0000
1002
0100
1003
0000
,
0001
0010
1000
0010
0001
0100
1000
0100
,
0001
0000
0000
1000
0100
1000
0200
0000
0000
0310
0001
0010
,
0002
0000
0000
1003
0001
1000
0002
0000
0000
2003
0000
0000
,
3001
0000
0000
0001
0100
0001
0200
0000
0000
0310
1000
0010
,
2000
0000
0000
3000
,
1001
0000
0000
0001
0010
0100
2000
0000
0000
3001
0100
0010
,
2000
0000
0000
3001
1000
0001
2000
0000
0000
3200
0000
0000
,
0310
0000
0100
0000
1000
0001
1000
0000
,
0010
0000
0100
0000
0001
1000
0001
0000
,
2000
3200
0320
0032
,
0103
0000
0110
1001
,
0002
0000
0013
0100
0000
0000
0011
0000
,
0002
0000
0103
0010
0000
0000
0101
0000
,
0002
0000
0013
0100
0000
0000
0011
0000
,
0002
0000
0103
0010
1000
0000
1010
0000
,
0001
0010
0100
0010
,
1000
0010
0100
0010
,
0001
0010
0001
0000
1000
0000
1000
0000
,
0010
0000
1000
0000
0100
0010
0100
0000
,
2000
0000
3010
0100
0000
0000
1010
0000
,
2000
0000
3100
0010
0000
0000
1100
0000
,
2000
0000
3010
0100
0000
0000
1010
0000
,
2000
0000
3100
0010
0001
0000
0011
0000
,
1000
0010
0100
0010
,
0001
0010
0100
0010
,
2000
0000
3000
0000
0010
1000
0010
0000
,
2000
3200
0320
0032
,
1003
1000
0010
0010
,
1000
0000
0010
0000
0100
0001
1000
0000
,
0001
0001
0010
0010
,
0001
0000
0010
0000
0100
1000
0001
0000
,
0202
0303
2200
3300
,
0202
0303
2200
3300
,
0001
0000
0100
0000
0010
1000
0010
1000
,
0200
0000
0000
0000
0310
0100
0010
0000
,
0002
0003
2000
3000
,
0002
0003
2000
3000
,
0001
0100
0001
0000
0100
0000
1000
0000
0001
0000
0010
0000
1000
0000
0001
0000
,
1000
0100
1000
0000
0100
0000
0001
0000
1000
0000
0010
0000
0001
0000
1000
0000
,
2001
0001
3010
0100
0020
0001
1030
0001
,
1002
1000
0013
0100
0020
1000
0031
1000
,
1001
0000
0000
0110
0000
0000
1001
0000
0000
0000
0000
0000
0001
0000
0010
0000
0001
0000
0100
0000
0000
0000
0000
0000
,
1000
0010
1000
0100
0000
0000
0001
0010
0001
0100
0000
0000
;

//---------------dance-single - ----------------
#NOTEDATA:;
#CHARTNAME:;
#STEPSTYPE:dance-single;
#DESCRIPTION:;
#CHARTSTYLE:;
#DIFFICULTY:Easy;
#METER:7;
#RADARVALUES:0.285001,0.418263,0.192621,0.357725,0.027517,290.000000,262.000000,28.000000,52.000000,0.000000,0.000000,0.000000,0.000000,16.000000,0.285001,0.418263,0.192621,0.357725,0.027517,290.000000,262.000000,28.000000,52.000000,0.000000,0.000000,0.000000,0.000000,16.000000;
#CREDIT:;
#OFFSET:1.999713;
#BPMS:0.000000=105.000000
,160.000000=210.000000
,272.000000=105.000000
;
#STOPS:;
#DELAYS:;
#WARPS:;
#TIMESIGNATURES:0.000000=4=4
;
#TICKCOUNTS:0.000000=4
;
#COMBOS:0.000000=1
;
#SPEEDS:0.000000=1.000000=0.000000=0
;
#SCROLLS:0.000000=0.222000
,4.000000=0.444000
,4.500000=0.638888
,5.000000=0.833332
,5.500000=1.027776
,6.000000=1.222220
,6.500000=1.416664
,7.000000=1.611108
,7.500000=1.805552
,8.000000=2.000000
,40.000000=1.000000
,56.000000=2.000000
,136.000000=1.000000
,159.000000=2.000000
,160.000000=1.000000
,280.000000=2.000000
;
#FAKES:4.000000=3.875000
;
#LABELS:0.000000=Song Start
;
#DISPLAYBPM:105.000000:210.000000;
#NOTES:
0000
0000
0000
0000
,
00M0
0M00
00M0
0M00
00M0
0M00
00M0
0M00
00M0
0M00
00M0
0M00
00M0
0M00
00M0
0M00
,
0002
0000
0000
0003
0000
0000
0001
0000
0000
0000
0000
0000
0000
0000
0000
0000
,
2000
0000
0000
3000
0000
0000
1000
0000
0000
0000
0000
0000
0000
0000
0000
0000
,
0002
0000
0000
0003
0000
0000
0001
0000
0000
0000
0000
0000
1000
0000
0000
0000
,
0100
0000
0010
0000
0001
1000
0001
0000
,
0100
0000
0100
0000
0100
0010
1000
0000
,
0100
0000
0100
0000
0100
0010
0001
0000
,
0100
0000
0100
0000
0100
0010
1000
0000
,
0001
0010
0001
0000
1000
0010
1000
0000
,
0200
0000
0300
0000
,
0020
0000
0030
0000
,
0002
0003
2000
3000
,
0002
0000
0003
0000
0000
1000
1000
0000
,
0002
0000
0103
0010
1000
0000
0001
0000
,
2000
0000
3100
0010
0001
0000
1000
0000
,
0020
0130
0200
0310
,
0220
0330
1001
0000
,
0001
0001
0001
0000
0010
0000
0100
0000
,
1000
1000
1000
0000
0010
0000
0100
0000
,
0002
1000
0023
0100
,
0031
0000
0001
0000
0010
0001
0100
0010
,
1000
0000
0010
0100
0010
0000
1000
0000
,
0001
0000
0010
0100
0010
0000
0001
0000
,
2000
0010
3002
0010
,
1003
0001
1000
0000
0001
0000
1001
0000
,
0001
0001
0100
0000
0010
0000
0110
0000
,
1000
1000
0100
0000
0010
0000
0110
0000
,
2000
0001
3020
0100
,
1030
0000
1000
0000
0010
1000
0100
0010
,
0001
0001
1000
0000
1010
0000
0101
0000
,
1000
1000
0001
0000
0011
0000
1100
0000
,
0002
0100
2003
0100
,
3001
0001
0100
0100
0010
0000
1000
0001
,
2000
3000
0200
0300
,
0020
0030
0002
1003
,
0002
0003
0200
0300
,
0020
0000
0030
0000
,
2010
3000
0012
0003
,
2100
3000
0102
1003
,
0002
0010
0013
0000
,
2000
0010
3010
0000
,
0001
1000
0001
1000
,
0002
0000
0000
0003
,
0001
0010
0001
0000
,
0001
0100
0001
0000
,
0001
0010
0001
0000
,
0001
0100
0010
0000
,
1000
1000
1000
0000
,
0010
0010
0010
0000
,
2001
0000
3100
0000
,
0100
0010
0001
0000
,
1000
0010
1000
0000
,
1000
0100
1000
0000
,
1000
0010
1000
0000
,
1000
0100
0010
0000
,
0001
0001
0001
0000
,
0010
0010
0010
0000
,
2002
0000
3003
0000
,
0001
1000
0001
0000
,
0101
0000
0101
0000
,
1000
0001
0010
0000
,
1100
0000
1100
0000
,
0001
1000
0010
0000
,
0110
0000
1001
0000
,
0110
0000
1001
0000
,
0001
0001
1000
1000
,
0200
0000
0310
0001
,
2000
3000
0002
0003
,
2000
3000
0002
0003
,
1000
1000
0010
0000
0100
0010
1000
0000
,
0001
0001
0010
0000
0100
0010
0001
0000
,
1002
0000
0100
0000
0013
0001
0100
0010
,
2001
0000
0100
0000
3010
1000
0100
0010
,
0012
0103
2010
3100
,
0120
0032
0203
2300
,
3000
0000
0000
0000
;

//---------------dance-single - ----------------
#NOTEDATA:;
#CHARTNAME:;
#STEPSTYPE:dance-single;
#DESCRIPTION:;
#CHARTSTYLE:;
#DIFFICULTY:Beginner;
#METER:4;
#RADARVALUES:0.140535,0.209132,0.013759,0.282053,0.000000,143.000000,141.000000,2.000000,41.000000,0.000000,0.000000,0.000000,0.000000,0.000000,0.140535,0.209132,0.013759,0.282053,0.000000,143.000000,141.000000,2.000000,41.000000,0.000000,0.000000,0.000000,0.000000,0.000000;
#CREDIT:;
#OFFSET:1.999713;
#BPMS:0.000000=105.000000
,160.000000=210.000000
,272.000000=105.000000
;
#STOPS:;
#DELAYS:;
#WARPS:;
#TIMESIGNATURES:0.000000=4=4
;
#TICKCOUNTS:0.000000=4
;
#COMBOS:0.000000=1
;
#SPEEDS:0.000000=1.000000=0.000000=0
;
#SCROLLS:0.000000=2.000000
,160.000000=1.000000
,272.000000=2.000000
;
#FAKES:;
#LABELS:0.000000=Song Start
;
#DISPLAYBPM:105.000000:210.000000;
#NOTES:
0000
0000
0000
0000
,
0000
0000
0000
0000
,
0002
0000
0000
0003
0000
0000
0000
0000
,
2000
0000
0000
3000
0000
0000
0000
0000
,
0002
0000
0000
0003
0000
0000
0000
0000
,
0200
0000
0300
0110
,
1000
1000
1000
0000
,
0001
0001
0001
0000
,
1000
1000
1000
0000
,
0001
1000
0001
0000
,
0020
0000
0030
0000
,
0200
0000
0300
0000
,
2000
3000
0002
0003
,
2000
3000
0000
1001
,
0001
0001
0100
0000
,
1000
1000
0100
0000
,
0002
0003
0020
0030
,
0200
0300
2000
3000
,
0001
0001
0100
0000
,
0001
0001
0010
0000
,
0002
0003
0200
0300
,
0010
0100
0020
0030
,
1000
1000
0001
0000
,
0001
0001
1000
0000
,
0200
0300
0020
0030
,
0001
0001
0001
0000
,
1000
1000
0100
0000
,
1000
1000
0010
0000
,
2000
3000
0200
0300
,
0010
0100
0020
0030
,
0001
0100
0001
0000
,
1000
0100
1000
0000
,
0020
0030
0200
0300
,
0002
0000
0003
0001
,
2000
0000
3000
0000
,
0200
0000
0300
0000
,
0020
0000
0030
0000
,
0002
0000
0003
0000
,
0200
0000
0300
0000
,
0020
0000
0030
0000
,
2000
0000
3000
0000
,
0002
0000
0003
0000
,
0020
0000
0030
0000
,
0010
0000
0000
0000
,
0001
0000
0000
0000
,
1000
0000
0000
0000
,
0001
0000
0000
0000
,
1000
0000
0001
0000
,
0200
0000
0300
0000
,
0020
0000
0030
0000
,
0100
0000
0100
0000
,
0001
0000
0001
0000
,
1000
0000
0000
0000
,
0001
0000
0000
0000
,
1000
0000
0000
0000
,
0001
0000
1000
0000
,
0200
0000
0300
0000
,
0020
0000
0030
0000
,
0100
0000
0100
0000
,
2000
0000
3000
0000
,
0001
0000
0001
0000
,
0001
0000
0001
0000
,
1000
0000
1000
0000
,
0020
0000
0030
0000
,
1000
0000
1000
0000
,
1000
0000
1000
0000
,
0001
0000
0001
0000
,
0020
0000
0000
0000
,
0030
0000
0000
0000
,
0000
0000
0000
0000
,
0001
0100
0010
0000
,
1000
0100
0010
0000
,
0001
1000
0010
0000
,
1000
0001
0010
0000
,
0001
0001
1000
1000
,
0001
0001
1000
0020
,
0030
0000
0000
0000
;
