#TITLE:being torn the sky;
#SUBTITLE:;
#ARTIST:猫叉Master+ feat.JUNE;
#TITLETRANSLIT:;
#SUBTITLETRANSLIT:;
#ARTISTTRANSLIT:Nekomata Master+ feat.JUNE;
#GENRE:Electro Pop;
#CREDIT:;
#BANNER:being torn the sky.png;
#BACKGROUND:being torn the sky-bg.png;
#LYRICSPATH:;
#CDTITLE:cdtitle.png;
#MUSIC:being torn the sky.ogg;
#OFFSET:-0.196445;
#SAMPLESTART:77.255264;
#SAMPLELENGTH:18.823524;
#SELECTABLE:YES;
#BPMS:0.000000=102.000000
;
#STOPS:
;
#BGCHANGES:;
#KEYSOUNDS:;
#ATTACKS:;

//---------------dance-single - ----------------
#NOTES:
     dance-single:
     :
     Challenge:
     12:
     0.489825,0.528129,0.162501,0.585004,0.369690,422.000000,402.000000,20.000000,72.000000,0.000000,0.000000,0.489825,0.528129,0.162501,0.585004,0.369690,422.000000,402.000000,20.000000,72.000000,0.000000,0.000000:
// measure 0
0000
0000
0000
0000
,  // measure 1
0000
0000
0000
0000
,  // measure 2
0000
0000
0000
0000
,  // measure 3
0000
0000
0000
0000
,  // measure 4
1000
0010
2000
0100
0000
0001
3001
0000
,  // measure 5
1000
0010
0100
0002
0000
1003
1001
0000
,  // measure 6
0001
0000
0010
0000
0002
0000
0100
0000
0000
0000
1000
0000
1003
0000
0001
1000
,  // measure 7
0200
0000
0000
0000
0000
0000
0000
0000
0300
0000
0010
0000
0000
0001
0000
0000
,  // measure 8
1000
0000
0000
0000
0001
0100
0001
0000
0100
0000
0000
0000
0010
0000
1000
0000
,  // measure 9
0001
0000
0000
0000
1000
0100
1000
0000
0100
0000
0000
0000
0010
0000
0100
0000
,  // measure 10
0010
0000
0000
0000
0001
1000
0001
0000
0100
0000
0000
0000
0100
0000
0010
0000
,  // measure 11
2000
0000
3020
0000
0031
0010
1000
0100
,  // measure 12
0002
0000
0000
0103
0010
0100
1000
0000
0001
0000
0000
0000
1000
0000
0001
0000
,  // measure 13
0100
0000
0000
0001
0100
0010
1000
0000
0001
0000
0010
0000
0100
0000
1000
0000
,  // measure 14
0001
0000
0000
0000
1000
0000
0001
0100
0020
0000
0230
0000
2300
0000
3002
0000
,  // measure 15
0023
0000
0230
0000
0302
0000
2003
0000
3100
1000
0001
1000
0010
0000
1000
0000
,  // measure 16
1010
0000
0000
0000
0010
1000
0001
0000
1000
0000
0100
0010
0100
0000
0010
0000
,  // measure 17
0011
0000
0000
0000
0010
0001
1000
0000
0001
0000
0100
0010
0100
0000
0010
0000
,  // measure 18
1010
0000
0000
0000
0001
1000
0001
0000
1000
0000
0001
1000
0100
0000
0010
0000
,  // measure 19
0002
0000
0023
0000
1030
0010
0001
0100
,  // measure 20
2000
0000
0000
3100
0010
0100
0001
0000
0101
0000
0000
0000
1000
0000
0100
0000
,  // measure 21
1100
0000
0000
1000
0100
0010
0001
0000
1000
0000
0010
0100
0001
0000
1000
0000
,  // measure 22
1001
0000
0000
0000
0001
0000
1000
0100
0020
0000
0230
0000
0302
0000
2003
0000
,  // measure 23
3020
0000
0230
0000
2300
0000
3002
0000
0103
0001
1000
0001
0010
0000
0010
0001
,  // measure 24
1000
0000
2001
0000
0000
0000
3010
2000
0100
0000
0000
3002
0100
0000
0000
1003
,  // measure 25
0100
0010
0001
0000
0010
0001
0200
0000
0010
0000
0001
0000
0302
0000
0000
1003
,  // measure 26
0100
0000
0100
0000
0010
0001
0010
0001
1000
0001
0100
0001
0020
0000
0100
0000
,  // measure 27
0031
0000
0001
0000
1000
0010
1000
0010
0100
0001
0010
0100
2000
0000
0000
3001
,  // measure 28
0100
0000
1002
0000
0000
0000
0013
0002
0100
0000
0000
2003
0100
0000
0000
3001
,  // measure 29
0100
0010
1000
0000
0010
1000
0200
0000
0010
0000
1000
0000
2300
0000
0000
3001
,  // measure 30
0100
0000
0100
0000
0010
1000
0010
1000
0001
1000
0100
1000
0020
0000
0100
0000
,  // measure 31
1030
0000
1000
0000
0001
0010
0001
0010
0100
1000
0010
0100
0002
0000
0000
0000
,  // measure 32
1003
0000
0000
0000
0200
0300
0000
0000
0000
0000
0000
0000
0020
0030
0002
0003
0200
0300
0000
0000
0020
0030
0000
0000
2000
0000
0000
0000
0000
0000
0000
0000
,  // measure 33
3001
0000
0010
0000
0110
0000
1000
0010
0001
0000
0010
0000
1010
0000
0001
0010
,  // measure 34
1000
0000
0010
0000
0100
0000
0010
0001
1000
0000
1000
0001
0200
0000
0001
0000
,  // measure 35
0310
0000
1000
0000
1001
0000
1000
0100
0001
0000
0100
0000
1100
0000
0001
0100
,  // measure 36
1000
0000
0100
0000
0010
0000
0100
0001
2000
0000
0100
0000
3002
0000
0010
0000
,  // measure 37
1003
0000
0001
0100
0001
0000
1000
0100
1000
0000
0001
0100
0010
0000
0010
1000
,  // measure 38
0100
0020
0032
2003
3020
0230
0302
2003
,  // measure 39
3200
0000
0001
0010
1300
0000
1001
0000
,  // measure 40
1000
0000
0001
0100
0001
0100
0010
1000
0100
1000
0100
0010
0002
0000
0000
0000
,  // measure 41
1003
0000
0010
0000
0110
0000
0001
0010
1000
0000
0010
0000
0011
0000
1000
0010
,  // measure 42
0001
0000
0010
0000
0100
0000
0010
1000
0001
0000
0001
1000
0200
0000
1000
0000
,  // measure 43
0310
0000
0001
0000
1001
0000
0001
0100
1000
0000
0100
0000
0101
0000
1000
0100
,  // measure 44
0001
0000
0100
0000
0010
0000
0100
1000
0002
0000
0100
0000
2003
0000
0010
0000
,  // measure 45
3001
0000
1000
0100
1000
0000
0001
0100
0001
0000
1000
0100
0010
0000
0010
0001
,  // measure 46
0100
0020
0032
0023
2030
3200
0302
0203
,  // measure 47
0320
0000
0130
0110
2002
3003
0001
0100
,  // measure 48
0010
0000
1000
0100
1000
0100
0010
0001
0100
0001
0100
0010
1000
0001
1000
0100
,  // measure 49
0020
0000
0000
0000
,  // measure 50
0030
0000
0000
0000
;

//---------------dance-single - ----------------
#NOTES:
     dance-single:
     :
     Hard:
     9:
     0.374914,0.426566,0.105626,0.544379,0.105626,323.000000,310.000000,13.000000,67.000000,0.000000,0.000000,0.374914,0.426566,0.105626,0.544379,0.105626,323.000000,310.000000,13.000000,67.000000,0.000000,0.000000:
// measure 0
0000
0000
0000
0000
,  // measure 1
0000
0000
0000
0000
,  // measure 2
0000
0000
0000
0000
,  // measure 3
0000
0000
0000
0000
,  // measure 4
1000
0010
1000
0200
0000
0310
0001
0000
,  // measure 5
1000
0010
0100
0002
0000
1003
1001
0000
,  // measure 6
0001
0010
0001
0200
0000
0310
1000
0001
,  // measure 7
0020
0000
0000
0000
0000
0000
0000
0000
0030
0000
0100
0000
0000
1000
0000
0000
,  // measure 8
0002
0000
1000
1000
1003
0000
0010
2000
,  // measure 9
0100
0000
0001
0001
3001
0000
0010
0002
,  // measure 10
0100
0000
1000
1000
1003
0000
0001
0010
,  // measure 11
0200
0000
2300
0000
3001
0100
0010
1000
,  // measure 12
0002
0000
0010
1000
2003
0000
0010
0001
,  // measure 13
3002
0000
0023
0000
0130
1000
0001
0100
,  // measure 14
0020
0000
0000
0000
0030
0000
1000
0010
1000
0000
0010
0000
0100
0000
0001
0000
,  // measure 15
0010
0000
0100
0000
1000
0000
0001
0000
0100
0000
0010
0000
0000
1000
0000
0000
,  // measure 16
2001
0000
0100
0100
3100
0000
1000
0100
,  // measure 17
0001
0100
1000
0010
0001
0010
1000
0001
,  // measure 18
1002
0000
0100
0100
0103
0000
0001
0100
,  // measure 19
1000
0100
0001
0010
1000
0010
0001
1000
,  // measure 20
2000
0000
0010
0001
3002
0000
0010
1000
,  // measure 21
2003
0000
3020
0000
0130
0001
1000
0100
,  // measure 22
0020
0000
0000
0000
0030
0000
0001
0010
0001
0000
0010
0000
0100
0000
1000
0000
,  // measure 23
0010
0000
0100
0000
0001
0000
1000
0000
0100
0000
0010
0000
0001
0000
1000
0001
,  // measure 24
1000
0000
1001
0000
0000
0000
1000
0002
0100
0000
0000
2003
0100
0000
0000
3001
,  // measure 25
2000
0010
3002
0010
1003
1001
1001
0000
,  // measure 26
1000
0000
1000
0000
0100
0000
0001
0000
0100
0000
0010
0100
0010
0000
0000
0000
,  // measure 27
0001
0000
0001
0000
0100
0000
1000
0000
0100
0000
0010
0100
0010
0000
0000
0000
,  // measure 28
1000
0000
1001
0000
0000
0000
0001
2000
0100
0000
0000
3002
0100
0000
0000
1003
,  // measure 29
0002
0010
2003
0010
3001
1001
1001
0000
,  // measure 30
0001
0000
0001
0000
0010
0000
1000
0000
0010
0000
0100
0010
0100
0000
0000
0000
,  // measure 31
1000
0000
1000
0000
0010
0000
0001
0000
0010
0000
0100
0010
0100
0000
0000
0000
,  // measure 32
0001
0000
0000
0000
2000
3000
0000
0000
0000
0000
0000
0000
0002
0003
2000
3000
0002
0003
0000
0000
2000
3000
0000
0000
0200
0000
0000
0000
0000
0000
0000
0000
,  // measure 33
0001
0000
0310
0200
0001
0000
0310
0100
,  // measure 34
0001
0000
0100
0000
1000
0000
0001
1000
0001
0000
0100
0000
0020
0000
0000
0000
,  // measure 35
0001
0000
0130
0020
0001
0000
0130
0010
,  // measure 36
2000
0000
0000
0000
3001
0000
0010
0100
0010
0000
0100
0000
1000
0000
0001
0000
,  // measure 37
0201
0000
0301
1000
1200
0000
1300
0001
,  // measure 38
0100
0020
2030
3002
0023
0230
2300
3002
,  // measure 39
0203
0000
0010
0010
0020
0000
0330
0000
,  // measure 40
1000
0000
0001
0010
0100
0000
0010
0100
1000
0000
0001
0000
0200
0000
0000
0000
,  // measure 41
1000
0000
0310
0200
1000
0000
0310
0100
,  // measure 42
1000
0000
0100
0000
0001
0000
1000
0001
1000
0000
0100
0000
0020
0000
0000
0000
,  // measure 43
1000
0000
0130
0020
1000
0000
0130
0010
,  // measure 44
0002
0000
0000
0000
1003
0000
0010
0100
0010
0000
0100
0000
0001
0000
1000
0000
,  // measure 45
1200
0000
1300
0001
0201
0000
0301
1000
,  // measure 46
0100
0002
0203
2300
3002
0203
2300
3200
,  // measure 47
0302
0000
0000
1000
2000
0000
3003
0000
,  // measure 48
0001
0000
1000
0100
1000
0000
0001
0100
0001
0000
1000
0010
1000
0000
0001
0010
,  // measure 49
0002
0000
0000
0000
,  // measure 50
0003
0000
0000
0000
;

//---------------dance-single - ----------------
#NOTES:
     dance-single:
     :
     Medium:
     6:
     0.247234,0.304690,0.048750,0.268127,0.000000,213.000000,207.000000,6.000000,33.000000,0.000000,0.000000,0.247234,0.304690,0.048750,0.268127,0.000000,213.000000,207.000000,6.000000,33.000000,0.000000,0.000000:
0000
0000
0000
0000
,
0000
0000
0000
0000
,
0000
0000
0000
0000
,
0000
0000
0000
0000
,
1000
0010
0100
0001
,
0001
0010
0100
1000
,
0001
0100
0010
1000
,
0002
0000
0003
0000
,
0001
0010
0100
0000
,
1000
0010
0100
0000
,
0001
1000
0100
0010
,
0002
0000
0203
0000
0310
1000
0000
0010
,
2000
0000
3000
0001
0002
0000
0003
1000
,
2000
0000
3200
0000
0310
0001
0000
0010
,
0002
0003
1000
0010
,
0001
0100
1000
0000
,
0001
0000
0010
0100
0010
0000
0100
0000
,
1000
0000
0010
0100
0010
0000
0100
0000
,
0001
0000
0010
0100
1000
0000
0001
0000
,
2000
0000
3020
0000
0130
0001
0000
0100
,
0002
0000
0003
1000
2000
0000
3000
0001
,
0002
0000
0023
0000
0130
1000
0000
0100
,
2000
3000
0001
0100
,
1000
0000
0010
0000
0001
0000
1000
0001
,
0000
1002
0003
0100
0100
0000
0100
0000
,
0010
0100
0001
0000
1000
0001
0020
0000
,
0030
0000
0001
0010
0100
1000
0020
0000
,
0030
0000
1000
0010
0100
0001
2000
0000
,
3000
2001
3000
0100
0100
0000
0100
0000
,
0010
0100
1000
0000
0001
1000
0020
0000
,
0030
0000
1000
0010
0100
0001
0020
0000
,
0030
0000
0001
0010
0100
1000
0002
0000
,
0203
0000
0300
0001
,
0011
0000
1000
0010
1000
0000
0001
0010
,
0001
0010
0100
0000
1000
0000
0001
0000
,
0101
0000
1000
0001
0010
0000
0100
1000
,
0001
0000
1000
0000
0010
1000
0100
0010
,
0002
0010
2003
0010
,
3001
0000
0010
0100
1000
0001
0100
0000
,
0020
0100
0200
0330
,
1000
0000
0100
0010
0001
1000
0010
0000
,
1010
0000
0001
0010
0001
0000
1000
0010
,
1000
0010
0100
0000
0001
0000
1000
0000
,
1100
0000
0001
1000
0010
0000
0100
0001
,
1000
0000
0001
0000
0010
0001
0100
0010
,
2000
0010
3002
0010
,
1003
0000
0010
0100
0001
1000
0100
0000
,
0020
0100
0200
0330
,
0001
0000
0001
0100
1000
0100
0001
0000
,
2000
0000
0000
0000
,
3000
0000
0000
0000
;

//---------------dance-single - ----------------
#NOTES:
     dance-single:
     :
     Easy:
     4:
     0.159019,0.182814,0.016250,0.243752,0.000000,137.000000,135.000000,2.000000,30.000000,0.000000,0.000000,0.159019,0.182814,0.016250,0.243752,0.000000,137.000000,135.000000,2.000000,30.000000,0.000000,0.000000:
0000
0000
0000
0000
,
0000
0000
0000
0000
,
0000
0000
0000
0000
,
0000
0000
0000
0000
,
1000
0010
1000
0000
,
0001
0010
0001
0000
,
1000
0001
1000
0000
,
0020
0000
0030
1000
,
2000
3000
0000
0100
,
0200
0300
0000
0010
,
0020
0030
0000
0001
,
1000
0001
0100
0000
,
0020
0030
0020
0030
,
0010
0010
1000
0001
,
0020
0030
0100
0000
,
1000
0000
0000
0001
,
0100
0001
0000
1000
,
0100
1000
0000
0001
,
0010
0001
0000
1000
,
0010
1000
0100
0000
,
0020
0030
0020
0030
,
0010
0010
0001
1000
,
0020
0030
0100
0000
,
0001
1000
0001
0000
,
2001
3000
0100
0000
,
1000
0100
0010
0010
,
0000
0001
1000
0010
,
0000
1000
0001
0010
,
1002
0003
0100
0000
,
0001
0100
0010
0010
,
0000
1000
0001
0010
,
0000
0001
1000
0010
,
0020
0000
0030
0010
,
2000
3010
2000
3010
,
1000
0100
0010
0000
,
0002
0013
0200
1300
,
0002
1003
0010
1000
,
0200
0300
0200
0300
,
1000
0100
0010
0001
,
0100
0010
2000
0000
,
3100
0000
0100
0010
,
0002
0013
0002
0013
,
0001
0100
0010
0000
,
2000
3010
0200
0301
,
2000
3001
0010
0001
,
0200
0300
0200
0300
,
0001
0100
0010
1000
,
0100
0010
0002
0000
,
0103
0010
0100
0010
,
2000
0000
0000
0000
,
3000
0000
0000
0000
;

//---------------dance-single - ----------------
#NOTES:
     dance-single:
     :
     Beginner:
     2:
     0.092858,0.121876,0.016250,0.065000,0.000000,80.000000,78.000000,2.000000,8.000000,0.000000,0.000000,0.092858,0.121876,0.016250,0.065000,0.000000,80.000000,78.000000,2.000000,8.000000,0.000000,0.000000:
0000
0000
0000
0000
,
0000
0000
0000
0000
,
0000
0000
0000
0000
,
0000
0000
0000
0000
,
1000
0000
0000
0000
,
0100
0000
0000
0000
,
0010
0000
0000
0000
,
0001
0000
0000
0000
,
2000
3000
0000
0000
,
0020
0030
0000
0000
,
0200
0300
0000
0000
,
0001
0000
1000
0000
,
0100
0000
0010
0000
,
0100
0000
0010
0000
,
0001
0000
0000
0000
,
0001
0000
0000
0000
,
2000
3000
0000
0000
,
0010
0000
0100
0000
,
0002
0003
0000
0000
,
0010
0000
0001
0000
,
0100
0000
0010
0000
,
0100
0000
0010
0000
,
1000
0000
0000
0000
,
0001
0000
0000
0000
,
1001
0000
0100
0000
,
1000
0000
1000
0000
,
0000
0010
0010
0000
,
0000
0010
0010
0000
,
1001
0000
0100
0000
,
0001
0000
0001
0000
,
0000
0010
0010
0000
,
0000
0010
0010
0000
,
0001
0000
0000
0000
,
1000
0000
1000
0000
,
0010
0010
0010
0000
,
1000
0000
1000
0000
,
0100
0000
0010
0010
,
0010
0000
0001
0000
,
0000
1000
1000
0000
,
0020
0000
0030
0000
,
1000
0000
0000
0000
,
0001
0000
0001
0000
,
0010
0010
0010
0000
,
0001
0000
0001
0000
,
0100
0000
0010
0010
,
0010
0000
1000
0000
,
0000
0001
0001
0000
,
0020
0000
0030
0000
,
0001
0000
1000
0000
,
0002
0000
0000
0000
,
0003
0000
0000
0000
;

//---------------dance-single - possible new csp----------------
#NOTES:
     dance-single:
     :
     Edit:
     12:
     0.544379,0.609380,0.162501,0.446878,0.540317,469.000000,449.000000,20.000000,55.000000,0.000000,0.000000,0.544379,0.609380,0.162501,0.446878,0.540317,469.000000,449.000000,20.000000,55.000000,0.000000,0.000000:
// measure 0
0000
0000
0000
0000
,  // measure 1
0000
0000
0000
0000
,  // measure 2
0000
0000
0000
0000
,  // measure 3
0000
0000
0000
0000
,  // measure 4
1000
0000
0010
0000
2000
0000
0100
0000
0000
0000
0001
0000
3001
0000
1000
0001
,  // measure 5
1000
0000
0010
0000
0100
0000
0002
0000
0000
0000
1003
0000
1001
0000
0001
1000
,  // measure 6
0001
0000
0000
0010
0000
0000
0002
0000
0000
0100
0000
0000
0000
0000
0000
1000
0000
0000
1003
0000
0000
0001
0010
0100
,  // measure 7
2000
0000
0000
0000
0000
0000
0000
0000
3000
0000
0010
0000
0000
0100
0000
0000
,  // measure 8
0001
0000
0000
0000
0000
0000
1000
0001
1000
0001
0000
0000
0010
0000
0000
0000
0000
0000
0100
0000
0000
0010
0000
0000
,  // measure 9
0001
0000
0000
0000
1000
0001
1000
0000
0010
0000
0000
0000
0100
0000
0010
0000
,  // measure 10
1000
0000
0000
0000
0000
0000
0001
1000
0001
1000
0000
0000
0100
0000
0000
0000
0000
0000
1000
0000
0000
0100
0000
0000
,  // measure 11
0002
0000
0203
0000
1300
0010
0001
0010
,  // measure 12
2000
0000
0000
0000
0000
0000
3001
0010
0001
0000
0010
0000
0100
0000
0000
0000
1000
0000
0000
0000
0000
0000
0000
0000
0010
0000
0000
0000
0100
0000
0000
0000
,  // measure 13
0001
0000
0000
0000
0000
0000
1000
0010
1000
0000
0010
0000
0100
0000
0000
0000
0001
0000
0000
0000
0010
0000
0000
0000
0100
0000
0000
0000
1000
0000
0000
0000
,  // measure 14
0001
0000
0000
0000
1000
0000
0001
0100
0010
1000
0010
1000
0001
0010
0001
0010
,  // measure 15
0100
1000
0100
1000
0001
0100
0001
0100
0010
1000
0001
1000
0100
0000
0010
0000
,  // measure 16
0011
0000
0000
0000
0000
0000
0000
0000
0000
0000
0000
0000
0001
0000
0010
0000
0100
0000
1000
0000
0000
0000
0000
0000
0001
0000
0000
0000
0000
0000
0100
0000
0000
0010
0000
0000
0100
0000
0000
0000
0000
0000
0010
0000
0000
0000
0000
0000
,  // measure 17
1010
0000
0000
0000
0000
0000
0000
0000
0000
0000
0000
0000
1000
0000
0010
0000
0100
0000
0001
0000
0000
0000
0000
0000
1000
0000
0000
0000
0000
0000
0100
0000
0000
0010
0000
0000
0100
0000
0000
0000
0000
0000
0010
0000
0000
0000
0000
0000
,  // measure 18
0011
0000
0000
0000
0000
0000
0000
0000
0000
0000
0000
0000
1000
0000
0001
0000
1000
0000
0001
0000
0000
0000
0000
0000
0100
0000
0000
0000
0000
0000
0001
0000
0000
0100
0000
0000
0010
0000
0000
0000
0000
0000
0100
0000
0000
0000
0000
0000
,  // measure 19
2000
0000
3200
0000
0301
0010
1000
0010
,  // measure 20
0002
0000
0000
0000
0000
0000
1003
0010
1000
0000
0010
0000
0100
0000
0000
0000
0101
0000
0000
0000
0000
0000
0000
0000
0001
0000
0000
0000
1000
0000
0000
0000
,  // measure 21
1100
0000
0000
0000
0000
0000
0001
0010
0001
0000
0010
0000
0100
0000
0000
0000
1000
0000
0000
0000
0010
0000
0000
0000
0100
0000
0000
0000
0001
0000
0000
0000
,  // measure 22
1000
0000
0000
0000
0001
0000
1000
0100
0010
0001
0010
0001
1000
0010
1000
0010
,  // measure 23
0100
0001
0100
0001
1000
0100
1000
0100
0010
0001
1000
0001
0100
0000
0010
1000
,  // measure 24
0001
0000
1002
0000
0000
0000
0013
0002
0100
0000
0000
2003
0100
0000
0000
3001
,  // measure 25
1000
0000
0010
0000
1000
0000
0001
0000
0000
0000
0000
0000
1000
0000
0001
0000
1000
0000
0200
0000
0000
0000
0000
0000
0010
0000
0000
0000
0000
0000
1000
0000
0000
0000
0000
0000
2300
0000
0000
0000
0000
0000
0000
0000
0000
3001
0000
0000
,  // measure 26
0100
0000
0000
0000
0000
0000
0100
0000
0000
0000
0000
0000
0010
0000
1000
0000
0010
0000
1000
0000
0000
0001
0000
0000
1000
0000
0000
0100
0000
0000
0010
0000
0000
0001
0000
0000
2000
0000
0000
0000
0000
0000
0010
0000
0000
0000
0000
0000
,  // measure 27
3001
0000
0000
0000
0000
0000
0001
0000
0000
0000
0000
0000
1000
0000
0100
0000
1000
0000
0100
0000
0000
0010
0000
0000
0001
0000
0000
0100
0000
0000
0010
0000
0000
1000
0000
0000
0002
0000
0000
0000
0000
0000
0013
0000
0000
0100
0000
0000
,  // measure 28
1000
0000
2001
0000
0000
0000
3010
2000
0100
0000
0000
3002
0100
0000
0000
1003
,  // measure 29
0001
0000
0010
0000
0001
0000
1000
0000
0000
0000
0000
0000
0001
0000
1000
0000
0001
0000
0200
0000
0000
0000
0000
0000
0010
0000
0000
0000
0000
0000
0001
0000
0000
0000
0000
0000
0302
0000
0000
0000
0000
0000
0000
0000
0000
1003
0000
0000
,  // measure 30
0100
0000
0000
0000
0000
0000
0100
0000
0000
0000
0000
0000
0010
0000
0001
0000
0010
0000
0001
0000
0000
1000
0000
0000
0001
0000
0000
0100
0000
0000
0010
0000
0000
1000
0000
0000
0002
0000
0000
0000
0000
0000
0010
0000
0000
0000
0000
0000
,  // measure 31
1003
0000
0000
0000
0000
0000
1000
0000
0000
0000
0000
0000
0001
0000
0100
0000
0001
0000
0100
0000
0000
0010
0000
0000
1000
0000
0000
0100
0000
0000
0010
0000
0000
0001
0000
0000
2000
0000
0000
0000
0000
0000
3010
0000
0000
0100
0000
0000
,  // measure 32
0010
0000
0000
0000
0002
0003
0000
0000
0000
0000
0000
0000
0020
0030
0200
0300
0020
0030
0000
0000
2000
3000
0000
0000
0002
0000
0000
0000
0000
0000
0000
0000
,  // measure 33
1003
0000
0100
0000
0110
0000
0001
0010
1000
0000
0010
0000
0011
0000
1000
0010
,  // measure 34
0001
0000
0010
0000
0100
0000
0010
1000
0001
1000
0100
0010
0001
0000
1000
0000
,  // measure 35
0010
0000
1000
0000
1001
0000
1000
0100
0001
0000
0100
0000
1100
0000
0001
0100
,  // measure 36
1000
0000
0100
0000
0101
0000
1000
0001
2000
0000
0100
0000
3002
0000
0010
0000
,  // measure 37
1003
0000
0001
0100
0001
0000
1000
0100
1000
0000
0001
0100
0010
0000
0010
1000
,  // measure 38
0100
0000
0000
1000
0100
0010
0002
0000
0000
2003
0000
0000
3020
0000
0000
0230
0000
0000
0302
0000
0000
2003
0000
0000
,  // measure 39
3200
0000
0320
0032
2003
0000
3010
0100
,  // measure 40
0001
0000
1000
0100
0010
0100
0001
1000
0010
0100
0010
0001
2000
0000
0000
0000
,  // measure 41
3001
0000
0100
0000
0110
0000
1000
0010
0001
0000
0010
0000
1010
0000
0001
0010
,  // measure 42
1000
0000
0010
0000
0100
0000
0010
0001
1000
0001
0100
0010
1000
0000
0001
0000
,  // measure 43
0010
0000
0001
0000
1001
0000
0001
0100
1000
0000
0100
0000
0101
0000
1000
0100
,  // measure 44
0001
0000
0100
0000
1100
0000
0001
1000
0002
0000
0100
0000
2003
0000
0010
0000
,  // measure 45
3001
0000
1000
0100
1000
0000
0001
0100
0001
0000
1000
0100
0010
0000
0010
0001
,  // measure 46
0100
0000
0000
0001
0100
0010
2000
0000
0000
3002
0000
0000
0023
0000
0000
0230
0000
0000
2300
0000
0000
3002
0000
0000
,  // measure 47
0203
0000
0310
0110
2002
3003
1000
0100
,  // measure 48
0010
0000
0001
0100
0010
0100
1000
0001
0010
0100
0010
1000
0001
0010
0100
0010
,  // measure 49
0200
0000
0000
0000
,  // measure 50
0300
0000
0000
0000
;
