#VERSION:0.83;
#TITLE:air;
#SUBTITLE:;
#ARTIST:DJ SIMON;
#TITLETRANSLIT:;
#SUBTITLETRANSLIT:;
#ARTISTTRANSLIT:;
#GENRE:;
#ORIGIN:;
#CREDIT:;
#BANNER:air.png;
#BACKGROUND:air-bg.png;
#PREVIEWVID:;
#JACKET:air-jacket.png;
#CDIMAGE:;
#DISCIMAGE:;
#LYRICSPATH:;
#CDTITLE:cdtitle.png;
#MUSIC:air.ogg;
#OFFSET:-0.008950;
#SAMPLESTART:9.215887;
#SAMPLELENGTH:14.769684;
#SELECTABLE:YES;
#DISPLAYBPM:130.000000;
#BPMS:0.000=130.000;
#STOPS:;
#DELAYS:;
#WARPS:;
#TIMESIGNATURES:0.000=4=4;
#TICKCOUNTS:0.000=4;
#COMBOS:0.000=1;
#SPEEDS:0.000=1.000=0.000=0;
#SCROLLS:0.000=1.000;
#FAKES:;
#LABELS:0.000=Song Start;
#BGCHANGES:4.000=air.avi=1.000=1=0=1===CrossFade==,
164.000=air-bg.png=1.000=1=0=1===CrossFade==,
99999=-nosongbg-=1.000=0=0=0 // don't automatically add -songbackground-
;
#KEYSOUNDS:;
#ATTACKS:
;

//---------------dance-single - ----------------
#NOTEDATA:;
#CHARTNAME:;
#STEPSTYPE:dance-single;
#DESCRIPTION:;
#CHARTSTYLE:;
#DIFFICULTY:Challenge;
#METER:13;
#RADARVALUES:0.501104,0.528739,0.116065,0.747972,0.457811,272.000000,263.000000,9.000000,58.000000,0.000000,0.000000,0.000000,0.000000,0.000000,0.501104,0.528739,0.116065,0.747972,0.457811,272.000000,263.000000,9.000000,58.000000,0.000000,0.000000,0.000000,0.000000,0.000000;
#CREDIT:;
#DISPLAYBPM:130.000000;
#NOTES:
// measure 0
0000
0000
0000
0000
,  // measure 1
0000
0000
0000
0000
,  // measure 2
0000
0000
0000
0000
,  // measure 3
0002
0010
2003
0010
,  // measure 4
0002
0000
0000
0000
0000
0000
3003
0000
0000
0000
0000
0000
1000
0000
0000
0001
1000
0001
1000
0000
0000
0100
0000
0000
,  // measure 5
0020
0100
0032
0100
,  // measure 6
0023
0000
0000
0000
0130
0010
0000
0011
0000
0000
1000
0000
0001
0100
0000
0000
,  // measure 7
0020
0100
2030
0100
,  // measure 8
3020
0000
0000
0000
0130
0010
0000
1010
0000
0000
0001
0000
1000
0100
0000
0000
,  // measure 9
0200
0001
0320
0001
,  // measure 10
0230
0000
0000
0000
0310
0001
0000
1001
0000
0000
0001
0000
0100
0010
0000
0000
,  // measure 11
0200
1000
0320
1000
,  // measure 12
0230
0000
0000
0000
0310
1000
0000
1001
0000
0000
1000
0000
0100
0010
0000
0000
,  // measure 13
0002
0100
2003
0100
,  // measure 14
0002
0000
0000
0000
0000
0000
3003
0000
0000
0000
0000
0000
0001
0000
0000
1000
0001
1000
0001
0000
0000
0100
0000
0000
,  // measure 15
0020
0000
0000
0000
1030
0000
0100
0020
0100
0000
0000
0001
0000
0000
0100
0000
,  // measure 16
0230
0000
0000
0000
1300
0010
0000
1010
0000
0000
0001
0000
0010
0100
0000
0000
,  // measure 17
0020
0000
0000
0000
0031
0000
0100
0020
0100
0000
0000
1000
0000
0000
0100
0000
,  // measure 18
0230
0000
0000
0000
0301
0010
0000
0011
0000
0000
1000
0000
0010
0100
0000
0000
,  // measure 19
0200
0000
0000
0000
0301
0000
0010
0100
0020
0000
0000
1000
0000
0000
0100
0000
,  // measure 20
0230
0000
0000
0000
1300
0010
0000
1010
0000
0000
0001
0000
1000
0100
0000
0000
,  // measure 21
0200
0000
0000
0000
1300
0000
0010
0100
0020
0000
0000
0001
0000
0000
0100
0000
,  // measure 22
0230
0000
0000
0000
0301
0010
0000
0200
0000
0000
1300
0000
0001
0100
0000
0000
,  // measure 23
0220
0000
0000
0000
0330
0000
1000
0010
2000
0000
0000
0000
3000
0000
0001
0010
,  // measure 24
0002
0000
0000
0000
1003
0000
0010
0000
0200
0000
0000
0010
0000
0000
0310
0000
,  // measure 25
1001
0000
0000
0000
0001
0000
0010
0100
0010
0000
0001
0000
1000
0000
0010
0100
,  // measure 26
0010
1000
0001
0020
0000
0130
2000
0000
,  // measure 27
3001
0000
0100
0000
0010
0000
1000
0100
1000
0000
0010
0000
0100
0000
0001
0010
,  // measure 28
0001
0000
0100
0000
0010
0000
2000
0000
0000
0000
3001
0000
0000
0001
0010
0100
,  // measure 29
1000
0000
0010
0000
0100
0000
0001
1000
0001
0000
0010
0000
0100
0000
1000
0001
,  // measure 30
1000
0010
0100
0002
0000
1003
0200
0000
,  // measure 31
0301
0100
1000
0001
0100
1000
0100
0002
,  // measure 32
2000
0000
0000
0000
0000
0000
3003
0000
0000
0000
0000
0000
1000
0000
0000
0001
1000
0001
1000
0000
0000
0100
0000
0000
,  // measure 33
0010
0100
0020
0000
0001
0000
0000
0000
0130
0010
0200
0000
1000
0000
0000
0000
,  // measure 34
0310
0100
0020
0000
0001
0000
0000
0000
0130
1000
0001
0000
0100
0000
0000
0000
,  // measure 35
0010
0100
0020
0000
1000
0000
0000
0000
0130
0010
0200
0000
0001
0000
0000
0000
,  // measure 36
0310
0100
0020
0000
1000
0000
0000
0000
0130
0002
0000
0023
0000
0130
0010
0100
,  // measure 37
0020
1000
0230
0001
,  // measure 38
0320
0000
0000
0000
1000
0000
0000
0000
0130
0010
0000
0001
1000
0001
1000
0001
,  // measure 39
0200
1000
0320
0001
,  // measure 40
0130
0020
0000
2030
0000
3001
0010
0100
1000
0000
0010
0100
0010
0100
0010
0100
,  // measure 41
0001
0000
0000
0000
;

//---------------dance-single - ----------------
#NOTEDATA:;
#CHARTNAME:;
#STEPSTYPE:dance-single;
#DESCRIPTION:;
#CHARTSTYLE:;
#DIFFICULTY:Hard;
#METER:10;
#RADARVALUES:0.399778,0.449428,0.154753,0.722180,0.025792,217.000000,205.000000,12.000000,56.000000,0.000000,0.000000,0.000000,0.000000,0.000000,0.399778,0.449428,0.154753,0.722180,0.025792,217.000000,205.000000,12.000000,56.000000,0.000000,0.000000,0.000000,0.000000,0.000000;
#CREDIT:;
#DISPLAYBPM:130.000000;
#NOTES:
0000
0000
0000
0000
,
0000
0000
0000
0000
,
0000
0000
0000
0000
,
0002
0010
2003
0010
,
0002
0000
0000
0000
3003
0000
0000
0000
1000
0000
0001
1000
0001
0000
0000
0000
,
1002
0010
0203
0010
,
0302
0000
0013
0001
0100
0001
0010
0000
,
2001
0010
3200
0010
,
2300
0000
3010
1000
0100
1000
0010
0000
,
1020
0100
2030
0001
,
3200
0000
1300
0100
0001
0100
1000
0000
,
0021
0100
0032
1000
,
0203
0000
0301
0100
1000
0100
0001
0000
,
0010
0000
0100
1000
0001
0000
0100
0002
,
2000
0000
0000
0000
3003
0000
0000
0000
0001
0000
1000
0001
1000
0000
0000
0000
,
2001
0000
0010
0001
3002
0000
0010
0000
,
2003
0000
3010
1000
0100
1000
0010
0000
,
1002
0000
0010
1000
2003
0000
0010
0000
,
3002
0000
0013
0001
0100
0001
0010
0000
,
0210
0000
1000
1000
0320
0000
1000
0000
,
0230
0000
0310
0001
1000
0010
0100
0000
,
0210
0000
0001
0001
0320
0000
0001
0000
,
0230
0000
0310
1000
0001
0010
0100
0000
,
0220
0000
0330
2000
0002
0000
3003
0200
,
0020
0000
0000
0000
0330
0000
0000
0000
0200
0000
0000
0010
0000
0000
0310
0000
,
2002
0000
3003
0000
1000
0100
0010
0000
,
0001
0100
0010
2000
0000
3000
0002
0000
,
0003
0022
0000
0033
0010
0001
0100
0000
,
0010
1000
0100
0020
0000
0031
0100
0010
,
2000
0000
3000
0000
0001
0100
0010
0000
,
1000
0100
0010
0002
0000
0003
2000
0000
,
3000
2020
0000
3030
1000
0010
0100
0002
,
2000
0000
0000
0000
3003
0000
0000
0000
1000
0000
0001
1000
0001
0000
0000
0000
,
1000
0100
1000
0100
0010
0001
0010
0001
,
1000
0100
0010
0001
0100
1000
0200
0000
,
0301
0100
0001
0100
0010
1000
0010
1000
,
0001
0100
0010
1000
0100
0001
0100
1000
,
0002
0010
2003
0010
,
3002
0000
0010
0000
0103
1000
0100
0001
,
2000
0100
3002
0100
,
0013
1000
0010
0001
0100
1000
0100
0001
,
1000
0000
0000
0000
;

//---------------dance-single - ----------------
#NOTEDATA:;
#CHARTNAME:;
#STEPSTYPE:dance-single;
#DESCRIPTION:;
#CHARTSTYLE:;
#DIFFICULTY:Medium;
#METER:7;
#RADARVALUES:0.320559,0.317243,0.103169,0.619011,0.000000,174.000000,166.000000,8.000000,48.000000,0.000000,0.000000,0.000000,0.000000,0.000000,0.320559,0.317243,0.103169,0.619011,0.000000,174.000000,166.000000,8.000000,48.000000,0.000000,0.000000,0.000000,0.000000,0.000000;
#CREDIT:;
#DISPLAYBPM:130.000000;
#NOTES:
0000
0000
0000
0000
,
0000
0000
0000
0000
,
0000
0000
0000
0000
,
0001
0001
1000
1000
,
2002
0000
3003
0000
1000
0001
1000
0000
,
0002
0010
2003
0100
,
3002
0000
0013
0100
1000
0000
0001
0000
,
2000
0010
3002
0100
,
2003
0000
3010
0100
0001
0000
1000
0000
,
0200
1000
0320
0001
,
0230
0000
1300
0001
0100
0000
0010
0000
,
0200
0001
0320
1000
,
0230
0000
0301
1000
0100
0000
0010
0000
,
0001
0001
1000
1000
,
2002
0000
3003
0000
1000
0001
1000
0000
,
0002
0000
1003
0001
2000
0000
0010
0000
,
3002
0000
1003
0001
1000
0000
0100
0000
,
2000
0000
3001
1000
0002
0000
0010
0000
,
2003
0000
3001
1000
0001
0000
0100
0000
,
0020
0000
1030
0010
2000
0000
0010
0000
,
3200
0000
1300
0100
0010
0000
0100
0000
,
0020
0000
0031
0010
0002
0000
0010
0000
,
0203
0000
0301
0100
0010
0000
1000
0000
,
2020
3030
0220
0330
,
0202
0303
1000
0001
,
1000
0100
0001
0010
,
1000
0000
0100
0001
0100
0000
1000
0000
,
0001
0100
1000
0010
,
0001
0000
0100
1000
0100
0000
0001
0000
,
1000
0100
0001
0010
,
1000
0000
0010
0100
0001
0000
0010
0100
,
1000
0000
1001
0000
0000
0001
0100
0020
,
0000
0000
0030
0000
1000
0001
1000
0000
,
0002
0010
0203
0010
,
0302
0000
0010
0000
0103
0010
1000
0000
,
2000
0010
3200
0010
,
2300
0000
0010
0000
3100
0010
0100
0000
,
2002
3000
2000
0003
,
0002
0000
3000
0000
1003
0001
0100
0000
,
0220
0300
0200
0030
,
0310
0100
0001
0000
1000
0100
0010
0000
,
0100
0000
0000
0000
;

//---------------dance-single - ----------------
#NOTEDATA:;
#CHARTNAME:;
#STEPSTYPE:dance-single;
#DESCRIPTION:;
#CHARTSTYLE:;
#DIFFICULTY:Easy;
#METER:5;
#RADARVALUES:0.237656,0.264369,0.090272,0.438466,0.000000,129.000000,122.000000,7.000000,34.000000,0.000000,0.000000,0.000000,0.000000,0.000000,0.237656,0.264369,0.090272,0.438466,0.000000,129.000000,122.000000,7.000000,34.000000,0.000000,0.000000,0.000000,0.000000,0.000000;
#CREDIT:;
#DISPLAYBPM:130.000000;
#NOTES:
0000
0000
0000
0000
,
0000
0000
0000
0000
,
0000
0000
0000
0000
,
0001
0000
1000
0000
,
2002
3003
0001
1000
,
0002
0000
0023
0000
,
0230
0010
1300
0001
,
2000
0000
3020
0000
,
0230
0010
0301
1000
,
0002
0000
2003
0000
,
3200
1000
0310
0001
,
2000
0000
3002
0000
,
0203
0001
0310
1000
,
0002
0003
2000
3000
,
2002
3003
0001
1000
,
0200
0000
0010
0010
,
1300
0100
0010
0001
,
0200
0000
0010
0010
,
0301
0100
0010
1000
,
0002
0000
0100
1000
,
0013
0100
0010
0001
,
2000
0000
0100
0001
,
3010
0100
0010
1000
,
0002
0003
0020
0030
,
0200
0300
1000
0001
,
2002
3003
1000
0010
,
0100
0001
1000
0100
,
0020
0030
0001
0010
,
0100
1000
0001
0100
,
0020
0030
1000
0100
,
0010
0001
0010
0100
,
2000
3000
0001
1000
,
2002
3003
0001
1000
,
0001
0010
0100
0010
,
0001
0010
0200
0010
,
1300
0010
0100
0010
,
1000
0010
0200
0301
,
1001
0000
0001
0000
,
1001
0000
0010
0010
,
1001
0000
1000
0000
,
0001
0010
1000
0100
,
0001
0000
0000
0000
;

//---------------dance-single - ----------------
#NOTEDATA:;
#CHARTNAME:;
#STEPSTYPE:dance-single;
#DESCRIPTION:;
#CHARTSTYLE:;
#DIFFICULTY:Beginner;
#METER:2;
#RADARVALUES:0.106853,0.158622,0.051584,0.128961,0.000000,58.000000,54.000000,4.000000,10.000000,0.000000,0.000000,0.000000,0.000000,0.000000,0.106853,0.158622,0.051584,0.128961,0.000000,58.000000,54.000000,4.000000,10.000000,0.000000,0.000000,0.000000,0.000000,0.000000;
#CREDIT:;
#DISPLAYBPM:130.000000;
#NOTES:
0000
0000
0000
0000
,
0000
0000
0000
0000
,
0000
0000
0000
0000
,
0001
0000
1000
0000
,
0001
0000
0000
0000
,
0002
0000
0000
0000
,
0003
0000
0001
0000
,
2000
0000
0000
0000
,
3000
0000
1000
0000
,
0020
0000
0000
0000
,
0030
0000
0010
0000
,
0200
0000
0000
0000
,
0300
0000
0100
0000
,
0001
0000
1000
0000
,
0001
0000
0000
0000
,
2000
0000
3000
0000
,
1000
0000
1000
0000
,
0200
0000
0300
0000
,
0100
0000
0100
0000
,
0020
0000
0030
0000
,
0010
0000
0010
0000
,
0002
0000
0003
0000
,
0001
0000
0001
0000
,
2000
0000
3000
0000
,
0002
0000
0003
0000
,
1001
0000
0000
0000
,
1000
0000
0010
0000
,
1000
0000
0000
0000
,
0001
0000
0010
0000
,
0001
0000
0000
0000
,
0100
0000
0010
0000
,
0100
0000
0000
0000
,
1001
0000
0000
0000
,
0001
0000
0001
0000
,
1000
0000
1000
0000
,
0001
0000
0001
0000
,
1000
0000
1000
0000
,
0100
0000
0000
0000
,
0110
0000
0000
0000
,
1001
0000
0000
0000
,
0001
0000
0100
0100
,
0100
0000
0000
0000
;
