#VERSION:0.83;
#TITLE:妖艶魔女;
#SUBTITLE:-trappola bewitching-;
#ARTIST:gmtn.;
#TITLETRANSLIT:Youen Majo;
#SUBTITLETRANSLIT:-trappola bewitching-;
#ARTISTTRANSLIT:;
#GENRE:Gothic Hardcore;
#ORIGIN:;
#CREDIT:;
#BANNER:Youen Majo -trappola bewitching-.png;
#BACKGROUND:Youen Majo -trappola bewitching--bg.png;
#PREVIEWVID:;
#JACKET:Youen Majo -trappola bewitching--jacket.png;
#CDIMAGE:;
#DISCIMAGE:;
#LYRICSPATH:;
#CDTITLE:cdtitle.png;
#MUSIC:Youen Majo -trappola bewitching-.ogg;
#OFFSET:-1.442000;
#SAMPLESTART:35.547001;
#SAMPLELENGTH:12.000000;
#SELECTABLE:YES;
#BPMS:0.000=190.000,
204.000=95.000,
236.000=190.000;
#STOPS:;
#DELAYS:;
#WARPS:;
#TIMESIGNATURES:0.000=4=4;
#TICKCOUNTS:0.000=4;
#COMBOS:0.000=1;
#SPEEDS:0.000=1.000=0.000=0;
#SCROLLS:0.000=0.250,
4.000=1.000;
#FAKES:;
#LABELS:0.000=Song Start;
#BGCHANGES:;
#KEYSOUNDS:;
#ATTACKS:
;

//---------------dance-single - ----------------
#NOTEDATA:;
#CHARTNAME:;
#STEPSTYPE:dance-single;
#DESCRIPTION:;
#CHARTSTYLE:;
#DIFFICULTY:Hard;
#METER:15;
#RADARVALUES:0.766667,0.896458,0.375000,0.733333,0.358333,644.000000,599.000000,45.000000,88.000000,0.000000,0.000000,2.000000,0.000000,0.000000,0.766667,0.896458,0.375000,0.733333,0.358333,644.000000,599.000000,45.000000,88.000000,0.000000,0.000000,2.000000,0.000000,0.000000;
#CREDIT:;
#DISPLAYBPM:95.000000:190.000000;
#NOTES:
0000
0000
0000
0000
,
2002
0000
0000
3003
0000
0000
0100
0000
0010
0000
0100
0000
,
1001
0001
0010
0010
,
0100
0000
0100
1000
0001
1000
0100
0000
,
0010
0010
0001
0001
,
1000
0000
0010
0000
0100
0001
0010
0100
,
1000
1000
0010
0010
,
0100
0000
0100
0001
1000
0001
0100
0000
,
0010
0010
1000
1000
,
0002
0000
0000
0000
0013
0100
1000
0010
,
0200
0000
0300
0110
,
1000
0010
1000
0010
1000
0200
1300
0010
,
0100
0010
1000
0010
0100
0002
0000
2003
,
3001
0010
0001
0010
0001
0200
0301
0010
,
0100
0010
0001
1000
0020
0130
0001
1000
,
0100
0010
0100
0001
0100
2000
3001
0100
,
0010
0100
1000
0100
0001
2000
0000
3002
,
1003
0100
1000
0001
0100
0001
1000
0100
,
1000
0010
1000
0000
0001
0010
0001
0000
1000
0010
1000
0000
1001
0000
0000
0000
,
0001
0000
0000
0010
0000
0000
1000
0000
0000
0010
0000
0000
0001
0000
0100
0000
,
1000
0000
0000
0100
0000
0000
0001
0000
0001
0000
1000
0010
1000
0000
0001
0010
,
0001
0000
0000
0010
0000
0000
0100
0000
0000
0001
0000
0000
0100
0000
0010
0000
,
0100
1000
0001
0100
0010
0010
1010
0000
,
1000
0000
0000
0010
0000
0000
0001
0000
0000
0010
0000
0000
1000
0000
0100
0000
,
0001
0000
0000
0100
0000
0000
1000
0000
1000
0000
0001
0010
0001
0000
1000
0010
,
1000
0000
0000
0010
0000
0000
0100
0000
0000
1000
0000
0000
0100
0000
0010
0000
,
0100
0000
0001
1000
0000
0100
0010
0000
0002
0000
0000
0000
1003
0000
0000
0000
,
2002
0000
3003
0001
0100
0010
0100
0001
,
0000
0000
1000
0100
1000
0000
0001
0000
1000
0010
1000
0000
0001
0000
1000
0000
,
0200
0000
0300
0010
0001
1000
0010
0100
,
0001
0100
0001
0000
1000
0100
1000
0000
0020
0000
0000
0000
1030
0000
0000
0000
,
2002
0000
3003
1000
0100
0010
0100
1000
,
0000
0000
0001
0100
0001
0000
1000
0000
0001
0010
0001
0000
1000
0000
0001
0000
,
0102
1003
2100
3001
,
1001
0000
0001
1000
0001
0000
1000
0000
0010
0000
0001
0000
0010
0000
1000
0000
,
2002
0000
3003
1000
0100
0001
0100
1000
,
0000
0000
0001
0100
0001
0000
0010
0000
0100
1000
0100
0000
0010
0000
0001
0000
,
0200
0000
0300
0010
1000
0001
0010
0100
,
1000
0010
1000
0000
0001
0010
0001
0000
2000
0000
0000
0000
3001
0000
0000
0000
,
2002
0000
3003
0001
0100
1000
0100
0001
,
0000
0000
1000
0100
1000
0000
0010
0000
0100
0001
0100
0000
0010
0000
1000
0000
,
2100
3001
0102
1003
,
1001
0000
1000
0001
1000
0000
0001
0000
0010
0000
1000
0000
0010
0000
0001
0000
,
1000
0000
1010
0000
1000
0010
0001
0010
,
1000
0010
0001
0010
2000
0100
3002
0010
,
1003
0000
1001
0000
1000
0100
0001
0100
,
1000
0001
0100
0010
0120
2030
3002
2003
,
3100
0000
0011
0000
0001
0010
1000
0010
,
0001
0010
1000
0010
0002
0100
2003
0010
,
3001
0000
0010
0000
0100
0000
1000
0000
0001
0100
0001
0100
0001
0000
1000
0000
,
0002
0023
0230
2300
3002
2003
3020
0230
,
0310
0000
2020
0000
0030
0000
0002
0000
0003
0000
0200
0000
3300
0100
0010
0100
,
1000
2200
0300
0002
3003
1010
1001
1100
,
0001
0000
0022
0000
0030
0000
2000
0000
3000
0000
0200
0000
0303
0100
0010
0100
,
0001
0000
0202
0000
0300
0000
1000
0000
0013
0000
0010
0000
0100
0010
1001
0000
,
0004
0003
4000
3000
1002
0000
0203
0000
0300
0001
0100
0010
1000
0010
0100
0001
,
1000
0000
0001
0000
2001
0000
3200
0000
0310
0002
0000
1003
0010
0100
0001
1000
,
0100
0000
0100
0000
0011
0000
1000
0001
0100
0000
0100
0000
1010
0000
0001
1000
,
0200
0000
0320
0000
0032
0000
2003
0000
3020
0000
0000
0000
0130
0010
0110
0000
,
1000
0000
0000
0010
0000
0000
0001
0000
0010
0000
1000
0000
0100
0000
0001
0000
,
0100
0000
0000
1000
0000
0000
0001
0000
0001
0000
1000
0010
1000
0000
0001
0010
,
0001
0000
0000
0010
0000
0000
1000
0000
0010
0000
0001
0000
0100
0000
1000
0000
,
0100
0001
1000
0100
0010
0010
0011
0000
,
2002
0000
3003
1000
0010
0001
0010
1000
,
0000
0000
0001
0010
0001
0000
0100
0000
0010
1000
0010
0000
0100
0000
0001
0000
,
0012
1003
2010
3001
,
1001
0000
0001
1000
0001
0000
1000
0000
0100
0000
0001
0000
1000
0000
0010
0000
,
0002
0000
1003
0020
0001
0000
0100
0000
,
1030
0000
0001
1000
0001
0000
0020
0000
1000
0000
0000
0000
0100
0000
0000
0000
,
0031
0000
1000
0010
0000
0100
0001
0000
1000
0000
0100
0000
0001
0000
0100
0000
,
1000
0000
0001
0100
0000
0100
0010
0000
0200
0000
0000
0000
1300
0000
0100
0000
,
0001
0000
0010
0000
0001
0000
0010
0000
0100
0000
1000
0000
0001
0000
0100
0010
,
1000
0000
0010
0000
1000
0000
0010
0000
0100
0000
0001
1000
0100
0000
0010
0001
,
1000
0100
0001
0100
1000
0010
0001
0010
,
1010
0000
0000
1001
0000
0000
0011
0000
0011
0000
0000
1000
0010
0000
0100
0010
,
1000
0000
0000
0000
1002
0000
0000
0000
0013
0000
0100
1000
0100
0000
0010
0000
,
0100
1000
0100
0000
0010
0000
0001
1000
0002
0000
0100
0000
2003
0000
0010
0000
,
3001
0000
0001
0000
1001
0000
0000
0000
1000
0000
0100
0010
0001
0000
1000
0000
,
0001
0000
0000
0100
0000
0000
0010
0000
0000
0000
0000
0000
1000
0000
0000
0000
0000
0000
0001
0000
0000
0000
0000
0000
1000
0000
0000
0000
0100
0000
0000
0000
0010
0000
0000
0000
0001
0000
0000
0000
0010
0000
0000
0000
0100
0000
0000
0000
,
1000
0000
0000
0000
2001
0000
0000
0000
3010
0000
0100
0001
0100
0000
0010
0000
,
0100
0001
0100
0000
0010
0000
1000
0001
2000
0000
0100
0000
3002
0000
0010
0000
,
1003
0000
0010
0000
0100
0000
0001
0000
1000
0100
1000
0100
1000
0000
0001
0000
,
2000
0000
0000
0000
0000
0000
0000
0000
3020
0000
0000
0000
0000
0000
0000
0000
0230
0000
0000
0000
0000
0000
0000
0000
0302
0000
0000
0000
0000
0000
0000
0000
0023
0000
0000
0000
0000
0000
0000
0000
0230
0000
0000
0000
0000
0000
0000
0300
1100
0000
0000
0000
0000
0000
0000
0000
0000
0000
0000
0000
0000
0000
0000
0000
;

//---------------dance-single - ----------------
#NOTEDATA:;
#CHARTNAME:;
#STEPSTYPE:dance-single;
#DESCRIPTION:;
#CHARTSTYLE:;
#DIFFICULTY:Challenge;
#METER:17;
#RADARVALUES:0.921429,0.999896,0.650000,0.808333,0.612500,774.000000,696.000000,78.000000,97.000000,0.000000,0.000000,2.000000,0.000000,0.000000,0.921429,0.999896,0.650000,0.808333,0.612500,774.000000,696.000000,78.000000,97.000000,0.000000,0.000000,2.000000,0.000000,0.000000;
#CREDIT:;
#OFFSET:-1.442000;
#BPMS:0.000000=190.000000
,204.000000=95.000000
,236.000000=190.000000
;
#STOPS:;
#DELAYS:;
#WARPS:;
#TIMESIGNATURES:0.000000=4=4
;
#TICKCOUNTS:0.000000=4
;
#COMBOS:0.000000=1
;
#SPEEDS:0.000000=1.000000=0.000000=0
;
#SCROLLS:0.000000=0.250000
,4.000000=1.000000
;
#FAKES:;
#LABELS:0.000000=Song Start
;
#DISPLAYBPM:95.000000:190.000000;
#NOTES:
// measure 0
0000
0000
0000
0000
,  // measure 1
2002
0000
0000
3003
0000
0000
0011
0000
1100
0000
0101
0000
,  // measure 2
1001
0000
1000
0010
1000
0010
0100
0010
,  // measure 3
1000
0000
1000
0010
0100
0001
1000
0000
,  // measure 4
0001
0000
0001
0010
0001
0010
0100
0010
,  // measure 5
0001
0000
1000
0000
0001
0100
0010
1000
,  // measure 6
0001
0000
0001
1000
0001
1000
0010
1000
,  // measure 7
0100
0000
0100
1000
0001
1000
0100
0000
,  // measure 8
1000
0000
1000
0001
1000
0001
0010
0001
,  // measure 9
0200
0000
0320
0000
0130
0010
1000
0001
,  // measure 10
0020
0000
0030
0110
,  // measure 11
0001
0000
0020
0000
0031
0000
0020
0000
0031
0000
0010
0100
1000
0000
0002
0000
,  // measure 12
0103
0000
0002
0000
0103
0000
0002
0000
0103
0000
0001
0020
0000
0000
0230
0000
,  // measure 13
1300
0000
0020
0000
1030
0000
0020
0000
1030
0000
0010
0100
0001
0000
2000
0000
,  // measure 14
3100
0000
2000
0000
3100
0000
2000
0000
3020
0000
0130
0010
0100
0000
0002
0000
,  // measure 15
1003
0000
0200
0000
0310
0000
0200
0000
1300
0000
0001
0100
0010
0000
0200
0000
,  // measure 16
0301
0000
2000
0000
3100
0000
0020
0000
0031
0000
1000
0020
0000
0000
0230
0000
,  // measure 17
0310
0010
1000
1000
0001
0001
0010
0010
,  // measure 18
0100
1000
0100
1000
0001
0100
0001
0100
0010
1000
0010
1000
0100
0000
0000
0000
,  // measure 19
0011
0000
0000
1001
0000
0000
0101
0000
0000
0011
0000
0000
1001
0000
0001
0000
,  // measure 20
0101
0000
0000
0101
0000
0000
1010
0000
1010
0000
0001
0010
0100
0000
0010
0100
,  // measure 21
1000
0000
0000
1001
0000
0000
1001
0000
1000
0000
0010
0000
0100
0000
1000
0000
,  // measure 22
0100
0001
0010
1000
0010
0001
1001
0000
,  // measure 23
1010
0000
0000
1001
0000
0000
1100
0000
0000
1010
0000
0000
1001
0000
1000
0000
,  // measure 24
1100
0000
0000
1100
0000
0000
0011
0000
0011
0000
1000
0010
0100
0000
0010
0100
,  // measure 25
0001
0000
0000
1001
0000
0000
1001
0000
0001
0000
0010
0000
0100
0000
0001
0000
,  // measure 26
0100
0000
1000
0001
0000
1000
0010
0000
1000
0010
0100
0001
1000
0000
0000
0000
,  // measure 27
2001
0000
3001
0010
0100
0010
0001
0001
,  // measure 28
0000
0000
0010
0001
1000
0000
1000
0000
0001
0100
0010
0100
0001
0000
1000
0000
,  // measure 29
0200
0000
0310
0001
1000
0010
0100
0001
,  // measure 30
1000
0100
1000
0000
0001
0100
0001
0000
0020
0000
0000
0000
0130
0000
1000
0000
,  // measure 31
1002
0000
1003
0010
0100
0010
1000
1000
,  // measure 32
0000
0000
0010
1000
0001
0000
0001
0000
1000
0100
0010
0100
1000
0000
0001
0000
,  // measure 33
1002
0000
0103
0010
2010
0000
3100
0010
,  // measure 34
0011
0000
0001
1000
0001
0000
0100
0000
0010
1000
0001
1000
0100
0010
0100
1000
,  // measure 35
0002
0000
1003
0010
0001
0010
1000
1000
,  // measure 36
0000
0000
0010
1000
0100
0000
0100
0000
0010
0100
1000
0001
0100
0000
0010
0000
,  // measure 37
0200
0000
0310
1000
0001
0010
0100
1000
,  // measure 38
0001
0100
0001
0000
1000
0100
1000
0000
0020
0000
0000
0000
0130
0000
0001
0000
,  // measure 39
2001
0000
3001
0010
1000
0010
0001
0001
,  // measure 40
0000
0000
0010
0001
0100
0000
0100
0000
0010
0100
0001
1000
0100
0000
0010
0000
,  // measure 41
2001
0000
3010
0100
0102
0000
0013
0100
,  // measure 42
1100
0000
1000
0001
1000
0000
0010
0000
0100
0001
1000
0100
0010
0001
1000
0010
,  // measure 43
0100
0000
0010
0000
1010
0000
0000
0000
0010
0000
1000
0010
1000
0000
0001
0010
,  // measure 44
0001
0000
1000
0010
1000
0000
0001
0000
2000
0000
0100
0000
3002
0000
0010
0000
,  // measure 45
1003
0000
0010
0000
0110
0000
0000
0000
0010
0000
0100
0001
1000
0000
0001
1000
,  // measure 46
0100
0000
0010
0001
1000
0000
0010
0000
0200
0000
2300
0000
3200
0000
0302
0000
,  // measure 47
0013
0000
0000
0000
0011
0000
0000
0000
0010
0000
0001
0010
0001
0000
1000
0010
,  // measure 48
1000
0000
0001
0010
0001
0000
1000
0000
0002
0000
0100
0000
2003
0000
0010
0000
,  // measure 49
3100
0000
0010
0000
0100
0000
0010
0000
0001
1000
0010
0100
0001
1000
0100
0010
,  // measure 50
0002
0203
0320
0230
2300
3200
0320
0230
,  // measure 51
0301
0000
0202
0000
0300
0000
2000
0000
3000
0000
0020
0000
0033
0010
1000
0010
,  // measure 52
0001
0000
0022
0000
0030
0000
2000
0000
3003
0000
0101
0000
1010
0000
1000
0001
,  // measure 53
0010
0000
2200
0000
0300
0000
0002
0000
0003
0000
0020
0000
3030
0010
0001
0010
,  // measure 54
1000
0000
2020
0000
0030
0000
0001
0000
3100
0010
0100
0010
0001
1000
0010
0000
,  // measure 55
0400
0300
0400
0300
1020
0000
0032
0000
0003
0010
0100
0001
1000
0100
1000
0100
,  // measure 56
0010
0000
0001
0000
0021
0000
2030
0000
3010
0200
0000
1300
0001
0100
0001
0100
,  // measure 57
0010
0000
0010
0000
1010
0000
0100
0001
0010
0000
0010
0000
0011
0000
0100
1000
,  // measure 58
0010
0000
0100
0000
0001
0000
1000
0000
0100
0000
0001
0000
0100
0000
1000
0000
0020
0000
0000
0000
0000
0000
0000
0000
0130
0010
0100
0010
1000
0000
0000
0000
,  // measure 59
1010
0000
0000
1010
0000
0000
2001
0000
3100
0000
0010
0000
1000
0000
0010
0000
,  // measure 60
0011
0000
0000
1100
0000
0000
1001
0000
1010
0000
0010
0100
0001
0000
1000
0100
,  // measure 61
0010
0000
0000
0011
0000
0000
1002
0000
0103
0000
0010
0000
0001
0000
0010
0000
,  // measure 62
1000
0010
1000
0000
0001
0010
0001
0000
0100
0000
0110
0000
1001
0000
0000
0000
,  // measure 63
1002
0000
1003
0100
0001
0100
1000
1000
,  // measure 64
0000
0000
0100
1000
0010
0000
0010
0000
0100
0010
1000
0001
0010
0000
0100
0000
,  // measure 65
1002
0000
0103
0010
2010
0000
3100
0010
,  // measure 66
0011
0000
0001
1000
0001
0000
0100
0000
0010
1000
0001
0010
0100
1000
0001
0100
,  // measure 67
0020
0000
0031
0010
2000
0000
3200
0000
,  // measure 68
0301
0000
0001
0100
0010
0000
0100
0000
2000
0000
0000
0000
3001
0000
0100
0000
,  // measure 69
0010
0000
0100
1000
0000
0100
0010
0000
0100
0000
0001
0000
1000
0000
0100
0000
,  // measure 70
0010
0000
1000
0010
0000
0100
0010
0000
0002
0000
0000
0000
2003
0000
0000
0000
,  // measure 71
3001
0000
0100
0000
0010
0000
0100
0000
1000
0000
0100
0000
0010
0000
0100
0001
,  // measure 72
1000
0000
0100
0000
0010
0000
0100
0000
0001
0000
0100
0010
0100
0000
0010
0001
,  // measure 73
1000
0010
1000
0010
0100
0001
0100
0001
1000
0100
1000
0100
0010
0001
0010
0001
,  // measure 74
0100
0000
0000
1001
0000
0000
1010
0000
1010
0000
0001
1000
0100
0000
1000
0001
,  // measure 75
0100
0000
0000
0000
1002
0000
0000
0000
0013
0000
0100
0010
0001
0000
1001
0000
,  // measure 76
0001
0100
0010
0000
0110
0000
0010
1000
0002
0000
0010
0000
2003
0000
0010
0000
,  // measure 77
3001
1000
0001
1000
0200
0000
0000
0000
0310
0000
0001
1000
0010
0000
1010
0000
,  // measure 78
1000
0000
0000
0001
0000
0000
0010
0000
0000
0000
0000
0000
0011
0000
0000
0000
0000
0000
0001
0000
0000
1000
0000
0000
0001
0000
0000
0000
0100
0000
0000
0000
0010
0000
0000
0000
0100
0000
0000
0000
0010
0000
0000
0000
1000
0000
0000
0000
,  // measure 79
0100
0000
0000
0000
2001
0000
0000
0000
3010
0000
0100
0010
1000
0000
1001
0000
,  // measure 80
1000
0100
0010
0000
0110
0000
0010
0001
2000
0000
0010
0000
3002
0000
0010
0000
,  // measure 81
0103
0000
0010
0000
0100
0000
0010
0000
1000
0001
0010
0100
1000
0001
0100
0010
,  // measure 82
2000
0000
0000
0000
0000
0000
0000
0000
3200
0000
0000
0000
0000
0000
0000
0000
0320
0000
0000
0000
0000
0000
0000
0000
0032
0000
0000
0000
0000
0000
0000
0000
0203
0000
0000
0000
0000
0000
0000
0000
0320
0000
0000
0000
0000
0000
0000
0030
1010
0000
0000
0000
0000
0000
0000
0000
0000
0000
0000
0000
0000
0000
0000
0000
;

//---------------dance-single - ----------------
#NOTEDATA:;
#CHARTNAME:;
#STEPSTYPE:dance-single;
#DESCRIPTION:;
#CHARTSTYLE:;
#DIFFICULTY:Medium;
#METER:13;
#RADARVALUES:0.623810,0.861979,0.341667,0.525000,0.116667,524.000000,483.000000,41.000000,63.000000,0.000000,0.000000,2.000000,0.000000,0.000000,0.623810,0.861979,0.341667,0.525000,0.116667,524.000000,483.000000,41.000000,63.000000,0.000000,0.000000,2.000000,0.000000,0.000000;
#CREDIT:;
#DISPLAYBPM:95.000000:190.000000;
#NOTES:
0000
0000
0000
0000
,
2002
3003
0100
0010
,
1001
1000
0100
0100
,
0010
0010
0100
1000
,
0010
0010
1000
1000
,
0001
0010
0100
0010
,
0001
0001
0100
0100
,
0010
0010
0100
0001
,
0010
0010
0001
0001
,
2000
0000
3001
0100
,
0020
0000
0030
0110
,
1000
0000
1000
0000
0010
1000
0100
1000
,
0010
0000
0010
0000
1000
0002
0000
1003
,
0001
0000
0001
0000
0010
0001
0100
0001
,
0010
0000
0010
0000
0001
1000
0001
0000
,
0100
0000
0100
0000
0010
0100
0001
1000
,
0100
0000
0100
0000
0010
0002
0000
1003
,
0001
0100
0010
0000
1000
0100
0010
0000
,
0001
0100
0001
0100
0001
0100
0010
0000
,
1000
0000
0000
0100
0000
0000
0010
0000
0000
0100
0000
0000
1000
0000
0001
0000
,
1000
0000
0000
0010
0000
0000
0100
0000
0110
0000
0000
0000
1001
0000
0000
0000
,
0001
0000
0000
0010
0000
0000
0100
0000
0000
0010
0000
0000
0001
0000
1000
0000
,
0010
0100
0001
1000
0200
0000
0320
0000
,
0031
0000
0000
0100
0000
0000
0010
0000
0000
0100
0000
0000
0001
0000
1000
0000
,
0001
0000
0000
0010
0000
0000
0100
0000
0110
0000
0000
0000
1001
0000
0000
0000
,
1000
0000
0000
0010
0000
0000
0100
0000
0000
0010
0000
0000
1000
0000
0001
0000
,
0010
0100
1000
0001
0200
0000
0310
0000
,
2002
0000
3003
0001
0010
0001
0010
0100
,
0000
0010
0001
0001
0010
0001
1000
0001
,
0200
0000
0300
0001
0100
0010
0100
0001
,
1000
0100
1000
0100
0020
0000
0031
0000
,
2002
0000
3003
1000
0010
1000
0010
0100
,
0000
0010
1000
1000
0010
1000
0001
1000
,
0200
0001
0320
1000
,
0130
0010
0001
1000
0001
0100
1000
0100
,
0002
0000
0003
1000
0010
1000
0010
0001
,
0000
0010
1000
1000
0001
1000
0010
1000
,
0200
0000
0300
1000
0100
0010
0100
1000
,
0001
0100
0001
0100
0020
0000
1030
0000
,
2002
0000
3003
0001
0010
0001
0010
1000
,
0000
0010
0001
0001
1000
0001
0010
0001
,
0200
1000
0320
0001
,
0130
0010
1000
0001
1000
0100
0001
0100
,
1000
0000
1010
0000
0010
1000
0001
1000
,
0010
1000
0100
0000
1100
0000
0011
0000
,
1000
0000
1001
0000
0001
0100
0010
0100
,
0001
1000
0100
0000
0010
0100
0001
0100
,
0010
0000
0011
0000
0010
0001
1000
0001
,
0010
0001
0100
0000
0101
0000
1010
0000
,
0001
1000
0100
1000
0001
0100
0001
0100
,
2000
3002
0023
2030
,
3100
0000
0022
0000
0030
0000
2000
0000
3000
0000
0200
0000
0303
0001
0000
0100
,
0000
0202
0300
2000
3003
0011
1001
0101
,
1000
0000
2020
0000
0030
0000
0002
0000
0003
0000
0200
0000
3300
1000
0000
0100
,
0000
0000
2200
0000
0300
0000
0001
0000
3010
0000
1000
0000
0010
1000
0100
0000
,
0040
0030
0400
0300
0012
0000
2003
0000
3000
0001
0100
0000
0001
1000
0001
1000
,
0100
0000
1000
0000
2010
0000
3002
0000
1003
0200
0000
0000
0310
0001
1000
0010
,
0100
0000
0100
0000
0110
0000
0001
1000
0100
0000
0100
0000
0110
0000
1000
0001
,
0200
0320
2030
3002
0023
0000
0130
0110
,
1000
0000
0000
0010
0000
0000
0100
0000
0000
0001
0000
0000
1000
0000
0100
0000
,
0010
0000
0000
0100
0000
0000
0010
0000
0001
0000
0100
0000
0010
0000
1000
0000
,
0001
0000
0000
0010
0000
0000
0100
0000
0000
1000
0000
0000
0001
0000
0100
0000
,
0010
1000
0010
1000
0100
0010
0001
0000
,
2002
0000
3003
0001
0100
0001
0100
1000
,
0000
0100
0001
0001
1000
0001
0100
0001
,
0020
1000
0230
0001
,
0310
0100
1000
0001
1000
0010
0001
0010
,
2000
0000
3010
1000
0100
0000
1100
0000
,
0010
0001
0010
0001
0100
0000
0101
0000
,
1000
0100
0010
0000
0001
0100
0010
0000
,
1000
0001
0010
0100
2000
0000
3001
0000
,
1000
0010
0100
0001
0010
0000
0011
0000
,
0001
0010
0100
1000
0010
0000
1010
0000
,
0001
0010
0100
1000
0010
0100
0001
1000
,
0200
0000
0300
0000
0110
0000
0010
0001
,
1000
0000
1001
0000
0001
0100
1000
0001
,
0010
1000
0001
0100
0110
0000
1001
0000
,
0001
0001
1000
0000
0100
0010
0100
1000
,
0001
1000
0010
0100
0002
0000
2003
0000
,
3001
0000
1001
0000
1000
0100
0001
1000
,
0010
0001
1000
0100
0110
0000
1001
0000
,
1000
0001
0010
0001
1000
0010
1000
0010
,
0002
2003
3200
0301
;

//---------------dance-single - ----------------
#NOTEDATA:;
#CHARTNAME:;
#STEPSTYPE:dance-single;
#DESCRIPTION:;
#CHARTSTYLE:;
#DIFFICULTY:Easy;
#METER:9;
#RADARVALUES:0.453571,0.655104,0.408333,0.658333,0.000000,381.000000,332.000000,49.000000,79.000000,0.000000,0.000000,0.000000,0.000000,0.000000,0.453571,0.655104,0.408333,0.658333,0.000000,381.000000,332.000000,49.000000,79.000000,0.000000,0.000000,0.000000,0.000000,0.000000;
#CREDIT:;
#DISPLAYBPM:95.000000:190.000000;
#NOTES:
0000
0000
0000
0000
,
2002
3003
1000
0001
,
1001
0000
1000
0000
,
0100
0000
0010
0100
,
1000
0000
0010
0000
,
1000
0000
0100
0010
,
0001
0000
0001
0000
,
0100
0000
0010
0100
,
0001
0000
0010
0000
,
0002
0000
0000
0000
,
2000
0000
3003
1001
,
1000
0010
0100
0010
,
1000
0010
0200
0300
,
0010
1000
0001
0010
,
0100
1000
0001
0100
,
0001
0010
0100
0010
,
0001
0010
0200
0300
,
1000
1000
0001
0001
,
1000
0001
1000
0000
0001
0000
1001
0000
,
2020
0000
0000
0000
3030
0000
0010
1000
,
0200
0000
0000
0000
0310
0100
1000
0000
,
2200
0000
0000
0000
3300
0000
0100
1000
,
0010
1000
0010
1001
,
0022
0000
0000
0000
0033
0000
0010
0001
,
0200
0000
0000
0000
0310
0100
0001
0000
,
0202
0000
0000
0000
0303
0000
0100
0001
,
0010
0100
1000
0001
,
2002
0000
3003
0000
1000
0000
0010
0100
,
0000
0010
0100
0000
0010
0000
1000
0000
,
2002
0000
3003
0000
1000
0001
1000
0000
,
0010
1000
0100
0000
2200
0000
3300
0000
,
2002
0000
3003
0000
0001
0000
0010
0100
,
0000
0010
0100
0000
0010
0000
0001
0000
,
2002
3003
1001
1001
,
0001
0100
0010
0000
0100
0010
1000
0000
,
2002
0000
3003
0000
0001
0000
1000
0100
,
0000
0010
0001
0000
1000
0000
0010
0000
,
2002
0000
3003
0000
0001
1000
0001
0000
,
0010
0001
0100
0000
0202
0000
0303
0000
,
2002
0000
3003
0000
1000
0000
0001
0100
,
0000
0010
1000
0000
0100
0000
0010
0000
,
2002
3003
1001
1001
,
1000
0100
0010
0000
0100
0010
0001
0000
,
1000
0000
1010
0000
0000
1000
0000
1000
,
0000
1000
0010
0000
0101
0000
1010
0000
,
0001
0000
1001
0000
0000
0001
0000
1000
,
0000
0001
0000
1000
0200
0000
0320
0000
,
0031
0000
0011
0000
0000
0001
0000
0001
,
0000
0001
0010
0000
1100
0000
0011
0000
,
1000
1000
0001
0001
,
0200
0000
0000
0000
,
0310
2000
3000
2000
3000
2000
3010
1000
,
0100
2000
3000
2000
3000
0200
2300
3020
,
1030
0002
0003
0002
0003
0002
0013
0001
,
0100
0002
0003
0002
0013
0010
0010
1001
,
0001
0100
0020
2030
3000
0010
1000
0001
,
1000
0100
0020
0032
1003
0000
0001
0100
,
0010
0010
1010
0001
0010
0010
0011
1000
,
0002
0203
0320
2030
3200
0000
0300
0110
,
0022
0033
0011
1100
,
0000
0000
0011
0000
0010
0001
0100
0000
,
2020
3030
1010
0101
,
0100
0001
0010
0000
0100
1000
0010
0000
,
2002
0000
3003
0000
0001
0000
0010
0100
,
0000
1000
0001
0000
0100
0000
0010
0000
,
2020
3030
0101
1001
,
1000
0100
0010
0000
0100
0010
0001
0000
,
1000
0010
0001
0010
,
1000
0100
0001
0100
,
1000
0100
1000
0000
0010
0000
0100
0000
,
0001
0100
0001
0000
0010
0000
0100
0000
,
1000
0000
1000
0000
1000
0000
0010
0100
,
0001
0000
0001
0000
0001
0000
0010
0100
,
2000
3002
0203
0320
,
2000
0000
3030
0000
1010
0000
0010
1000
,
0200
0000
0300
0000
0010
0001
0000
0010
,
0001
0000
0010
0001
1000
0000
1001
0000
,
0200
0000
0300
0000
0001
0100
0000
0010
,
1000
0000
0100
0000
0200
0000
0310
0001
,
0200
0000
0300
0000
0010
1000
0000
0010
,
1000
0000
0010
1000
0001
0000
1001
0000
,
1000
0100
0010
0001
,
2000
0000
3000
0110
;

//---------------dance-single - ----------------
#NOTEDATA:;
#CHARTNAME:;
#STEPSTYPE:dance-single;
#DESCRIPTION:;
#CHARTSTYLE:;
#DIFFICULTY:Beginner;
#METER:5;
#RADARVALUES:0.257143,0.378125,0.250000,0.366667,0.000000,216.000000,186.000000,30.000000,44.000000,0.000000,0.000000,0.000000,0.000000,0.000000,0.257143,0.378125,0.250000,0.366667,0.000000,216.000000,186.000000,30.000000,44.000000,0.000000,0.000000,0.000000,0.000000,0.000000;
#CREDIT:;
#OFFSET:-1.442000;
#BPMS:0.000000=190.000000
;
#STOPS:;
#DELAYS:;
#WARPS:;
#TIMESIGNATURES:0.000000=4=4
;
#TICKCOUNTS:0.000000=4
;
#COMBOS:0.000000=1
;
#SPEEDS:0.000000=1.000000=0.000000=0
;
#SCROLLS:0.000000=1.000000
;
#FAKES:;
#LABELS:0.000000=Song Start
;
#DISPLAYBPM:95.000000:190.000000;
#NOTES:
0000
0000
0000
0000
,
2002
0000
3003
0000
,
1000
0000
0000
0000
,
0100
0000
0000
0000
,
0010
0000
0000
0000
,
0001
0000
0000
0000
,
0100
0000
0000
0000
,
0010
0000
0000
0000
,
2000
0000
0000
0000
,
0002
0000
0000
0000
,
3003
0000
0000
1001
,
0001
0000
0010
0000
,
0001
0000
0010
0000
,
0001
0000
0100
0000
,
0001
0000
1000
0001
,
1000
0000
0010
0000
,
1000
0000
0010
0000
,
1000
0001
1000
0000
,
0200
0000
0300
0110
,
0002
0000
0003
0001
,
0001
0000
0010
0001
,
0200
0000
0300
0100
,
0001
0001
0001
0000
,
2000
0000
3000
1000
,
1000
0000
0010
1000
,
0200
0000
0300
0100
,
1000
0001
1000
0000
,
2002
3003
1000
0000
,
1000
0010
1000
0000
,
2002
3003
1000
0000
,
1000
0100
1000
0000
,
2002
3003
0001
0000
,
0001
0010
0001
0000
,
2002
3003
1001
0000
,
0100
0100
0010
0010
,
2002
3003
0001
0000
,
0001
0010
0100
0000
,
2002
3003
0001
0000
,
0001
0100
0001
0000
,
2002
3003
1000
0000
,
1000
0010
0100
0000
,
2002
3003
1001
0000
,
0001
0001
1000
1000
,
0200
0300
0100
0000
,
0100
0000
0100
0010
,
1001
0000
0100
0000
,
0100
0000
0010
0010
,
1001
0000
0100
0000
,
0100
0000
0100
0010
,
2002
0000
0000
0000
,
3003
0000
0000
0000
,
0001
0000
0000
0000
,
0100
0000
0000
0000
,
1000
0000
0000
0000
,
0010
0000
0000
0000
,
1000
0000
0000
0000
,
0100
0000
0000
0000
,
0001
0000
0000
0000
,
0010
0000
0010
0000
,
0000
0000
1001
0000
,
0000
0000
0001
0000
,
0100
0000
1001
0000
,
0000
0000
1000
0000
,
0100
0000
1001
0000
,
0000
0000
1000
0000
,
0010
0000
0100
0000
,
0002
0000
0003
0000
,
2002
0000
3003
0000
,
0010
0010
0010
0010
,
2002
0000
3003
0000
,
0100
0010
0100
0100
,
2002
3003
0001
0000
,
1000
0001
1000
0000
,
2002
3003
1001
0000
,
0001
0001
1000
1000
,
0010
0000
0010
0000
,
0100
0010
0100
0000
,
0001
0000
1000
0000
,
0100
0010
0100
0000
,
1000
1000
1000
0000
,
0001
0001
0001
0000
,
0100
0010
0100
0010
,
0200
0300
0100
0000
,
2002
3003
1000
0000
,
1000
0000
1001
1001
,
0020
0030
0010
0000
,
0010
0000
0100
0010
,
2002
3003
0001
0000
,
0001
0000
1001
1001
,
0020
0000
0000
0000
,
0030
0000
0000
0010
;
