#TITLE:YARA TUM KAHAN?;
#SUBTITLE:;
#ARTIST:ASMAT;
#TITLETRANSLIT:;
#SUBTITLETRANSLIT:;
#ARTISTTRANSLIT:;
#GENRE:Indian Rock;
#CREDIT:;
#BANNER:YARA TUM KAHAN.png;
#BACKGROUND:YARA TUM KAHAN-bg.png;
#LYRICSPATH:;
#CDTITLE:cdtitle.png;
#MUSIC:YARA TUM KAHAN.ogg;
#OFFSET:-0.240750;
#SAMPLESTART:6.640750;
#SAMPLELENGTH:12.800001;
#SELECTABLE:YES;
#BPMS:0.000000=150.000000
;
#STOPS:
;
#BGCHANGES:-4.875=YARA TUM KAHAN.mp4=1.000=1=0=1===CrossFade==,
99999=-nosongbg-=1.000=0=0=0 // don't automatically add -songbackground-
;
#KEYSOUNDS:;
#ATTACKS:;

//---------------dance-single - ----------------
#NOTES:
     dance-single:
     :
     Challenge:
     14:
     0.689288,0.722394,0.407365,0.760415,0.366629,533.000000,488.000000,45.000000,84.000000,0.000000,0.000000,0.689288,0.722394,0.407365,0.760415,0.366629,533.000000,488.000000,45.000000,84.000000,0.000000,0.000000:
0000
0000
0000
0000
,
0000
0000
0000
0000
,
0000
0000
0000
0000
,
0000
0000
0000
1001
,
0001
0000
1000
0100
1000
0000
0100
0000
0010
0000
0100
0000
1000
0000
0000
0000
,
0001
0000
1000
0010
1000
0000
0010
0000
0200
0000
0300
0010
1000
0000
0000
0000
,
0001
0000
1000
0100
1000
0000
0001
0000
0100
0000
0001
0000
0010
0000
0001
0000
,
0102
0000
1003
0000
2100
0000
3001
0000
2002
0000
3003
0000
0001
1000
0001
0000
,
1000
0000
0001
0100
0001
0000
0100
0000
0010
0000
0100
0000
0001
0000
0000
0000
,
1000
0000
0001
0010
0001
0000
0010
0000
0200
0000
0300
0010
0001
0000
0000
0000
,
1000
0000
0001
0100
0001
0000
1000
0000
0100
0000
1000
0000
0010
0000
1000
0000
,
2100
0000
3001
0000
0102
0000
1003
0000
2002
0000
3003
0000
0001
0010
0100
1000
,
0001
0000
1000
0010
0100
0000
0001
0000
2000
0000
0100
0000
3002
0000
0010
0000
,
1003
0000
0001
0100
0001
0000
0100
0000
0010
0000
1000
0001
1000
0000
0000
0000
,
0001
0010
0001
0010
0100
0000
1000
0000
0002
0000
0100
0000
2003
0000
0010
0000
,
3002
0000
0000
0000
1003
0000
0000
0000
2002
0000
3003
0000
1000
0001
1000
0000
,
0001
0000
1000
0100
1000
0000
0100
0000
0010
0000
0100
0000
1000
0000
0000
0000
,
0001
0000
1000
0010
1000
0000
0010
0000
0200
0000
0300
0010
1000
0000
0000
0000
,
0001
0000
1000
0100
1000
0000
0001
0000
0100
0000
0001
0000
0010
0000
0001
0000
,
0102
0000
1003
0000
2100
0000
3001
0000
2002
0000
3003
0000
0001
0100
0000
0010
,
2000
0000
0000
3100
0010
0000
0100
0000
0002
0000
0000
0103
0010
0000
0100
0000
,
1000
0000
0001
0100
0001
0000
1000
0100
1000
0000
0100
0000
0010
0000
0001
0000
,
2000
0000
0000
3010
0100
0000
0010
0000
0002
0000
0000
0013
0100
0000
0010
0000
,
1000
0000
0001
0000
0010
0000
0001
0000
0200
0000
0000
0000
0301
1000
0100
0010
,
0002
0000
0000
0103
0010
0000
0100
0000
2000
0000
0000
3100
0010
0000
0100
0000
,
0001
0000
1000
0100
1000
0000
0001
0100
0001
0000
0100
0000
0010
0000
1000
0000
,
0002
0000
0000
0013
0100
0000
0010
0000
2000
0000
0000
3010
0100
0000
0010
0000
,
0001
0000
1000
0000
0010
0000
1000
0000
0200
0000
0000
0000
0310
0100
0010
0100
,
1000
0000
0001
0100
0001
0000
0100
0000
1000
0000
0100
0000
0001
0000
0000
0000
,
1000
0000
0001
0010
0001
0000
0010
0000
2000
0000
3000
0010
0001
0000
0000
0000
,
1000
0000
0001
0100
0001
0000
1000
0000
0100
0000
1000
0000
0010
0000
1000
0000
,
2100
0000
3001
0000
0102
0000
1003
0000
2002
0000
3003
0000
0001
1000
0100
0000
,
0220
0000
0330
0000
0010
0000
0022
0000
0033
0000
1001
0000
0001
0100
0010
0000
,
1000
0001
0010
0200
0000
0310
0100
1000
,
2002
0000
3003
0000
0001
0000
0202
0000
0303
0000
0110
0000
0010
1000
0001
0000
,
1000
0100
0010
0002
0000
1003
0010
0100
,
0220
0000
0330
0000
0010
0000
2020
0000
3030
0000
1001
0000
1000
0100
0010
0000
,
0001
1000
0010
0200
0000
0310
0100
0001
,
2002
0000
3003
0000
1000
0000
2200
0000
3300
0000
0110
0000
0010
0001
1000
0000
,
0010
0010
0100
0100
0110
0000
0110
0000
,
2000
0000
3010
0002
0000
0013
1000
0001
,
0020
0000
0000
0031
0010
0100
1000
0000
0001
0000
1000
0000
1010
0000
0000
0000
,
0001
0000
0010
0000
0100
0000
1000
0000
0010
1000
0010
0000
0100
0000
0001
0000
,
0011
0000
0000
0000
0110
0000
0000
0000
1100
0000
0000
0000
0001
1000
0001
0000
,
0100
0010
0000
0100
0001
0000
1000
0000
0100
0010
0000
0100
1000
0000
0001
0000
,
1000
0010
0100
0010
1000
0000
0200
0000
0000
0000
1300
0000
0100
0000
0002
0000
,
0000
0000
0103
0010
0100
0000
1000
0001
0100
0000
0001
0100
0010
0000
1000
0000
,
1010
0000
0000
0000
0011
0000
0000
0000
1100
0000
0000
0000
0001
0000
1000
0001
,
1000
0010
0200
0000
0300
0010
1000
0010
,
1000
0100
0020
0000
0030
0000
0200
0000
,
2300
0000
3020
0000
0130
0002
0000
1003
,
0200
0000
0000
0310
0020
0000
0030
0000
,
0001
0010
0200
0000
0300
0010
0001
0010
,
0001
0100
0020
0000
0030
0000
1000
0010
,
0100
0001
1000
0001
0010
0100
1000
0001
,
1000
0010
0000
0000
0101
0000
0000
0000
1100
0000
0000
0000
0001
0100
0010
1000
,
0001
0000
1000
0100
1000
0000
0100
0000
0001
0000
0100
0000
1000
0000
0000
0000
,
0001
0000
1000
0010
1000
0000
0010
0000
0002
0000
0003
0010
1000
0000
0000
0000
,
0001
0000
1000
0100
1000
0000
0001
0000
0100
0000
0001
0000
0010
0000
0001
0000
,
0102
0000
1003
0000
2100
0000
3001
0000
2002
0000
3003
0000
0001
1000
0001
0000
,
1000
0000
0001
0100
0001
0000
0100
0000
1000
0000
0100
0000
0010
1000
0010
1000
,
0001
0000
1000
0100
1000
0000
0100
0000
0001
0000
0100
0000
0010
0001
0010
0001
,
1000
0000
0001
0100
0001
0000
0100
0000
0010
0000
1000
0000
0100
0010
0100
0010
,
0002
0103
0210
0301
1002
0000
0013
0000
,
1002
0000
0103
0000
0001
0000
1000
0000
0100
0000
0000
0000
1000
0001
0100
0010
,
2000
3100
0210
1300
2002
0000
0000
0000
,
0000
0000
3003
0000
;

//---------------dance-single - ----------------
#NOTES:
     dance-single:
     :
     Hard:
     12:
     0.504357,0.511696,0.171999,0.497891,0.027158,390.000000,371.000000,19.000000,55.000000,0.000000,0.000000,0.504357,0.511696,0.171999,0.497891,0.027158,390.000000,371.000000,19.000000,55.000000,0.000000,0.000000:
0000
0000
0000
0000
,
0000
0000
0000
0000
,
0000
0000
0000
0000
,
0000
0000
0000
1001
,
1000
0100
1000
0100
0010
0100
1000
0000
,
0010
0000
0100
0000
0001
0000
1000
0000
0200
0000
0300
0010
0001
0000
0000
0000
,
1000
0010
0100
0000
0001
0010
0100
0000
,
2000
0100
3002
0100
1003
0000
1001
0000
,
0001
0100
0001
0100
0010
0100
0001
0000
,
0010
0000
0100
0000
1000
0000
0001
0000
0200
0000
0300
0010
1000
0000
0000
0000
,
0001
0010
0100
0000
1000
0010
0100
0000
,
0002
0100
2003
0100
3001
0000
1001
0000
,
1000
0010
1000
0100
0010
0000
0010
0000
,
0001
0100
0001
0001
1000
0100
1000
0000
,
0001
0010
0001
0100
0010
0000
0010
0000
,
0100
0001
1000
0000
2002
0000
3003
0000
,
1000
0100
1000
0100
0010
0100
1000
0000
,
0010
0000
0100
0000
0001
0000
1000
0000
0200
0000
0300
0010
0001
0000
0000
0000
,
1000
0010
0100
0000
0001
0010
0100
0000
,
2000
0100
3002
0100
1003
0000
1001
0000
,
0002
0000
0103
0010
0002
0000
0013
0100
,
0001
0000
0001
0000
0001
1000
0100
0010
,
0002
0000
0013
0100
0002
0000
0103
0010
,
0001
1000
0010
0100
0001
0000
1001
0000
,
2000
0000
3100
0010
2000
0000
3010
0100
,
1000
0000
1000
0000
1000
0001
0100
0010
,
2000
0000
3010
0100
2000
0000
3100
0010
,
1000
0001
0010
0100
1000
0000
1001
0000
,
0001
0100
0001
0100
1000
0100
0001
0000
,
0010
0000
0001
0000
0100
0000
0001
0000
0020
0000
0030
0001
0100
0000
0000
0000
,
0010
1000
0100
0000
0010
0001
0100
0000
,
0002
0100
2003
0100
3001
0000
1001
0000
,
2000
0000
3010
0020
0000
0130
0100
0001
,
1000
0000
0100
0010
0000
0100
0010
0000
,
0002
0000
1003
2000
0000
3010
0010
0100
,
0001
0000
1000
0010
0000
1000
0100
0010
,
0002
0000
0013
0020
0000
0130
0100
1000
,
0001
0000
0100
0010
0000
0100
0010
0000
,
2000
0000
3001
0002
0000
0013
0010
0100
,
1000
0001
0100
0010
1000
0000
1001
0000
,
0002
0000
0013
2000
0000
3010
0001
1000
,
0020
0000
1030
0010
0001
0010
1000
0000
,
0001
0010
0100
1000
0010
0100
0001
1000
,
0100
0110
2002
3003
,
0001
0100
0010
0100
1000
0100
0010
0100
,
0001
1000
1000
0200
0000
0310
0100
0002
,
0000
0103
1000
0001
0100
0010
1000
0001
,
0010
0000
0110
0000
1001
0000
1000
0001
,
0100
0200
0300
0010
,
1000
2000
3000
0002
,
0023
0000
0230
0000
1300
0020
0000
0130
,
0002
0000
0000
1003
2000
0000
3000
0000
,
0100
0200
0300
0010
,
0001
0002
0003
1000
,
0001
0100
0010
1000
0100
0010
0001
0000
,
1000
0010
0000
0000
0101
0000
0000
0000
0011
0000
0000
0000
1100
0000
0000
0000
,
1000
0100
1000
0100
0001
0100
1000
0000
,
0010
0000
1000
0000
0100
0000
1000
0000
0020
0000
0030
1000
0100
0000
0000
0000
,
0010
0001
0100
0000
0010
1000
0100
0000
,
2000
0100
3002
0100
1003
0000
1001
0000
,
0001
0100
0001
0100
1000
0100
0010
1000
,
0001
0010
0001
0010
1000
0010
0100
1000
,
0001
0100
0010
1000
0100
1000
0010
0100
,
0002
0010
2003
0100
3001
0000
1001
0000
,
0001
0001
0100
0001
0010
0000
1001
0000
,
2000
0010
3002
0100
2003
0000
0000
0000
,
0000
0000
3000
0000
;

//---------------dance-single - ----------------
#NOTES:
     dance-single:
     :
     Medium:
     9:
     0.380207,0.451496,0.181051,0.479786,0.000000,294.000000,274.000000,20.000000,53.000000,0.000000,0.000000,0.380207,0.451496,0.181051,0.479786,0.000000,294.000000,274.000000,20.000000,53.000000,0.000000,0.000000:
0000
0000
0000
0000
,
0000
0000
0000
0000
,
0000
0000
0000
0000
,
0000
0000
0000
1001
,
1000
0000
1000
0000
0100
1000
0010
0000
,
1000
0000
1000
0000
0010
1000
0100
0000
,
1000
0010
1000
0000
0001
0010
0001
0000
,
2000
3002
1003
1001
,
0001
0000
0001
0000
0100
0001
0010
0000
,
0001
0000
0001
0000
0010
0001
0100
0000
,
0001
0010
0001
0000
1000
0010
1000
0000
,
0002
2003
3001
1001
,
1000
0100
1000
0100
0010
0000
0010
0000
,
0002
0010
2003
0100
,
3001
0100
0001
0100
0010
0000
0010
0000
,
2000
3000
2002
3003
,
1000
0000
1000
0000
0100
1000
0010
0000
,
1000
0000
1000
0000
0010
1000
0100
0000
,
1000
0010
1000
0000
0001
0010
0001
0000
,
2000
3002
1003
1001
,
0002
0103
2000
3100
,
0001
0100
0001
0000
1000
0100
0010
0000
,
0002
0013
2000
3010
,
0001
1000
0001
1000
0001
0000
1001
0000
,
2000
3100
0002
0103
,
1000
0100
1000
0000
0001
0100
0010
0000
,
2000
3010
0002
0013
,
1000
0001
1000
0001
1000
0000
1001
0000
,
1000
0000
1000
0000
0001
0100
1000
0000
,
0100
0000
0100
0000
1000
0100
0001
0000
,
1000
0010
1000
0000
0001
0010
0001
0000
,
2000
3002
1003
1001
,
0002
0000
0003
0200
0000
0300
0020
0000
,
1030
1000
0010
0100
,
0002
0000
0003
0020
0000
0030
0200
0000
,
1300
0010
0100
0001
,
2000
0000
3000
0200
0000
0300
0020
0000
,
0031
0001
0010
0100
,
2000
0000
3000
0020
0000
0030
0200
0000
,
0301
1000
0001
1000
0001
0000
1001
0000
,
2000
0100
3002
0010
,
0103
0000
0001
0100
0001
0000
1001
0000
,
0002
0100
2003
0010
,
3100
0100
0100
1001
,
1000
0010
1000
0000
0001
0010
0001
0000
,
1000
0000
0001
0200
0000
0310
1000
0200
,
0000
0000
0310
0000
0001
1000
0001
0000
,
0100
0100
0100
0000
,
0001
0002
0003
0010
,
0100
0200
0300
0010
,
0001
1000
0010
0000
,
0200
0300
0002
0003
,
1000
2000
3000
0010
,
0100
0200
0300
0010
,
1000
0001
0010
0001
,
0200
0320
0130
1001
,
0001
0000
0001
0000
1000
0100
0001
0000
,
0100
0000
0100
0000
0001
0100
1000
0000
,
0001
0010
0001
0000
1000
0010
1000
0000
,
0002
2003
3001
1001
,
1000
0000
0010
0000
0001
0010
1000
0000
,
0001
0000
0010
0000
1000
0010
0001
0000
,
1000
0010
0100
0000
0001
0010
0100
0000
,
1100
1001
2020
3030
,
0110
0000
0000
0100
,
0101
1001
0022
0000
,
0000
0000
0033
0000
;

//---------------dance-single - ----------------
#NOTES:
     dance-single:
     :
     Easy:
     6:
     0.267697,0.300998,0.108631,0.416418,0.000000,207.000000,195.000000,12.000000,46.000000,0.000000,0.000000,0.267697,0.300998,0.108631,0.416418,0.000000,207.000000,195.000000,12.000000,46.000000,0.000000,0.000000:
0000
0000
0000
0000
,
0000
0000
0000
0000
,
0000
0000
0000
0000
,
0000
0000
0000
1001
,
1000
1000
0100
0010
,
0100
0100
1000
0010
,
1000
0100
0010
0001
,
2000
3002
2003
3000
,
0001
0001
0100
0010
,
0100
0100
0001
0010
,
0001
0100
0010
1000
,
0002
2003
3002
0003
,
0010
0100
0010
0100
,
1000
0001
0100
0000
,
0010
0100
0001
1000
,
0100
0000
0220
0330
,
1000
1000
0100
0010
,
0100
0100
1000
0010
,
1000
0100
0010
0001
,
2000
3002
2003
3000
,
0002
0003
0200
0300
,
0001
0100
1000
0100
,
0002
0003
0020
0030
,
0001
0100
0010
0000
,
2000
3000
0200
0300
,
1000
0100
0001
0100
,
2000
3000
0020
0030
,
1000
0100
0020
0030
,
0001
0001
0010
0100
,
0001
0001
0100
0010
,
0001
1000
0010
0100
,
0002
2003
3002
0003
,
0022
0000
0000
0033
,
0001
0010
0100
1000
,
2200
0000
0000
3300
,
0001
0100
0010
1000
,
2020
0000
0000
3030
,
1000
0010
0100
0001
,
0202
0000
0000
0303
,
1000
0001
2002
3003
,
1000
0100
0010
0001
,
0100
0010
1000
0000
,
0001
0001
1000
1000
,
0100
0010
0001
0000
,
1000
0010
0100
0001
,
0010
0001
0100
0010
,
1000
0100
0001
0100
,
1000
0001
1001
0000
,
0002
0000
0003
0000
,
0200
0000
0300
0000
,
0010
0100
0001
0000
,
0200
0300
0002
0003
,
2000
0000
3000
0000
,
0200
0000
0300
0000
,
0010
0100
0010
0100
,
1000
0001
1001
0000
,
1000
1000
0010
0100
,
1000
1000
0100
0010
,
1000
0001
0010
0100
,
2000
3002
2003
3000
,
0001
0100
1000
0100
,
0001
0010
1000
0010
,
0001
0100
0010
1000
,
0001
0001
0022
0033
,
1001
0000
0000
0001
,
1000
1000
2020
0000
,
0000
0000
3030
0000
;

//---------------dance-single - ----------------
#NOTES:
     dance-single:
     :
     Beginner:
     3:
     0.171999,0.210698,0.054315,0.135788,0.000000,133.000000,127.000000,6.000000,15.000000,0.000000,0.000000,0.171999,0.210698,0.054315,0.135788,0.000000,133.000000,127.000000,6.000000,15.000000,0.000000,0.000000:
0000
0000
0000
0000
,
0000
0000
0000
0000
,
0000
0000
0000
0000
,
0000
0000
0000
0000
,
1000
0000
1000
0000
,
0010
0000
0010
0000
,
0100
0000
0010
0000
,
1000
1000
1000
0000
,
0001
0000
0001
0000
,
0010
0000
0010
0000
,
0100
0000
0010
0000
,
0001
0001
0001
0000
,
1000
0000
0010
0000
,
0100
0000
0100
0000
,
0001
0000
0010
0000
,
0100
0000
1001
0000
,
1000
0000
1000
0000
,
0010
0000
0010
0000
,
0100
0000
0010
0000
,
1000
1000
1000
0000
,
0001
0000
0001
0000
,
0010
0010
0010
0000
,
0001
0000
0001
0000
,
0100
0100
0100
0000
,
1000
0000
1000
0000
,
0010
0010
0010
0000
,
1000
0000
1000
0000
,
0100
0100
0100
0000
,
0001
0000
0001
0000
,
0010
0000
0010
0000
,
1000
0000
0100
0000
,
0001
0001
0001
0000
,
2002
0000
3003
0000
,
0001
0000
0100
0000
,
2002
0000
3003
0000
,
0001
0000
0010
0000
,
2002
0000
3003
0000
,
1000
0000
0100
0000
,
2002
0000
3003
0000
,
1000
0000
0010
0000
,
0100
0000
0100
0000
,
0010
0010
0010
0000
,
1000
0000
0001
0000
,
0010
0010
0010
0000
,
0100
0000
1000
0000
,
0001
0000
0100
0000
,
0010
0000
1000
0000
,
0001
0001
0001
0000
,
2000
0000
3000
0000
,
0200
0000
0300
0000
,
0010
0000
0100
0000
,
0020
0000
0030
0000
,
0002
0000
0003
0000
,
0200
0000
0300
0000
,
0010
0000
0100
0000
,
0020
0000
0030
0000
,
1000
0000
1000
0000
,
0010
0000
0010
0000
,
0001
0000
0100
0000
,
1000
1000
1000
0000
,
0001
0000
0001
0000
,
0010
0000
0010
0000
,
1000
0000
0100
0000
,
0001
0001
0001
0000
,
1001
0000
0000
0000
,
1000
1000
2000
0000
,
0000
0000
3000
0000
;

//---------------dance-double - ----------------
#NOTES:
     dance-double:
     :
     Challenge:
     14:
     0.622040,0.692294,0.271577,0.697047,0.262524,481.000000,451.000000,30.000000,77.000000,0.000000,0.000000,0.622040,0.692294,0.271577,0.697047,0.262524,481.000000,451.000000,30.000000,77.000000,0.000000,0.000000:
00000000
00000000
00000000
00000000
,
00000000
00000000
00000000
00000000
,
00000000
00000000
00000000
00000000
,
00000000
00000000
00000000
00011000
,
00001000
00000000
00010000
00001000
00010000
00000000
00001000
00000000
00100000
00000000
01000000
00000000
00010000
00000000
00000000
00000000
,
00001000
00000000
00010000
00001000
00010000
00000000
00001000
00000000
02000000
00000000
03000000
00100000
00010000
00000000
00000000
00000000
,
00001000
00000000
00010000
00001000
00010000
00000000
00001000
00000000
00000010
00000000
00000100
00000000
00000010
00000000
00001000
00000000
,
00020000
00000010
00032000
00100000
00013000
00000000
00011000
00000000
,
00010000
00000000
00001000
00010000
00001000
00000000
00010000
00000000
00000010
00000000
00000100
00000000
00001000
00000000
00000000
00000000
,
00010000
00000000
00001000
00010000
00001000
00000000
00010000
00000000
00000200
00000000
00000300
00000010
00001000
00000000
00000000
00000000
,
00010000
00000000
00001000
00010000
00001000
00000000
00010000
00000000
00100000
00000000
01000000
00000000
00100000
00000000
00010000
00000000
,
00002000
00100000
00023000
00000010
00031000
00000000
00011000
00000000
,
00001000
00000000
01000000
00010000
01000000
00000000
00100000
00000000
00020000
00000000
00032000
00000000
00023000
00000000
02030000
00000000
,
03100000
00000000
00010000
00100000
00010000
00000000
00100000
00000000
00001000
00000000
00010000
00001000
00010000
00000000
00000000
00000000
,
00010000
00000100
00000000
00001000
00000100
00000000
00000010
00000000
00002000
00000000
00023000
00000000
00032000
00000000
00003200
00000000
,
00000320
00010030
00001000
00000000
00200020
00000000
00300030
00000000
,
00001000
00000000
00010000
00001000
00010000
00000000
00001000
00000000
00100000
00000000
01000000
00000000
00010000
00000000
00000000
00000000
,
00001000
00000000
00010000
00001000
00010000
00000000
00001000
00000000
02000000
00000000
03000000
00100000
00010000
00000000
00000000
00000000
,
00001000
00000000
00010000
00001000
00010000
00000000
00001000
00000000
00000010
00000000
00000100
00000000
00000010
00000000
00001000
00000000
,
00020000
00000010
00032000
00100000
00013000
00000000
00011000
00000000
,
10020000
00000000
00030000
00100000
01000000
00000000
00100000
00000000
20000000
00000000
30000000
00100000
01000000
00000000
00100000
00000000
,
00010000
01000000
00100000
00010000
00001000
00000100
00000010
00001000
,
00000002
00000000
00000003
00000010
00000100
00000000
00000010
00000000
00002000
00000000
00003000
00000001
00000100
00000000
00000010
00000000
,
00001000
00010000
00001000
00000100
00000002
00000000
00001003
00000000
,
00002001
00000000
00003000
00000010
00000100
00000000
00000010
00000000
00000002
00000000
00000003
00000010
00000100
00000000
00000010
00000000
,
00001000
00000100
00000010
00001000
00010000
01000000
00100000
00010000
,
20000000
00000000
30000000
00100000
01000000
00000000
00100000
00000000
00020000
00000000
00030000
10000000
01000000
00000000
00100000
00000000
,
00010000
00001000
00010000
01000000
00100000
00000000
00011000
00000000
,
00010000
00000000
00001000
00010000
00001000
00000000
00000100
00000000
00000001
00000000
00000100
00000000
00001000
00000000
00000000
00000000
,
00010000
00000000
00001000
00010000
00001000
00000000
00000010
00000000
00000002
00000000
00000003
00000010
00001000
00000000
00000000
00000000
,
00010000
00000000
00001000
00010000
00001000
00000000
00000100
00000000
00000001
00000000
00000010
00000000
00001000
00000000
00010000
00000000
,
00002000
01000000
00023000
00000100
00031000
00000000
00011000
00000000
,
00202000
00000000
00303000
00000000
00001000
00000000
20002000
00000000
30003000
00000000
00001000
00000000
01000000
00001000
01000000
00000000
,
00010000
00100000
00010000
00200000
00000000
00301000
00010000
00000010
,
00020020
00000000
00030030
00000000
00010000
00000000
00020002
00000000
00030003
00000000
00010000
00000000
00000100
00010000
00000100
00000000
,
00001000
00000010
00001000
00000020
00000000
00010030
00001000
01000000
,
02002000
00000000
03003000
00000000
00001000
00000000
20002000
00000000
30003000
00000000
00001000
00000000
00100000
00001000
00100000
00000000
,
00010000
01000000
00010000
02000000
00000000
03001000
00010000
00000100
,
00020200
00000000
00030300
00000000
00010000
00000000
00020002
00000000
00030003
00000000
00010000
00000000
00000010
00010000
00000010
00000000
,
00010000
00001000
00100000
00010000
10000000
00000000
10010000
00000000
,
20000000
00000000
30100000
00020000
00000000
00130000
10000000
00010000
,
00200000
00000000
00000000
01300000
00100000
01000000
00010000
00000000
00001000
00000000
00000100
00000000
00000010
00000000
00000000
00000000
,
00001000
00000000
00000001
00000000
00000010
00000000
00000100
00000000
00001000
00000001
00001000
00000000
00000010
00000000
00000100
00000000
,
00000110
00011000
02200000
03300000
,
10000000
01000000
00000000
00100000
00010000
00000000
01000000
00000000
00001000
00010000
00000000
00001000
00010000
00000000
00000100
00000000
,
00000010
00000001
00000010
00000001
00000010
00000000
00000200
00000000
00000000
00000000
00000310
00000000
00001000
00000000
00020000
00000000
,
00000000
00000000
00130000
10000000
00100000
00000000
10000000
00010000
10000000
00000000
01000000
10000000
01000000
00000000
00100000
00000000
,
01100000
00011000
00000220
00000330
,
00000001
00000100
00000020
00000000
00000030
00000100
00000001
00000100
,
00000001
00000010
00000200
00000000
00000300
00000000
00000020
00000000
,
00002030
00000000
00023000
00000000
00130000
01000000
00000000
00100000
,
20000000
00000000
00000000
30010000
00020000
00000000
00030000
00000000
,
10000000
01000000
00200000
00000000
00300000
01000000
10000000
01000000
,
10000000
00100000
02000000
00000000
03000000
00000000
00100000
01000000
,
00010000
00100000
00001000
00010000
00000010
00001000
00000010
00010000
,
00001000
00100000
00000000
00000000
00010010
00000000
00000000
00000000
00101000
00000000
00000000
00000000
00011000
00000000
00000000
00000000
,
00001000
00000000
00010000
00001000
00010000
00000000
01000000
00000000
10000000
00000000
01000000
00000000
00010000
00000000
00000000
00000000
,
00001000
00000000
00010000
00001000
00010000
00000000
00100000
00000000
20000000
00000000
30000000
00100000
00010000
00000000
00000000
00000000
,
00001000
00000000
00010000
00001000
00010000
00000000
01000000
00000000
10000000
00000000
00100000
00000000
00010000
00000000
00001000
00000000
,
00020000
00000100
00032000
01000000
00013000
00000000
00011000
00000000
,
00010000
00000000
00000100
00010000
00000100
00000000
00001000
00000000
00000010
00000000
00000001
00000000
00000010
00010000
00000010
00010000
,
00001000
00000000
01000000
00001000
01000000
00000000
00010000
00000000
00100000
00000000
10000000
00000000
00100000
00001000
00100000
00001000
,
00010000
00000000
01000000
00010000
01000000
00000000
00010000
00000000
00001000
00000000
00000100
00000000
00001000
00000100
00001000
00000000
,
00020000
00000010
00032000
01000000
00013000
00000000
00011000
00000000
,
00001000
00100000
00001000
00010000
00000010
00000000
00011000
00000000
,
00002000
00100000
00023000
00000100
00002000
00000000
00000000
00000000
,
00000000
00000000
00033000
00000000
;
