#TITLE:War in the Mirrorworld;
#SUBTITLE:;
#ARTIST:Aoi;
#TITLETRANSLIT:;
#SUBTITLETRANSLIT:;
#ARTISTTRANSLIT:;
#GENRE:Trancecore;
#CREDIT:;
#BANNER:War in the Mirrorworld.png;
#BACKGROUND:War in the Mirrorworld-bg.png;
#LYRICSPATH:;
#CDTITLE:cdtitle.png;
#MUSIC:War in the Mirrorworld.ogg;
#OFFSET:-0.551497;
#SAMPLESTART:45.463779;
#SAMPLELENGTH:11.228073;
#SELECTABLE:YES;
#BPMS:0.000000=171.000000
;
#STOPS:
;
#BGCHANGES:;
#KEYSOUNDS:;
#ATTACKS:;

//---------------dance-single - ----------------
#NOTES:
     dance-single:
     :
     Challenge:
     17:
     0.965131,0.991089,0.280808,0.726798,1.094327,818.000000,784.000000,34.000000,88.000000,25.000000,0.000000,0.965131,0.991089,0.280808,0.726798,1.094327,818.000000,784.000000,34.000000,88.000000,25.000000,0.000000:
0000
0000
0000
0000
,
0000
0000
0000
0000
,
0000
0000
0000
0000
,
0000
0000
0000
0000
,
0110
0000
1000
0000
0001
0000
0100
0001
,
0000
1000
0100
0000
0010
0001
1000
0000
,
0010
0100
0010
1000
0000
0001
0010
0100
,
0020
0000
0000
0000
0130
0010
0100
0010
0001
1000
0100
0010
0001
1000
0001
0100
,
0010
0000
0100
0000
0110
0000
0000
0000
1000
0000
0010
1000
0010
0000
0100
0000
,
0001
0000
0010
0001
0010
0000
0100
0000
1000
0000
0010
0000
0100
0000
0100
0000
,
0001
0000
1000
0100
0010
0000
0100
0000
1000
0000
0001
0100
0010
0000
0100
0000
,
0001
0000
1000
0100
0010
0000
0001
0000
1000
0000
1000
0000
0001
0000
0100
0001
,
1000
0000
0100
0010
0100
0000
0010
0001
1000
0000
0010
0100
0010
0000
0100
0001
,
1000
0000
0100
0010
0100
0000
1000
0001
0100
0000
0010
0000
1000
0010
0100
0001
,
1000
0100
1000
0100
0010
0100
0010
0100
0010
0001
1000
0001
0100
0010
1000
0001
,
0010
0000
0010
0010
0010
0100
1001
0000
,
2020
0000
3030
0000
0110
0000
0010
1000
0001
0000
1000
0000
1000
0000
0001
1000
,
0200
0000
0300
0000
0012
0000
1003
0000
2010
0000
3001
1000
0100
0000
1000
0001
,
0100
0010
0120
1030
2001
3100
0120
0031
,
2001
0000
3001
0100
0010
0000
1000
0100
0010
0000
0001
0000
1000
0001
1000
0001
,
0200
0000
0000
0000
0310
0000
0100
0001
1000
0000
0001
0000
0001
0000
1000
0001
,
0020
0000
0030
0000
0010
0000
2001
0000
3010
0000
0100
0010
1000
0000
0100
0010
,
0002
0000
0103
0000
0010
0000
2010
0000
3001
0000
0100
0001
0010
0000
0100
1000
,
0010
0000
0000
0000
0010
0100
0001
1000
0200
0000
0001
0000
0310
0000
0000
0000
,
0010
0001
1000
0001
0100
0000
0001
0100
00M0
0100
1000
0000
0001
0100
0001
0100
,
0010
1000
0001
1000
0100
0000
1000
0100
00M0
0100
0001
1000
0100
1000
0100
0010
,
0100
1000
0001
1000
0010
0000
1000
0010
0M00
0010
0001
0000
1000
0010
0100
0001
,
1000
0100
1000
0100
0010
0001
0010
0001
1000
0010
0100
0001
0010
0100
1000
0001
,
0000
1000
0001
0000
1001
0000
1000
0010
0M00
0010
0001
0000
0010
0100
1000
0001
,
0100
0010
1000
0001
0010
0000
0001
0010
0M00
0010
1000
0000
2001
0000
0000
0000
,
3001
0010
0100
1000
0010
0000
0100
0010
1000
0010
0100
0001
0010
0100
0010
0100
,
1000
0000
0001
0100
0010
0000
1000
0001
0010
0100
0010
0000
0110
0000
0000
0000
,
2000
0000
3100
00M0
0200
0000
0301
0000
0002
0000
1003
0100
0010
0000
0100
0001
,
0100
0000
0010
0001
1000
0000
0001
0000
0100
0000
0010
0001
0010
0000
0100
0010
,
2000
0000
3010
0M00
0020
0000
0031
0000
0002
0000
1003
0010
0100
0000
1000
0000
,
0100
0000
0010
1000
0001
0000
0001
1000
0100
0000
0100
0010
0001
0010
0100
1000
,
0002
0000
0103
00M0
0200
0000
1300
0000
2000
0000
3001
0100
0010
0000
0100
1000
,
0100
0000
0010
1000
0001
0000
0001
1000
0100
0000
0010
1000
0010
0000
0100
0010
,
0002
0000
0013
0M00
0020
0000
1030
0000
2000
0000
3001
0010
0100
0000
0001
0000
,
0100
0000
1000
0001
0100
0000
0010
1000
0000
1000
0100
0010
0001
0100
0010
1000
,
2010
0000
3001
0000
0012
0000
1003
0000
1010
0000
0000
0011
0000
0000
1000
0001
,
0000
0000
1010
0000
0110
0000
0101
0000
0001
0010
0100
0010
0100
1000
0010
0100
,
0002
0000
0013
0M00
0020
0000
1030
0000
2000
0000
3100
0001
0100
0000
1000
0000
,
0010
0000
0100
1000
0100
0000
0010
1000
0001
0000
1000
0100
0010
0001
0100
0010
,
2000
0000
3010
0M00
0020
0000
0031
0000
0002
0000
0103
0010
0100
0000
1000
0100
,
0001
0000
0010
0100
0010
0000
1000
0010
0001
0000
0100
0010
0100
0000
0010
1000
,
0002
0000
0023
0000
2030
0000
3002
0000
0203
0000
1300
0001
0100
0010
0100
0010
,
2000
0000
3020
0000
0230
0000
0302
0000
1003
0010
0100
0001
0010
0100
1000
0001
,
0200
0000
0000
0320
0000
0000
1030
0001
,
0020
0000
0000
0230
0000
0310
0100
1000
,
0002
0000
0000
2003
0000
0000
3001
0100
,
0020
0000
0000
0230
0000
0310
0100
0001
,
2000
0000
0000
3200
0000
0000
0301
0100
,
0020
0000
0000
0032
0000
1003
0010
0100
,
0020
0000
0000
2030
0000
0000
3001
0100
,
2000
0000
3001
0020
0000
1030
0100
0010
,
0001
0000
0012
0000
0000
0000
0103
0010
1000
0000
2010
0000
0000
0000
3100
0010
,
0001
0000
1000
0001
0000
0001
0100
0000
0010
1000
0010
0000
0100
0000
0001
1000
,
0100
0000
0120
0000
0000
0000
0130
1000
0010
0000
0120
0000
0000
0000
0130
0001
,
0010
0000
0100
0000
1000
0001
0100
0010
0000
1000
0100
0000
0010
0000
0001
0000
,
0100
0000
0100
0000
0100
0001
1000
0001
0010
0000
0010
0000
0100
1000
0001
1000
,
0100
0000
0100
0000
0100
1000
0001
1000
0010
0000
0010
0000
0100
0001
1000
0100
,
0010
0001
0010
0100
1000
0001
0100
0010
1000
0010
0100
0001
0010
0100
0010
0100
,
0020
0000
0000
0000
0130
1000
0001
0100
0000
0010
1000
0100
0010
0001
0100
0010
,
2000
0000
3001
0010
0M00
0010
1000
0001
2000
0000
3001
0100
00M0
0100
1000
0001
,
2000
0000
3001
1000
0010
0000
0100
0010
0100
0010
0001
0010
0100
0000
0010
1000
,
0002
0000
0013
0100
00M0
0100
0010
1000
0002
0000
0103
0010
0M00
0010
0100
1000
,
0002
0000
1003
0100
0010
0100
0010
1000
000M
1000
0100
0010
0001
0010
0100
1000
,
0002
0000
1003
0010
0M00
0010
0001
1000
0002
0000
1003
0100
00M0
0100
0001
1000
,
0002
0000
1003
0001
0010
0000
0100
0010
0100
0010
1000
0010
0100
0000
0010
0001
,
2000
0000
3010
0100
00M0
0100
0010
0001
2000
0000
3100
0010
0M00
0010
0100
0001
,
2000
0000
3001
1000
0010
0100
0010
0001
M000
0001
0100
0010
1000
0100
0010
0001
,
2000
0000
3001
0100
00M0
0100
1000
0001
2000
0000
3010
1000
000M
1000
0100
0010
,
0200
0000
0301
1000
0100
0000
0001
0100
0010
0100
1000
0001
0100
0000
0010
1000
,
0002
0000
1003
0100
00M0
0100
0001
1000
0002
0000
0013
0001
M000
0001
0100
0010
,
0200
0000
0310
0001
1000
0010
0100
0001
1000
0100
1000
0100
0010
0001
1000
0001
,
0200
0000
0301
0011
0210
0000
1300
1010
,
0110
0000
0000
0101
0000
0000
1001
0000
1100
0000
0000
0000
0001
0010
0100
1000
,
0010
0000
0010
0000
0010
0000
0010
0000
1000
0010
0100
0001
0010
0100
0010
0100
,
0010
0001
1000
0001
0100
0010
0100
0020
0000
1030
0100
0010
0001
1000
0001
0100
,
1000
0000
0000
0000
;

//---------------dance-single - ----------------
#NOTES:
     dance-single:
     :
     Hard:
     13:
     0.641848,0.627689,0.165181,0.586394,0.185829,544.000000,524.000000,20.000000,71.000000,0.000000,0.000000,0.641848,0.627689,0.165181,0.586394,0.185829,544.000000,524.000000,20.000000,71.000000,0.000000,0.000000:
0000
0000
0000
0000
,
0000
0000
0000
0000
,
0000
0000
0000
0000
,
0000
0000
0000
0000
,
0110
0000
0001
0000
1000
0000
0100
1000
,
0000
0001
0100
0000
0010
1000
0001
0000
,
1000
0100
0010
0001
0000
0001
0100
0010
,
2000
0000
3100
0010
0100
0001
0100
1000
,
0010
0100
0110
0000
0010
1000
1000
0010
,
0100
0001
0001
0100
0010
1000
0100
0001
,
0100
1000
1000
0100
0010
0001
0001
0010
,
0100
1000
1000
0001
0100
1000
0100
0001
,
1000
1000
1100
0000
0001
0001
0101
0000
,
1000
1000
0001
0001
0010
0010
0010
0010
,
0100
1000
0010
0100
0010
0001
0010
1000
,
0001
0000
0000
1001
,
0002
0000
0013
0100
0001
0100
0010
0001
,
2000
0000
3010
0001
0010
0100
0001
1000
,
0200
0000
0320
0031
0002
1003
2000
3010
,
0020
0130
0002
1003
0100
0010
0110
0000
,
2000
0000
3010
0100
1000
0100
0010
1000
,
0002
0000
1003
0100
0001
1000
0010
0001
,
2000
0000
3001
0100
0010
1000
1000
0001
,
0010
0000
0100
1000
0010
0100
0100
0000
,
0010
0000
1000
0000
0100
0000
0000
0010
0000
0010
0100
0000
1000
0000
0001
0000
,
0010
0000
0001
0000
0100
0000
0000
0010
0000
0010
0100
0000
0001
0000
1000
0000
,
0100
0000
0010
0000
0001
0000
0000
0100
0000
0100
0010
0000
1000
0000
0001
0000
,
1000
0000
1000
0000
0100
0000
0100
0000
0001
0000
0100
0010
0000
0100
1000
0000
,
0000
0000
1000
0000
1001
0000
0000
0001
0000
0100
0010
0000
1000
0000
0100
0000
,
1000
0000
0010
0000
0100
0000
0000
0001
0000
1000
0100
0000
0020
0000
0000
0000
,
0031
0000
0100
0000
1000
0000
0000
0100
0000
0001
1000
0000
0100
0000
0001
0000
,
0100
0000
0010
0001
0100
0010
1001
0000
,
1000
0000
0100
0000
1000
0000
0100
0000
0002
0000
0000
0103
0000
0000
0010
0000
,
0020
0000
0000
0031
0000
0000
1000
0000
2000
0000
0000
3001
0000
0000
0001
0000
,
1000
0000
0010
0000
1000
0000
0010
0000
0002
0000
0000
0013
0000
0000
0100
0000
,
0001
0000
1000
0000
0001
0000
1000
0200
0000
0000
0310
0000
0001
0000
1000
0000
,
0001
0000
0100
0000
0001
0000
0100
0000
2000
0000
0000
3100
0000
0000
0010
0000
,
0020
0000
0000
1030
0000
0000
0001
0000
0002
0000
0000
1003
0000
0000
1000
0000
,
0001
0000
0010
0000
0001
0000
0010
0000
2000
0000
0000
3010
0000
0000
0100
0000
,
1000
0000
0001
0000
0100
0000
0010
2000
0000
0000
3100
0000
0010
0000
0001
0000
,
1000
0000
1000
0000
0001
0000
0001
0000
1001
0000
0000
0110
0000
0000
1001
0000
,
0000
1010
1000
0001
0020
0000
0000
0000
,
0031
0000
0010
0000
0001
0000
0010
0000
2000
0000
0000
3010
0000
0000
0100
0000
,
1000
0000
0001
0000
1000
0000
0001
0200
0000
0000
0310
0000
0100
0000
0001
0000
,
1000
0000
0100
0000
1000
0000
0100
0000
0002
0000
0000
0103
0000
0000
0010
0000
,
0002
0000
0000
0103
0000
0000
1000
0000
0200
0000
0000
0310
0000
0000
1000
0000
,
0100
0000
0001
0000
1000
0000
0010
0000
0002
0000
0000
1003
0000
0000
0100
0000
,
0010
0010
0010
0010
0001
0100
0010
1000
,
0200
0000
0000
0320
0000
0000
0031
1000
,
0020
0000
0000
0230
0000
0310
0100
0001
,
2000
0000
0000
3002
0000
0000
1003
0100
,
0020
0000
0000
0230
0000
0310
0001
1000
,
0002
0000
0000
0203
0000
0000
1300
0100
,
0020
0000
0000
2030
0000
3001
1000
0100
,
0020
0000
0000
0230
0000
0000
0301
0100
,
0020
0000
0031
2000
0000
3001
0100
0010
,
1000
0000
0010
1000
0001
0000
1000
0100
,
1000
0000
0001
0010
0100
1000
0100
0010
,
0001
0000
0010
0001
1000
0000
0001
0100
,
0001
0000
1000
0010
0100
0001
0100
0010
,
1010
0000
0001
0010
0011
0000
1000
0100
,
1100
0000
0001
0100
0010
1000
0001
0010
,
0100
0001
0100
1000
0010
0001
0010
0100
,
0002
0000
0000
0000
1003
0000
0001
0200
0000
0000
0310
0000
1000
0000
0001
0000
,
2000
3100
0100
0010
2000
3010
0010
0100
,
2000
0000
3001
0000
0100
0000
0010
1000
0000
0001
0010
0000
0100
0000
0010
0000
,
0002
0103
0100
0010
0002
0013
0010
0100
,
0002
0000
1003
0000
0100
0000
0010
0001
0000
0100
0010
0000
1000
0000
0001
0000
,
2000
3100
0100
0001
0200
0310
0010
0001
,
0200
0000
1300
0000
0100
0000
0010
1000
0000
0001
0010
0000
0100
0000
1000
0000
,
0020
0031
0001
0010
2000
3100
0100
0001
,
0200
0000
1300
0000
0001
0000
0100
0010
0000
0010
1000
0000
0100
0000
0010
0000
,
0002
0010
1003
0001
2000
0100
3001
1000
,
0002
0000
0100
0000
1003
0000
0010
0100
0000
0010
0100
0000
0001
0000
0001
0000
,
2000
0010
3001
1000
0002
0100
1003
0001
,
2000
0100
3001
0010
0110
0000
0000
0000
,
2001
0000
3100
1000
0102
0000
0103
0001
,
2100
0000
0000
3100
0000
0000
1000
0000
0102
0000
0000
0000
1003
0000
0010
0000
,
0001
0010
1000
0001
0010
1000
0010
0001
,
0100
0000
0010
0000
1000
0000
0010
0002
0000
0000
0013
0000
0100
0000
0001
1000
,
0001
0000
0000
0000
;

//---------------dance-single - ----------------
#NOTES:
     dance-single:
     :
     Medium:
     10:
     0.448350,0.462508,0.041295,0.594653,0.016518,380.000000,375.000000,5.000000,72.000000,0.000000,0.000000,0.448350,0.462508,0.041295,0.594653,0.016518,380.000000,375.000000,5.000000,72.000000,0.000000,0.000000:
// measure 0
0000
0000
0000
0000
,  // measure 1
0000
0000
0000
0000
,  // measure 2
0000
0000
0000
0000
,  // measure 3
0000
0000
0000
0000
,  // measure 4
1000
0000
0100
0000
0010
0000
0000
0001
,  // measure 5
0000
0010
0100
1000
,  // measure 6
0001
0000
0000
0100
0000
0000
0010
0000
,  // measure 7
1000
0100
0010
0001
,  // measure 8
1000
1000
0010
0010
,  // measure 9
0100
0100
0001
0001
,  // measure 10
0010
0010
0100
0100
,  // measure 11
1000
1000
0001
0001
,  // measure 12
1000
0010
1000
0000
1000
0010
1000
0000
,  // measure 13
0001
0010
0001
0000
0001
0010
0001
0000
,  // measure 14
2000
3020
0230
0302
,  // measure 15
0013
0000
0000
1001
,  // measure 16
2000
0000
3001
0100
0010
0100
0001
0000
,  // measure 17
0020
0000
0130
0010
0001
0010
0100
0000
,  // measure 18
2000
3020
0032
0023
,  // measure 19
1030
0010
0100
0010
1000
0000
0001
0010
,  // measure 20
0002
0000
1003
0100
0010
0100
1000
0000
,  // measure 21
0020
0000
0130
0010
1000
0010
0100
0000
,  // measure 22
0002
0000
0013
0100
0010
0100
0010
0000
,  // measure 23
0100
1000
0001
0000
0100
0010
0010
0000
,  // measure 24
1000
0100
0001
0000
0100
0000
0100
0000
,  // measure 25
0001
0100
1000
0000
0100
0000
0100
0000
,  // measure 26
1000
0100
0001
0000
0100
0000
0100
0000
,  // measure 27
0011
0000
0000
0000
1100
0000
0000
0000
0001
0000
0000
0100
0000
0000
0010
0000
,  // measure 28
0000
1000
1000
0000
0001
0000
0010
0000
,  // measure 29
0001
0010
1000
0000
0010
0000
0010
0000
,  // measure 30
1000
0010
0001
0000
0010
0000
0100
0000
,  // measure 31
1000
0001
0100
0010
0100
0000
0110
0000
,  // measure 32
0001
0100
0001
0100
2000
0000
3100
0000
,  // measure 33
0200
0301
0002
0013
,  // measure 34
0001
0010
0001
0010
2000
0000
3010
0000
,  // measure 35
0020
0000
0031
0000
0001
0100
0010
0000
,  // measure 36
1000
0100
1000
0100
0002
0000
0103
0000
,  // measure 37
0200
1300
2000
3010
,  // measure 38
1000
0010
1000
0010
0002
0000
0013
0000
,  // measure 39
0020
0000
1030
0000
0001
0010
0100
1000
,  // measure 40
0001
0000
0000
0000
1000
0000
0000
0000
0010
0000
0000
0010
0000
0000
0010
0000
,  // measure 41
0000
0010
0100
0001
2000
0000
0000
0000
,  // measure 42
3001
0010
0001
0010
2000
0000
3010
0000
,  // measure 43
0200
0000
1300
0000
1000
0010
0100
0000
,  // measure 44
0001
0100
0001
0100
2000
0000
3100
0000
,  // measure 45
0020
1030
0002
0013
,  // measure 46
0100
1000
0001
0100
0010
0000
0010
0000
,  // measure 47
1000
0010
0100
0001
0020
0000
0000
0000
,  // measure 48
0230
0000
0000
2300
0000
0000
3001
0000
,  // measure 49
0200
0000
0000
0320
0000
0000
1030
0000
,  // measure 50
0002
0000
0000
0023
0000
0000
0130
0000
,  // measure 51
2000
0000
0000
3002
0000
0000
0103
0000
,  // measure 52
2000
0000
0000
3200
0000
0000
0301
0000
,  // measure 53
2000
0000
0000
3002
0000
0000
0013
0000
,  // measure 54
2000
0000
0000
3020
0000
0000
0031
0000
,  // measure 55
2000
0000
0000
3020
0000
0000
0130
0000
,  // measure 56
0001
0001
0010
0010
,  // measure 57
0100
0000
0100
0000
1000
0001
0100
0010
,  // measure 58
1000
1000
0010
0010
,  // measure 59
0100
0000
0100
0000
0001
1000
0100
0010
,  // measure 60
0001
0000
0001
0100
0001
0000
1000
0010
,  // measure 61
1000
0000
1000
0100
1000
0000
0001
0010
,  // measure 62
0002
0203
2300
3200
,  // measure 63
0320
0000
0000
0000
0000
0000
1030
0001
,  // measure 64
2000
0000
3100
0010
0200
0000
0301
0100
,  // measure 65
0002
0000
0103
0000
0010
0001
1000
0000
,  // measure 66
0002
0000
0103
0010
0200
0000
1300
0100
,  // measure 67
2000
0000
3100
0000
0010
1000
0001
0000
,  // measure 68
0020
0000
1030
0010
2000
0000
3010
0001
,  // measure 69
0020
0000
0031
0000
0100
0010
1000
0000
,  // measure 70
0020
0000
0031
0010
0002
0000
0013
1000
,  // measure 71
0020
0000
0130
0001
1000
0100
0010
0000
,  // measure 72
0002
0000
1003
0001
0200
0000
1300
0100
,  // measure 73
0002
0000
0013
0100
1000
0001
0100
0000
,  // measure 74
0002
0000
1003
0001
0020
0000
1030
0010
,  // measure 75
0002
0000
0103
0010
0100
0000
0000
0000
,  // measure 76
2001
0000
3010
0010
0200
0000
0301
0001
,  // measure 77
0020
0000
0000
0130
0000
0000
1000
0000
1000
0000
0000
0000
0001
0000
0100
0000
,  // measure 78
0010
0000
1000
0100
0010
0000
0001
0100
,  // measure 79
0010
0000
1000
0000
0100
0000
0000
0010
0000
0000
0100
0000
0010
0000
0001
0000
,  // measure 80
0100
0000
0000
0000
;

//---------------dance-single - ----------------
#NOTES:
     dance-single:
     :
     Easy:
     6:
     0.261931,0.330363,0.148663,0.247772,0.000000,222.000000,204.000000,18.000000,30.000000,0.000000,0.000000,0.261931,0.330363,0.148663,0.247772,0.000000,222.000000,204.000000,18.000000,30.000000,0.000000,0.000000:
// measure 0
0000
0000
0000
0000
,  // measure 1
0000
0000
0000
0000
,  // measure 2
0000
0000
0000
0000
,  // measure 3
0000
0000
0000
0000
,  // measure 4
0001
0000
0001
0000
,  // measure 5
0010
0000
0100
0000
,  // measure 6
1000
0000
0010
0000
,  // measure 7
0100
0001
1000
0001
,  // measure 8
0010
0000
0010
0000
,  // measure 9
0001
0000
0001
0000
,  // measure 10
1000
0000
1000
0000
,  // measure 11
0010
0000
0010
0000
,  // measure 12
0100
0000
0100
0000
,  // measure 13
0100
0100
0100
0100
,  // measure 14
0020
2030
3002
0023
,  // measure 15
0130
0000
0000
1001
,  // measure 16
1000
0001
0100
0000
,  // measure 17
0001
1000
0100
0000
,  // measure 18
0010
0010
0001
0001
,  // measure 19
1000
1000
0010
0010
,  // measure 20
0000
1000
0001
0000
,  // measure 21
0010
0001
1000
0000
,  // measure 22
0010
0100
0010
0100
,  // measure 23
0001
0000
1001
0000
,  // measure 24
1000
1000
0100
0000
,  // measure 25
0001
0001
0010
0000
,  // measure 26
1000
1000
0100
0000
,  // measure 27
0010
0001
1000
0001
,  // measure 28
0000
0001
0100
0000
,  // measure 29
1000
1000
0010
0000
,  // measure 30
0001
0001
0100
0000
,  // measure 31
0010
1000
0001
0000
,  // measure 32
1000
0100
0001
0000
,  // measure 33
0101
0000
1100
0000
,  // measure 34
1000
0010
0001
0000
,  // measure 35
0011
0000
1010
0000
,  // measure 36
0001
0100
1000
0000
,  // measure 37
1100
0000
0101
0000
,  // measure 38
0001
0010
1000
0000
,  // measure 39
0010
0001
1000
0010
,  // measure 40
0100
0000
0100
0000
0200
0000
0000
0300
,  // measure 41
0000
0110
1001
0000
,  // measure 42
0001
0010
1000
0000
,  // measure 43
0011
0000
1100
0000
,  // measure 44
1000
0010
0001
0000
,  // measure 45
1010
0000
0101
0000
,  // measure 46
1000
0100
0010
0001
,  // measure 47
0100
0010
2000
0000
,  // measure 48
3002
0000
0003
0000
,  // measure 49
0020
0000
0030
0100
,  // measure 50
0200
0000
0300
0000
,  // measure 51
2000
0000
3000
0001
,  // measure 52
0002
0000
0003
0000
,  // measure 53
0200
0000
0300
0010
,  // measure 54
0020
0000
0030
0000
,  // measure 55
2000
0000
3000
0001
,  // measure 56
0001
0000
0001
0000
,  // measure 57
0001
0000
0010
0100
,  // measure 58
1000
0000
1000
0000
,  // measure 59
1000
0000
0010
0100
,  // measure 60
0001
0001
0001
0000
,  // measure 61
1000
1000
1000
0000
,  // measure 62
0001
0010
0100
1000
,  // measure 63
0002
0000
0000
0003
,  // measure 64
0002
0003
0200
0300
,  // measure 65
1000
1000
0100
0010
,  // measure 66
2000
3000
0020
0030
,  // measure 67
0001
0001
0010
1000
,  // measure 68
0002
0003
0020
0030
,  // measure 69
1000
1000
0010
0100
,  // measure 70
2000
3000
0200
0300
,  // measure 71
0001
0001
0100
0010
,  // measure 72
0002
0003
0200
0300
,  // measure 73
1000
0100
0001
0010
,  // measure 74
2000
3000
0020
0030
,  // measure 75
0001
1000
1001
0000
,  // measure 76
0201
0000
0310
1000
,  // measure 77
1200
0000
0310
0001
,  // measure 78
1000
0010
0100
0001
,  // measure 79
0020
0000
0000
0130
,  // measure 80
0110
0000
0000
0000
;

//---------------dance-single - ----------------
#NOTES:
     dance-single:
     :
     Beginner:
     3:
     0.165181,0.231254,0.049554,0.090850,0.000000,140.000000,134.000000,6.000000,11.000000,0.000000,0.000000,0.165181,0.231254,0.049554,0.090850,0.000000,140.000000,134.000000,6.000000,11.000000,0.000000,0.000000:
// measure 0
0000
0000
0000
0000
,  // measure 1
0000
0000
0000
0000
,  // measure 2
0000
0000
0000
0000
,  // measure 3
0000
0000
0000
0000
,  // measure 4
1000
0000
0000
0000
,  // measure 5
0010
0000
0000
0000
,  // measure 6
0100
0000
0000
0000
,  // measure 7
0002
0000
0003
0000
,  // measure 8
0010
0000
0000
0000
,  // measure 9
0010
0000
0000
0000
,  // measure 10
0100
0000
0000
0000
,  // measure 11
0100
0000
0000
0000
,  // measure 12
1000
0000
1000
0000
,  // measure 13
0001
0000
1000
0000
,  // measure 14
0002
0000
0000
0000
,  // measure 15
0003
0000
0000
0000
,  // measure 16
1000
0000
1000
0000
,  // measure 17
0010
0000
0010
0000
,  // measure 18
0001
0000
0010
0000
,  // measure 19
1000
0000
1001
0000
,  // measure 20
0000
0001
0001
0000
,  // measure 21
0010
0000
0010
0000
,  // measure 22
1000
0000
0010
0000
,  // measure 23
0001
0000
1000
0000
,  // measure 24
0001
0000
0001
0000
,  // measure 25
0100
0000
0100
0000
,  // measure 26
1000
0000
0100
0000
,  // measure 27
0001
0000
1001
0000
,  // measure 28
0000
1000
1000
0000
,  // measure 29
0100
0000
0100
0000
,  // measure 30
0001
0000
0100
0000
,  // measure 31
1000
0000
0001
0000
,  // measure 32
1000
1000
1000
0000
,  // measure 33
0010
0000
0010
0000
,  // measure 34
0001
0001
0001
0000
,  // measure 35
0010
0000
0010
0000
,  // measure 36
1000
1000
1000
0000
,  // measure 37
0100
0000
0100
0000
,  // measure 38
0001
0001
0001
0000
,  // measure 39
0100
0000
1000
0000
,  // measure 40
1001
0000
1001
0000
,  // measure 41
0000
1001
0000
0000
,  // measure 42
0001
0001
0001
0000
,  // measure 43
0010
0000
0100
0000
,  // measure 44
1000
1000
1000
0000
,  // measure 45
0010
0000
0100
0000
,  // measure 46
0001
0001
0001
0000
,  // measure 47
0020
0000
0030
0000
,  // measure 48
0200
0000
0000
0000
,  // measure 49
0300
0000
0000
0000
,  // measure 50
2000
0000
0000
0000
,  // measure 51
3000
0000
0000
0000
,  // measure 52
0002
0000
0000
0000
,  // measure 53
0003
0000
0000
0000
,  // measure 54
0200
0000
0000
0000
,  // measure 55
0300
0000
0000
0000
,  // measure 56
0010
0000
0010
0000
,  // measure 57
0010
0000
0010
0000
,  // measure 58
0100
0000
0100
0000
,  // measure 59
0100
0000
0100
0000
,  // measure 60
0001
0000
0001
0000
,  // measure 61
1000
0000
1000
0000
,  // measure 62
0100
0000
0010
0000
,  // measure 63
0002
0000
0003
0000
,  // measure 64
0001
0000
0100
0000
,  // measure 65
1000
0000
1000
0000
,  // measure 66
0001
0000
0010
0000
,  // measure 67
1000
1000
1000
0000
,  // measure 68
1000
0000
0100
0000
,  // measure 69
0001
0000
0001
0000
,  // measure 70
1000
0000
0010
0000
,  // measure 71
0001
0001
0001
0000
,  // measure 72
0001
0000
0100
0000
,  // measure 73
1000
0000
0001
0000
,  // measure 74
0010
0000
1000
0000
,  // measure 75
0100
0100
0100
0000
,  // measure 76
0020
0000
0030
0000
,  // measure 77
0200
0000
0300
0000
,  // measure 78
1000
0000
0001
0000
,  // measure 79
0200
0000
0300
0000
,  // measure 80
0110
0000
0000
0000
;
