#TITLE:Wake Up, Get Up, Get Out There;
#SUBTITLE:;
#ARTIST:目黒将司 feat. 稲泉りん;
#TITLETRANSLIT:;
#SUBTITLETRANSLIT:;
#ARTISTTRANSLIT:Shoji Meguro feat. Lyn Inaizumi;
#GENRE:Phantom Phunk;
#CREDIT:;
#BANNER:Wake Up Get Up Get Out There.png;
#BACKGROUND:Wake Up Get Up Get Out There-bg.png;
#LYRICSPATH:;
#CDTITLE:cdtitle.png;
#MUSIC:Wake Up Get Up Get Out There.ogg;
#OFFSET:1.507520;
#SAMPLESTART:59.201145;
#SAMPLELENGTH:15.118111;
#LASTBEATHINT:1.071594;
#SELECTABLE:YES;
#BPMS:0.000000=126.999992
;
#STOPS:
;
#BGCHANGES:2.000=Wake Up Get Up Get Out There.mp4=1.000=1=0=1===CrossFade==,
197.500=Wake Up Get Up Get Out There-bg.png=1.000=1=0=1===CrossFade==,
99999=-nosongbg-=1.000=0=0=0 // don't automatically add -songbackground-
;
#KEYSOUNDS:;
#ATTACKS:;

//---------------dance-single - ----------------
#NOTES:
     dance-single:
     :
     Challenge:
     13:
     0.553044,0.598958,0.253165,0.886076,0.659283,367.000000,343.000000,24.000000,84.000000,0.000000,0.000000,0.553044,0.598958,0.253165,0.886076,0.659283,367.000000,343.000000,24.000000,84.000000,0.000000,0.000000:
// measure 0
0000
0000
0000
0000
,  // measure 1
0000
0000
0000
0000
,  // measure 2
0000
0000
0000
0000
,  // measure 3
0000
0000
0000
0000
,  // measure 4
0000
0000
0000
0000
,  // measure 5
2000
0000
0000
3200
0000
0000
0301
0000
0000
0000
0100
0010
0000
0000
0000
0000
,  // measure 6
0100
1000
0001
0200
0000
0320
0000
1030
,  // measure 7
0002
0000
0000
0203
0000
0000
1300
0000
0000
0000
0100
0010
0100
0000
0002
0000
,  // measure 8
0000
0000
0000
1003
,  // measure 9
1002
0000
0000
0023
0000
0000
2030
0000
0000
0000
3010
0100
0000
0000
0010
0001
,  // measure 10
1000
0000
1000
0000
0001
0100
0010
0100
0010
0100
0000
0001
0000
1000
0000
0000
,  // measure 11
2001
0000
0000
3200
0000
0000
0301
0100
0000
0000
0100
0010
0100
0000
2000
0000
,  // measure 12
0000
0000
0001
0000
3001
1000
0010
0100
0001
1000
0000
0001
0000
0010
0000
0000
,  // measure 13
2001
0000
0000
3020
0000
0000
0032
0000
0000
0000
0013
0100
0000
0000
0010
1000
,  // measure 14
0001
0000
0001
0000
1000
0100
0010
0100
0010
0100
0000
1000
0000
0001
0000
0000
,  // measure 15
1002
0000
0000
0203
0000
0000
1300
0100
0000
0000
0100
0010
0100
0000
0002
0000
,  // measure 16
0000
0000
0000
0000
0000
0000
0000
0000
1000
0000
1000
0000
1003
0001
0010
0000
,  // measure 17
0200
0000
0000
0302
0000
0000
0103
0000
1000
0000
0002
0000
0000
0023
0000
0000
,  // measure 18
1030
0000
0020
0000
0000
0032
0000
0000
2003
0000
0001
0000
3001
0000
0200
0000
,  // measure 19
0320
0000
0000
0230
0000
0000
2300
0000
3100
0000
0002
0000
1003
0000
0200
0000
,  // measure 20
0302
0103
1000
0000
1001
0000
1000
0001
,  // measure 21
0200
0000
0000
2300
0000
0000
3100
0000
0001
0000
2000
0000
0000
3020
0000
0000
,  // measure 22
0031
0000
0020
0000
0000
2030
0000
0000
3002
0000
1000
0000
1003
0000
0200
0000
,  // measure 23
0320
0000
0000
0230
0000
0000
0302
0000
0103
0000
1000
0000
0001
0000
0200
0000
,  // measure 24
2300
0000
3100
0000
0001
0000
0000
0000
0001
1000
0001
0000
0010
0000
0100
0000
,  // measure 25
1100
0000
0000
0021
0000
0000
0130
0000
0010
0100
0010
0000
0001
0010
0001
0000
,  // measure 26
1000
0010
1000
0000
0001
0010
0001
0000
1000
0000
0001
0000
1000
0010
0000
0001
,  // measure 27
0000
0010
1000
0000
2010
0000
0000
0000
3001
0000
0100
0000
0010
1000
0000
0100
,  // measure 28
0000
0010
0001
0000
1000
0000
0100
0000
0020
0000
0000
0032
0000
0000
0103
0000
,  // measure 29
0101
0000
0000
1020
0000
0000
0130
0000
0010
0100
0010
0000
1000
0010
1000
0000
,  // measure 30
0001
0010
0001
0000
1000
0010
1000
0000
0001
0000
1000
0000
0001
0010
0000
1000
,  // measure 31
0000
0010
0001
0000
0012
0000
0000
0000
0103
0010
0100
0010
0100
0000
1001
0000
,  // measure 32
0000
0000
0002
0000
0000
0010
0000
0000
2003
0000
0000
0010
0000
0000
3001
0000
,  // measure 33
1002
0000
0000
0010
0000
0000
2003
0010
0000
0000
3002
0100
0000
0000
1003
0001
,  // measure 34
0010
0000
0010
0000
0100
0010
0001
0010
0001
1000
0000
0001
0000
0100
0010
0000
,  // measure 35
2010
0000
0000
0001
0000
0000
3100
0010
0000
0000
0100
0000
2002
0000
3003
0000
,  // measure 36
0001
0100
0000
0010
0000
1000
0100
0000
0020
0000
0000
0032
0000
0000
1003
0000
,  // measure 37
2001
0000
0000
0010
0000
0000
3002
0010
0000
0000
2003
0100
0000
0000
3001
1000
,  // measure 38
0010
0000
0010
0000
0100
0010
1000
0010
1000
0001
0000
1000
0000
0100
0010
0000
,  // measure 39
0021
0000
0000
0100
0000
0000
1030
0020
0000
0000
0031
0000
1000
0000
0010
1000
,  // measure 40
0020
0000
0000
0100
0000
0000
0031
0020
0000
0000
1030
0000
0010
0000
0000
0000
,  // measure 41
2001
0000
0000
0010
0000
0000
3200
0001
0000
0000
0320
1000
0000
0000
0130
0010
,  // measure 42
0001
0000
0001
0000
0010
0001
1000
0001
0100
0010
0000
1000
0000
0100
0010
0000
,  // measure 43
0012
0000
0000
1000
0000
0000
0103
0010
0000
0000
0100
0000
2002
0000
3003
0000
,  // measure 44
1000
0100
0000
0010
0000
0001
0100
0000
0020
0000
0000
2030
0000
0000
3001
0000
,  // measure 45
1002
0000
0000
0010
0000
0000
0203
1000
0000
0000
0320
0001
0000
0000
0130
0010
,  // measure 46
1000
0000
1000
0000
0010
1000
0001
1000
0100
0010
0000
0001
0000
0100
0010
0000
,  // measure 47
1010
0000
0000
1001
0000
0000
1000
0200
0000
0000
0001
0300
0100
0000
0010
0001
,  // measure 48
0010
0000
0000
1001
0000
0000
0001
0200
0000
0000
1300
0000
0100
0000
0001
1000
,  // measure 49
0200
0000
0000
0302
0000
0000
1003
0000
0000
0000
0000
0000
0000
0000
0000
0000
;

//---------------dance-single - ----------------
#NOTES:
     dance-single:
     :
     Hard:
     10:
     0.412899,0.442708,0.358650,0.738397,0.305907,274.000000,240.000000,34.000000,70.000000,0.000000,0.000000,0.412899,0.442708,0.358650,0.738397,0.305907,274.000000,240.000000,34.000000,70.000000,0.000000,0.000000:
// measure 0
0000
0000
0000
0000
,  // measure 1
0000
0000
0000
0000
,  // measure 2
0000
0000
0000
0000
,  // measure 3
0000
0000
0000
0000
,  // measure 4
0000
0000
0000
0000
,  // measure 5
2000
0000
0000
3200
0000
0000
0310
0000
0000
0000
0110
0000
0000
0000
0000
0000
,  // measure 6
0100
0010
0100
2000
0000
3002
0000
1003
,  // measure 7
0002
0000
0000
0203
0000
0000
0310
0000
0000
0000
0110
0000
0000
0000
0002
0000
,  // measure 8
0000
0000
0000
1003
,  // measure 9
2001
0000
0000
3200
0000
0000
0320
0000
0000
0000
0001
0000
0000
0000
0100
0000
,  // measure 10
0000
0000
0031
0000
0000
0000
0001
0000
1000
0001
0000
0100
0000
0100
0000
0000
,  // measure 11
0120
0000
0000
2030
0000
0000
3002
0000
0000
0000
1003
0000
0000
0000
2002
0000
,  // measure 12
0000
0000
3003
0000
0000
0000
1000
0000
0100
0010
0000
0001
0000
1000
0000
0000
,  // measure 13
1002
0000
0000
0203
0000
0000
0320
0000
0000
0000
1000
0000
0000
0000
0100
0000
,  // measure 14
0000
0000
1030
0000
0000
0000
1000
0000
0001
1000
0000
0100
0000
0100
0000
0000
,  // measure 15
0120
0000
0000
0032
0000
0000
2003
0000
0000
0000
3001
0000
0000
0000
2002
0000
,  // measure 16
0000
0000
3003
0000
1000
0001
1000
0001
,  // measure 17
2000
0000
0000
0010
0000
0000
3001
0000
0000
0000
0002
0000
0000
0010
0000
0000
,  // measure 18
1003
0000
2000
0000
0000
3020
0000
0000
0032
0000
0000
0000
0013
0000
1000
0000
,  // measure 19
0002
0000
0000
2003
0000
0000
3200
0000
0000
0000
0320
0000
0000
0000
0100
0000
,  // measure 20
0130
0000
0110
0000
2000
0000
3010
0100
,  // measure 21
0002
0000
0000
0010
0000
0000
1003
0000
0000
0000
2000
0000
0000
0010
0000
0000
,  // measure 22
3001
0000
0002
0000
0000
0023
0000
0000
2030
0000
0000
0000
3010
0000
0001
0000
,  // measure 23
2000
0000
0000
3002
0000
0000
0203
0000
0000
0000
0310
0000
0000
0000
0010
0000
,  // measure 24
0200
0000
0301
1000
0200
0000
0310
0001
,  // measure 25
0101
0000
0000
2010
0000
0000
0000
0000
0010
0000
0000
0000
0100
0000
0000
0000
,  // measure 26
0010
0000
0000
0000
0100
0000
0000
0000
3010
0000
1000
0000
0100
0000
0000
0010
,  // measure 27
0000
0100
0010
0000
0002
0000
0000
0000
1003
0000
0001
0000
0100
0000
0000
0001
,  // measure 28
0000
0000
1000
0000
0100
0000
1000
0000
0020
0000
0000
2030
0000
0000
3100
0000
,  // measure 29
1100
0000
0000
0012
0000
0000
0000
0000
0010
0000
0000
0000
0100
0000
0000
0000
,  // measure 30
0010
0000
0000
0000
0100
0000
0000
0000
0013
0000
0001
0000
0100
0000
0000
0010
,  // measure 31
0000
0100
0010
0000
2000
0000
0000
0000
3200
0000
0000
0000
0310
0000
1001
0000
,  // measure 32
0000
0000
2000
0000
0000
0010
0000
0000
3002
0000
0000
0010
0000
0000
1003
0000
,  // measure 33
1100
0000
0000
0210
0000
0000
0001
0000
0000
0000
0010
0000
0000
0000
1300
0000
,  // measure 34
0100
0000
1000
0000
0000
0010
0000
0000
0100
0000
0000
0001
0000
0000
1000
0000
,  // measure 35
1001
0000
0000
0021
0000
0000
0100
0000
0000
0000
0130
0000
2002
0000
3003
0000
,  // measure 36
0001
0010
0000
0100
0000
1000
0000
0000
0010
0000
0000
0100
0000
0000
0001
0000
,  // measure 37
0101
0000
0000
0210
0000
0000
1000
0000
0000
0000
0310
0000
0100
0000
0010
0000
,  // measure 38
1000
0000
0000
0100
0000
0000
0010
0000
0001
0000
0100
0000
0010
0000
1000
0000
,  // measure 39
0100
0000
0000
0010
0000
0000
0012
0000
0000
0000
0000
0000
1003
0000
0001
0000
,  // measure 40
0100
0000
0000
0010
0000
0000
2010
0000
0000
0000
0000
0000
3100
0000
0010
0000
,  // measure 41
0011
0000
0000
0120
0000
0000
1000
0000
0000
0000
0100
0000
0000
0000
0031
0000
,  // measure 42
0010
0000
0001
0000
0000
0100
0000
0000
0010
0000
0000
1000
0000
0000
0001
0000
,  // measure 43
1001
0000
0000
1020
0000
0000
0100
0000
0000
0000
0130
0000
2002
0000
3003
0000
,  // measure 44
1000
0010
0000
0100
0000
0001
0000
0000
0010
0000
0000
0100
0000
0000
1000
0000
,  // measure 45
1010
0000
0000
0120
0000
0000
0001
0000
0000
0000
0130
0000
0010
0000
0100
0000
,  // measure 46
0001
0000
0000
0010
0000
0000
0100
0000
1000
0000
0010
0000
0100
0000
0001
0000
,  // measure 47
1002
0000
0000
0013
0000
0000
2100
0000
0000
0000
0001
0000
3001
0000
0000
0000
,  // measure 48
2001
0000
0000
3010
0000
0000
0102
0000
0000
0000
1000
0000
1003
0000
0100
0000
,  // measure 49
0020
0000
0000
0230
0000
0000
0301
0000
0000
0000
0000
0000
0000
0000
0000
0000
;

//---------------dance-single - ----------------
#NOTES:
     dance-single:
     :
     Medium:
     7:
     0.295359,0.364583,0.369198,0.474684,0.005274,196.000000,161.000000,35.000000,45.000000,0.000000,0.000000,0.295359,0.364583,0.369198,0.474684,0.005274,196.000000,161.000000,35.000000,45.000000,0.000000,0.000000:
0000
0000
0000
0000
,
0000
0000
0000
0000
,
0000
0000
0000
0000
,
0000
0000
0000
0000
,
0000
0000
0000
0000
,
2000
0000
0000
3010
0000
0000
0000
0000
,
0000
0000
0000
1000
0000
1000
0000
0000
,
0002
0000
0000
0013
0000
0000
0000
0200
,
0000
0000
0000
0310
,
0012
0000
0000
0203
0000
0001
0000
0310
,
0000
0000
0000
0010
0100
0000
0001
0000
,
1002
0000
0000
0010
0000
0103
0000
0210
,
0000
0000
0000
0310
1000
0000
0010
0000
,
2010
0000
0000
3200
0000
1000
0000
0310
,
0000
0000
0000
0010
0100
0000
1000
0000
,
2001
0000
0000
0010
0000
3100
0000
0220
,
0000
0000
0330
0000
0010
0100
0010
0000
,
0002
0010
0013
0002
,
1003
0002
0100
0103
,
0020
0230
0302
2003
,
3200
0300
0110
1001
,
2000
0010
3010
2000
,
3001
2000
0100
3100
,
0020
0032
0203
0300
,
0020
1030
0200
0310
,
0022
0030
0010
1000
,
0010
0000
1000
0000
0013
0001
1000
0000
,
0001
0000
1002
0000
0103
0001
0100
0000
,
0001
1000
0100
1000
,
2020
0030
0010
0001
,
0010
0000
0001
0000
3010
1000
0001
0000
,
1000
0000
2001
0000
3200
0000
0000
0301
,
0000
0000
0000
0110
,
1001
0000
0000
1010
0000
0101
0000
0000
,
1000
0000
1000
0100
0010
0000
0001
0000
,
1001
0000
0000
0101
0000
0000
2100
0000
,
3001
0100
0010
0000
1000
0000
0001
0000
,
1001
0000
0000
0011
0000
1100
0000
0001
,
0100
0000
0010
1000
0100
0000
0010
0000
,
0120
0000
0000
0032
0000
0000
0103
0000
,
0120
0000
0000
2030
0000
0000
3001
0000
,
1001
0000
0000
1100
0000
0011
0000
0000
,
1000
0000
1000
0010
0100
0000
0001
0000
,
1001
0000
0000
1100
0000
0000
0102
0000
,
1003
0100
0010
0000
0001
0000
1000
0000
,
1001
0000
0000
0101
0000
1010
0000
0001
,
0010
0000
0100
1000
0010
0000
0100
0000
,
2010
0000
0000
3200
0000
0000
0310
0000
,
0012
0000
0000
0203
0000
0000
0310
0000
,
0100
0000
0000
0100
0000
0000
0100
0000
0000
0000
0000
0000
0000
0000
0000
0000
;

//---------------dance-single - ----------------
#NOTES:
     dance-single:
     :
     Easy:
     5:
     0.212477,0.258439,0.168776,0.453586,0.000000,141.000000,125.000000,16.000000,43.000000,0.000000,0.000000,0.212477,0.258439,0.168776,0.453586,0.000000,141.000000,125.000000,16.000000,43.000000,0.000000,0.000000:
0000
0000
0000
0000
,
0000
0000
0000
0000
,
0000
0000
0000
0000
,
0000
0000
0000
0000
,
0000
0000
0000
0000
,
2000
0000
0000
3000
0000
0000
0000
0000
,
0000
0000
0000
1000
0000
0000
0000
0000
,
0002
0000
0000
0003
0000
0000
0000
0200
,
0000
0000
0000
0310
,
2020
0000
0000
3030
0000
0001
0000
0001
,
0000
0000
1000
0100
,
0020
0000
0000
0130
0000
0000
0000
2002
,
0000
3003
1000
0100
,
0022
0000
0000
0033
0000
1000
0000
1000
,
0000
0000
0001
0100
,
0020
0000
0000
0130
0000
0000
0000
2002
,
0000
0000
0000
3003
,
0002
0010
0000
2003
,
0010
3002
0100
0000
,
2003
3200
0320
0032
,
2003
3000
0001
0001
,
2000
0010
0000
3002
,
0010
2003
0100
0000
,
3002
0203
0320
0030
,
2000
3100
0020
0031
,
2002
3003
0001
0001
,
1000
1000
0001
0100
,
0010
2020
3030
0010
,
0100
0001
1000
0001
,
2002
3003
1000
1000
,
0001
0001
1000
0100
,
0010
0000
0022
0000
0033
0000
0000
1001
,
0000
0000
0000
0001
,
1001
0000
0000
1000
0000
1000
0000
0000
,
0001
0100
0010
1000
,
1001
0000
0000
0001
0000
0000
0002
0000
,
0013
0100
0010
0001
,
1001
0000
0000
0001
0000
0001
0000
0000
,
0100
0010
0100
0010
,
2000
0000
0000
0010
0000
0000
3000
0000
,
0002
0000
0000
0010
0000
0000
0003
0000
,
1001
0000
0000
0001
0000
0001
0000
0000
,
1000
0100
0010
0001
,
1001
0000
0000
1000
0000
0000
2000
0000
,
3010
0100
0010
1000
,
1001
0000
0000
1000
0000
1000
0000
0000
,
0100
0010
0100
0010
,
0002
0000
0000
0010
0000
0000
0003
0000
,
2000
0000
0000
0010
0000
0000
3000
0000
,
1001
0000
0000
0000
;

//---------------dance-single - ----------------
#NOTES:
     dance-single:
     :
     Beginner:
     1:
     0.082881,0.129219,0.084388,0.094937,0.000000,55.000000,47.000000,8.000000,9.000000,0.000000,0.000000,0.082881,0.129219,0.084388,0.094937,0.000000,55.000000,47.000000,8.000000,9.000000,0.000000,0.000000:
0000
0000
0000
0000
,
0000
0000
0000
0000
,
0000
0000
0000
0000
,
0000
0000
0000
0000
,
0000
0000
0000
0000
,
1000
0000
0000
0000
,
0000
0000
0000
0000
,
0001
0000
0000
0000
,
0000
0000
0000
0000
,
1000
0000
0000
0000
,
0100
0000
0000
0000
,
0010
0000
0000
0000
,
0001
0000
0000
0000
,
1000
0000
0000
0000
,
0010
0000
0000
0000
,
0100
0000
0000
0000
,
0001
0000
0000
0000
,
0020
0000
0030
0000
,
0200
0000
0300
0000
,
1000
0000
1000
0000
,
1000
0000
0000
0000
,
0020
0000
0030
0000
,
0200
0000
0300
0000
,
0001
0000
0001
0000
,
0001
0000
0000
0000
,
1001
0000
0000
0000
,
0001
0000
0000
0000
,
0010
0000
0000
0000
,
0001
0000
0000
0000
,
1001
0000
0000
0000
,
1000
0000
0000
0000
,
0010
0000
0020
0000
,
0030
0000
0000
0000
,
1001
0000
0000
0000
,
0010
0000
0000
0000
,
1001
0000
0000
0000
,
0100
0000
0000
0000
,
1001
0000
0000
0000
,
1000
0000
1000
0000
,
2000
0000
3000
0000
,
0002
0000
0003
0000
,
1001
0000
0000
0000
,
0010
0000
0000
0000
,
1001
0000
0000
0000
,
0100
0000
0000
0000
,
1001
0000
0000
0000
,
0001
0000
0001
0000
,
0002
0000
0003
0000
,
2000
0000
3000
0000
,
0010
0000
0000
0000
;
