#VERSION:0.83;
#TITLE:WHA;
#SUBTITLE:;
#ARTIST:かめりあ involving ななひら;
#TITLETRANSLIT:;
#SUBTITLETRANSLIT:;
#ARTISTTRANSLIT:Camellia involving Nanahira;
#GENRE:;
#ORIGIN:;
#CREDIT:;
#BANNER:WHA.png;
#BACKGROUND:WHA-bg.png;
#PREVIEWVID:;
#JACKET:WHA-jacket.png;
#CDIMAGE:;
#DISCIMAGE:;
#LYRICSPATH:;
#CDTITLE:cdtitle.png;
#MUSIC:WHA.ogg;
#OFFSET:-1.855600;
#SAMPLESTART:19.633379;
#SAMPLELENGTH:17.777777;
#SELECTABLE:YES;
#DISPLAYBPM:108.000000:216.000000;
#BPMS:0.000=108.000,
16.000=216.000,
208.000=108.000,
224.000=216.000,
256.000=54.000,
258.000=216.000;
#STOPS:;
#DELAYS:;
#WARPS:;
#TIMESIGNATURES:0.000=4=4;
#TICKCOUNTS:0.000=4;
#COMBOS:0.000=1;
#SPEEDS:0.000=1.000=0.000=0;
#SCROLLS:0.000=1.000,
16.000=0.000,
18.000=1.000,
20.000=0.000,
22.000=1.000,
25.500=0.000,
27.000=1.000,
44.000=0.000,
44.250=2.000,
44.500=0.000,
44.750=2.000,
45.000=0.000,
45.250=2.000,
45.500=0.000,
45.750=2.000,
46.000=0.000,
46.500=2.000,
47.000=0.000,
47.500=2.000,
48.000=1.000,
71.000=2.000,
71.250=1.000,
71.500=0.500,
73.000=1.000,
102.000=2.000,
102.250=1.000,
102.500=0.500,
103.000=1.000,
112.000=0.000,
114.000=1.000,
116.000=0.000,
118.000=1.000,
121.500=0.000,
123.000=1.000,
140.000=0.000,
140.250=2.000,
140.500=0.000,
140.750=2.000,
141.000=0.000,
141.250=2.000,
141.500=0.000,
141.750=2.000,
142.000=0.000,
142.500=2.000,
143.000=0.000,
143.500=2.000,
144.000=1.000,
257.750=0.000,
257.938=4.000,
258.000=1.000,
273.000=0.500,
274.000=1.000,
289.000=0.500,
290.000=1.000,
304.500=0.500,
306.000=1.000;
#FAKES:;
#LABELS:0.000=Song Start;
#BGCHANGES:-2.000=WHA.mp4=1.000=1=0=1===CrossFade==,
99999=-nosongbg-=1.000=0=0=0 // don't automatically add -songbackground-
;
#KEYSOUNDS:;
#ATTACKS:
;

//---------------dance-single - ----------------
#NOTEDATA:;
#CHARTNAME:;
#STEPSTYPE:dance-single;
#DESCRIPTION:;
#CHARTSTYLE:;
#DIFFICULTY:Challenge;
#METER:19;
#RADARVALUES:1.222217,1.443137,0.696097,0.979392,1.408382,1057.000000,971.000000,86.000000,121.000000,9.000000,0.000000,0.000000,0.000000,0.000000,1.222217,1.443137,0.696097,0.979392,1.408382,1057.000000,971.000000,86.000000,121.000000,9.000000,0.000000,0.000000,0.000000,0.000000;
#CREDIT:;
#OFFSET:-1.855600;
#BPMS:0.000000=108.000000
,16.000000=216.000000
,208.000000=108.000000
,224.000000=216.000000
,256.000000=54.000000
,258.000000=216.000000
;
#STOPS:;
#DELAYS:;
#WARPS:;
#TIMESIGNATURES:0.000000=4=4
;
#TICKCOUNTS:0.000000=4
;
#COMBOS:0.000000=1
;
#SPEEDS:0.000000=1.000000=0.000000=0
;
#SCROLLS:0.000000=1.000000
,16.000000=0.000000
,18.000000=1.000000
,20.000000=0.000000
,22.000000=1.000000
,25.500000=0.000000
,27.000000=1.000000
,44.000000=0.000000
,44.250000=2.000000
,44.500000=0.000000
,44.750000=2.000000
,45.000000=0.000000
,45.250000=2.000000
,45.500000=0.000000
,45.750000=2.000000
,46.000000=0.000000
,46.500000=2.000000
,47.000000=0.000000
,47.500000=2.000000
,48.000000=1.000000
,71.000000=2.000000
,71.250000=1.000000
,71.500000=0.500000
,73.000000=1.000000
,102.000000=2.000000
,102.250000=1.000000
,102.500000=0.500000
,103.000000=1.000000
,112.000000=0.000000
,114.000000=1.000000
,116.000000=0.000000
,118.000000=1.000000
,121.500000=0.000000
,123.000000=1.000000
,140.000000=0.000000
,140.250000=2.000000
,140.500000=0.000000
,140.750000=2.000000
,141.000000=0.000000
,141.250000=2.000000
,141.500000=0.000000
,141.750000=2.000000
,142.000000=0.000000
,142.500000=2.000000
,143.000000=0.000000
,143.500000=2.000000
,144.000000=1.000000
,187.500000=2.000000
,187.750000=1.000000
,188.000000=0.500000
,188.500000=1.000000
,257.750000=0.000000
,257.937500=4.000000
,258.000000=1.000000
,273.000000=0.500000
,274.000000=1.000000
,289.000000=0.500000
,290.000000=1.000000
,304.500000=0.500000
,306.000000=1.000000
;
#FAKES:;
#LABELS:0.000000=Song Start
;
#DISPLAYBPM:108.000000:216.000000;
#NOTES:
// measure 0
0000
0000
0000
0000
,  // measure 1
0000
0000
0000
0000
,  // measure 2
1001
0000
0100
0010
0100
0000
1001
0000
0001
0010
0100
1000
0010
0100
0002
0000
,  // measure 3
2003
0000
0000
0000
3200
0000
0000
0000
0320
0000
0000
0000
0031
0000
1000
0010
1000
0000
0010
0000
0100
0000
0001
0010
0100
0000
1000
0000
0001
0000
0000
0000
,  // measure 4
2002
0000
0000
0000
0000
0000
0000
0000
0000
0000
0000
0000
0000
0000
0000
0000
0000
3003
0000
0000
0000
0000
0000
0000
0000
0000
0000
0000
0000
0000
0000
0000
,  // measure 5
0020
0000
0000
0000
0000
0000
0000
0000
0000
0000
0000
0000
0000
0000
0000
0000
0000
0030
0000
0000
0000
0000
0000
0000
0000
0000
0000
0000
0000
0000
0000
0000
,  // measure 6
1001
0000
0000
0000
0010
0000
0000
0000
0000
0000
0000
0000
2002
0000
0000
0000
0000
0000
0000
0000
0000
0000
0000
0000
0000
3003
0000
0000
0000
0000
0000
0000
,  // measure 7
0100
0000
0000
0000
0100
0000
1001
0000
0000
1001
0000
0000
1000
0010
1000
0010
,  // measure 8
0200
0000
0310
0000
1000
0000
0001
1000
0200
0000
0310
0000
0001
0000
1000
0001
,  // measure 9
0200
0000
0310
0000
1000
0000
0001
1000
0200
0000
0310
0000
0001
0000
1000
0001
,  // measure 10
1000
0010
1000
0010
0100
0001
1000
0000
0001
0010
0001
0010
0100
1000
0001
0000
,  // measure 11
2000
0000
0000
0000
0000
3000
0000
0000
0020
0000
0000
0000
0000
0030
0000
0000
2000
0000
0000
0000
0000
3000
0000
0000
0200
0000
0000
0000
0000
0300
0000
0000
0020
0000
0000
0000
0000
0000
0000
0000
0000
0030
0000
0000
0000
0000
0000
0000
0220
0000
0000
0000
0000
0000
0000
0000
0000
0330
0000
0000
0000
0000
0000
0000
,  // measure 12
1001
0000
0000
0000
0000
0000
0000
0000
0000
0000
0000
0000
1001
0000
0000
0000
0000
0000
0001
0000
0000
1000
0000
0000
0001
0000
0000
0000
0100
0000
00M0
0000
0100
0000
0000
0000
1000
0000
0000
0010
0000
0000
1000
0000
0000
0010
0000
0000
,  // measure 13
0100
0000
0001
1000
0100
0000
0010
0000
0001
0010
0100
1000
0002
0000
0003
0000
,  // measure 14
1001
0000
1001
0000
0001
1000
0010
1000
0100
0000
1000
0000
2002
0000
0000
0000
,  // measure 15
3003
0000
1001
0000
1010
0000
1000
0010
0100
0001
1000
0001
1000
0100
0010
0000
,  // measure 16
0011
0000
0000
0000
0000
0000
0000
0000
0000
0000
0000
0000
1000
0000
0000
0000
0010
0000
0M00
0000
0010
0000
0000
0000
0001
0000
0000
0000
0100
0000
00M0
0000
0100
0000
0000
0000
1000
0000
0000
0001
0000
0000
0100
0000
0000
0010
0000
0000
,  // measure 17
1000
0000
0010
1000
0100
0010
0100
0010
0001
0000
0000
0000
2002
0000
3003
0000
,  // measure 18
0000
0000
0000
0000
0000
0000
0000
0000
0000
0000
0000
0000
0001
0000
0000
0000
0010
0000
0M00
0000
0010
0000
0000
0000
1000
0000
0000
0010
0000
0000
0100
0000
0000
0001
0000
0000
1000
0000
0000
0000
0000
0000
0100
0000
0000
0000
0000
0000
,  // measure 19
0010
0001
0010
0001
1000
0001
0100
0000
0001
0010
0100
1000
0010
0100
0001
0000
,  // measure 20
1001
0000
0000
0000
0000
0000
0000
0000
0000
0000
0000
0000
1001
0000
0000
0000
0000
0000
1000
0000
0000
0001
0000
0000
1000
0000
0000
0000
0100
0000
00M0
0000
0100
0000
0000
0000
0001
0000
0000
0010
0000
0000
0001
0000
0000
0010
0000
0000
,  // measure 21
0100
0000
1000
0001
0100
0010
1000
0001
0100
0010
0100
0010
2000
0000
3000
0000
,  // measure 22
1001
0000
0000
1001
0000
0000
1001
0000
1000
0001
0010
0001
0200
0000
0000
0000
,  // measure 23
0300
0000
1001
0000
0011
0000
0001
0010
0100
1000
0001
1000
0001
0100
0010
0000
,  // measure 24
1010
0000
0000
0000
0010
1000
0001
1000
0100
0010
0001
0000
1000
0001
1000
0001
,  // measure 25
0010
0001
1000
0001
0100
0000
0010
0000
2002
0000
3003
0000
1000
0100
0010
0001
,  // measure 26
1000
0000
1100
0000
1000
0001
0100
0000
0101
0000
0001
0010
0100
0000
1100
0000
,  // measure 27
1000
0000
0000
0000
0010
0000
0000
0000
0100
0000
0000
0000
0000
0000
0000
0000
0101
0000
0000
0000
0000
0000
0000
0000
0001
0000
0000
0000
0010
0000
0000
0000
0100
0000
0000
0000
1000
0000
0000
0000
0002
0000
0000
0000
0000
0000
0000
0000
0203
0000
0000
0000
0000
0000
0000
0000
0320
0000
0000
0000
0000
0000
0000
0030
,  // measure 28
2002
0000
0000
0000
0000
0000
0000
0000
0000
0000
0000
0000
0000
0000
0000
0000
0000
3003
0000
0000
0000
0000
0000
0000
0000
0000
0000
0000
0000
0000
0000
0000
,  // measure 29
0020
0000
0000
0000
0000
0000
0000
0000
0000
0000
0000
0000
0000
0000
0000
0000
0000
0030
0000
0000
0000
0000
0000
0000
0000
0000
0000
0000
0000
0000
0000
0000
,  // measure 30
1001
0000
0000
0000
0010
0000
0000
0000
0000
0000
0000
0000
2002
0000
0000
0000
0000
0000
0000
0000
0000
0000
0000
0000
0000
3003
0000
0000
0000
0000
0000
0000
,  // measure 31
0100
0000
0000
0000
0100
0000
1001
0000
0000
1001
0000
0000
0001
0010
0001
0010
,  // measure 32
0200
0000
0310
0000
0001
0000
1000
0001
0200
0000
0310
0000
1000
0000
0001
1000
,  // measure 33
0200
0000
0310
0000
0001
0000
1000
0001
0200
0000
0310
0000
1000
0000
0001
1000
,  // measure 34
0001
0010
0001
0010
0100
1000
0001
0000
1000
0010
1000
0010
0100
0001
1000
0000
,  // measure 35
0002
0000
0000
0000
0000
0003
0000
0000
0020
0000
0000
0000
0000
0030
0000
0000
0002
0000
0000
0000
0000
0003
0000
0000
0200
0000
0000
0000
0000
0300
0000
0000
0020
0000
0000
0000
0000
0000
0000
0000
0000
0030
0000
0000
0000
0000
0000
0000
0220
0000
0000
0000
0000
0000
0000
0000
0000
0330
0000
0000
0000
0000
0000
0000
,  // measure 36
0002
0010
0000
2003
0010
0000
0001
0000
,  // measure 37
3100
0010
0001
1000
0001
0100
0010
0100
2000
0000
3002
0000
0023
0000
0130
0010
,  // measure 38
1000
2010
3000
0001
0012
0003
1000
2010
,  // measure 39
3001
0010
0100
0010
1000
0010
0100
0010
0001
1000
0000
0001
0200
0000
0310
0100
,  // measure 40
0001
1000
0002
0000
0000
0000
0013
0100
1000
0000
0001
0100
0020
0000
0000
0000
,  // measure 41
1030
0000
0001
1000
0001
0010
0100
0010
2000
0000
3002
0000
0203
0000
0310
0100
,  // measure 42
1000
0001
0200
0000
0300
0000
0110
0000
0010
0100
0001
1000
0200
0000
0300
0000
,  // measure 43
0010
0000
0000
0000
0001
0000
0000
0000
1000
0000
0000
0000
0010
0000
0000
1000
0000
0000
0001
0000
0000
0010
0000
0000
0002
0000
0000
0000
0000
0000
1003
0000
0000
0010
0000
0000
0100
0000
0000
0001
0000
0000
0010
0000
0000
0100
0000
0000
,  // measure 44
2000
0010
0000
3002
0010
0000
1000
0000
,  // measure 45
0103
0000
0001
0000
1000
0100
0010
0100
0002
0000
2003
0000
3020
0000
0130
0010
,  // measure 46
0001
0012
0003
1000
2010
3000
0001
0022
,  // measure 47
0033
0000
1000
0010
0100
0010
0001
0010
0100
0010
1000
0000
0010
1000
0010
1000
,  // measure 48
0200
0000
0310
0001
1000
0001
0200
0000
0310
1000
0001
1000
0200
0000
1300
0001
,  // measure 49
0010
0001
0200
0000
0301
1000
0010
1000
0200
0000
0310
0001
0100
0010
2000
0000
,  // measure 50
3010
1000
0100
0010
0002
0000
0103
0010
1000
0001
0020
0000
0031
1000
0001
1000
,  // measure 51
0001
0000
0101
0000
0100
0000
0110
0000
0010
0000
1010
0000
1000
0100
0010
0001
,  // measure 52
1000
0000
0000
0000
,  // measure 53
0000
0000
0000
0000
,  // measure 54
1001
0000
0100
0010
0100
0000
1001
0000
1000
0010
0100
0001
0010
0100
1000
0000
,  // measure 55
1010
0000
0000
0000
0011
0000
0000
0000
0101
0000
0000
0000
1100
0000
1000
0010
0100
0000
0001
0000
0001
0000
1000
0100
0010
0000
0100
0010
0001
1000
0010
0100
,  // measure 56
0001
0000
1000
0001
0010
0000
0100
1000
0001
0000
1000
0010
0100
0000
0010
0000
,  // measure 57
0110
0000
0000
0000
0101
0000
0000
0000
1100
0000
1000
0100
0010
0001
0010
0100
,  // measure 58
1000
0000
0001
1000
0010
0000
0100
0001
1000
0000
0001
0010
0100
0000
0010
0000
,  // measure 59
0110
0000
0000
0000
1100
0000
0001
0000
0101
0000
1000
0000
0001
0010
0100
1000
,  // measure 60
0002
0000
0103
0000
0020
0000
0130
0000
2000
0000
3100
0000
0020
0000
1030
0001
,  // measure 61
2000
0000
3100
0000
0020
0000
0130
0000
0002
0000
0103
0000
0020
0000
0031
1000
,  // measure 62
0001
0100
0010
0100
0010
1000
0001
0000
1000
0100
0010
0100
0010
0001
1000
0000
,  // measure 63
0001
0100
0001
0100
0010
1000
0010
1000
0001
0010
0001
0010
0100
1000
0100
1000
,  // measure 64
0001
0000
0000
0000
0000
0000
0000
2001
3010
1000
0010
1000
0001
1000
0100
1000
,  // measure 65
0100
1000
0001
1000
0010
1000
0010
1000
0001
1000
0100
1000
0100
1000
0001
1000
,  // measure 66
0010
0100
0010
1000
0200
0000
0320
0000
0031
1000
0010
0100
0001
1000
0100
1000
,  // measure 67
0100
0010
0001
1000
0010
1000
0001
0010
0001
1000
0001
0100
0010
1000
0100
1000
,  // measure 68
0010
0100
0001
1000
0200
0000
0000
0000
0310
0001
0010
0001
1000
0001
0100
0001
,  // measure 69
0100
0001
1000
0001
0010
0001
0010
0001
1000
0001
0100
0001
0100
0001
1000
0001
,  // measure 70
0010
0100
0010
0001
0200
0000
0320
0000
1030
0001
0010
0100
1000
0001
0100
0001
,  // measure 71
0100
0010
1000
0001
0010
0001
1000
0010
1000
0100
0010
0001
0100
0010
1000
0100
,  // measure 72
0010
0001
0100
0010
2000
0000
0000
0000
3001
0000
0011
0000
0011
0000
0001
0010
,  // measure 73
0100
0000
0010
0100
1000
0001
0100
0010
1000
0000
1010
0000
1010
0000
1000
0010
,  // measure 74
0100
0001
0010
0100
1000
0001
0100
0010
1000
0000
1002
0000
0103
0000
2001
0000
,  // measure 75
3100
0000
1002
0000
0103
0010
0100
0010
1000
0000
0010
0100
0001
1000
0100
0010
,  // measure 76
0100
0010
0002
0000
0000
0000
0003
0000
1001
0000
1001
0000
1000
0001
1000
0001
,  // measure 77
0010
0001
0100
0000
0010
1000
0100
0010
0001
0000
1000
0001
0100
0010
0100
0010
,  // measure 78
1000
0000
0000
0001
0000
0000
0100
0000
0000
0001
0000
0000
0010
0000
0000
0100
0000
0000
1000
0000
0000
0001
0000
0000
1000
0000
0000
0000
0010
0000
0M00
0000
0010
0000
0000
0000
0001
0000
0000
0000
0100
0000
00M0
0000
0100
0000
0000
0000
,  // measure 79
1000
0000
0000
0000
0010
0000
0M00
0000
0010
0000
0000
0000
0001
0000
0000
0000
0100
0000
00M0
0000
0100
0000
0000
0000
1000
0000
0000
0010
0000
0000
1000
0000
0000
0010
0000
0000
0100
0000
0000
0001
0000
0000
1000
0000
0000
0001
0000
0000
,  // measure 80
0020
0000
0000
0000
0130
0000
0110
0000
1001
0000
1000
0010
0100
0000
0010
1000
,  // measure 81
0100
0000
1000
0010
0100
0000
0020
0000
2030
0000
3001
0010
0002
0000
1003
0010
,  // measure 82
2000
0000
3001
0000
1000
0100
0010
0001
1000
0000
0001
0100
0010
0000
0100
0001
,  // measure 83
0010
0000
0100
1000
0010
0000
0200
0000
0302
0000
1003
0100
0010
0100
0001
0100
,  // measure 84
0001
0100
0010
0100
1000
0001
0100
0010
1000
0000
0001
0010
0100
0000
0010
0001
,  // measure 85
0100
0000
0001
0010
0100
0000
0020
0000
0032
0000
1003
0010
2000
0000
3001
0010
,  // measure 86
0002
0000
1003
0000
0001
0100
0010
0100
1000
0000
1100
0000
0000
0000
0101
0000
,  // measure 87
0000
0000
1001
0000
1000
0100
0010
0100
0001
0000
0000
0101
0000
0000
1100
0000
,  // measure 88
0011
0000
2000
0000
0000
0000
0000
0000
3001
0100
0010
0000
0100
0001
0010
0000
,  // measure 89
0100
0010
0001
0100
0010
0000
1000
0000
1010
0000
0001
0000
0011
0000
1000
0000
,  // measure 90
2002
0000
3003
0000
1000
0010
0100
0001
1000
0100
0010
0000
0100
1000
0010
0000
,  // measure 91
0100
0010
1000
0100
0010
0000
0001
0000
0011
0000
0000
1001
0000
0000
1010
0000
,  // measure 92
0102
0000
0000
0000
0000
0000
0000
0000
1003
0100
0010
0001
1000
0100
0010
0100
,  // measure 93
0001
0100
0001
0100
2000
0000
0000
0000
3001
0100
0010
1000
0001
0100
0010
0100
,  // measure 94
1000
0100
1000
0100
0002
0000
0000
0000
1003
0100
0010
0001
1000
0001
0100
0010
,  // measure 95
1000
0000
1010
0000
0001
0000
0011
0000
1000
0000
0010
1000
0100
0000
0020
0000
,  // measure 96
0000
0130
2002
3003
0000
0000
0000
0000
;

//---------------dance-single - ----------------
#NOTEDATA:;
#CHARTNAME:;
#STEPSTYPE:dance-single;
#DESCRIPTION:;
#CHARTSTYLE:;
#DIFFICULTY:Medium;
#METER:15;
#RADARVALUES:0.760850,1.051734,0.647532,1.027957,0.064753,658.000000,578.000000,80.000000,127.000000,0.000000,0.000000,0.000000,0.000000,0.000000,0.760850,1.051734,0.647532,1.027957,0.064753,658.000000,578.000000,80.000000,127.000000,0.000000,0.000000,0.000000,0.000000,0.000000;
#CREDIT:;
#OFFSET:-1.855600;
#BPMS:0.000000=108.000000
,16.000000=216.000000
,208.000000=108.000000
,224.000000=216.000000
,256.000000=54.000000
,258.000000=216.000000
;
#STOPS:;
#DELAYS:;
#WARPS:;
#TIMESIGNATURES:0.000000=4=4
;
#TICKCOUNTS:0.000000=4
;
#COMBOS:0.000000=1
;
#SPEEDS:0.000000=1.000000=0.000000=0
;
#SCROLLS:0.000000=1.000000
,16.000000=0.000000
,18.000000=1.000000
,20.000000=0.000000
,22.000000=1.000000
,25.500000=0.000000
,27.000000=1.000000
,44.000000=0.000000
,44.250000=2.000000
,44.500000=0.000000
,44.750000=2.000000
,45.000000=0.000000
,45.250000=2.000000
,45.500000=0.000000
,45.750000=2.000000
,46.000000=0.000000
,46.500000=2.000000
,47.000000=0.000000
,47.500000=2.000000
,48.000000=1.000000
,71.000000=2.000000
,71.250000=1.000000
,71.500000=0.500000
,73.000000=1.000000
,102.000000=2.000000
,102.250000=1.000000
,102.500000=0.500000
,103.000000=1.000000
,112.000000=0.000000
,114.000000=1.000000
,116.000000=0.000000
,118.000000=1.000000
,121.500000=0.000000
,123.000000=1.000000
,140.000000=0.000000
,140.250000=2.000000
,140.500000=0.000000
,140.750000=2.000000
,141.000000=0.000000
,141.250000=2.000000
,141.500000=0.000000
,141.750000=2.000000
,142.000000=0.000000
,142.500000=2.000000
,143.000000=0.000000
,143.500000=2.000000
,144.000000=1.000000
,187.500000=2.000000
,187.750000=1.000000
,188.000000=0.500000
,188.500000=1.000000
,257.750000=0.000000
,257.937500=4.000000
,258.000000=1.000000
,273.000000=0.500000
,274.000000=1.000000
,289.000000=0.500000
,290.000000=1.000000
,304.500000=0.500000
,306.000000=1.000000
;
#FAKES:;
#LABELS:0.000000=Song Start
;
#DISPLAYBPM:108.000000:216.000000;
#NOTES:
// measure 0
0000
0000
0000
0000
,  // measure 1
0000
0000
0000
0000
,  // measure 2
1001
0000
0001
0010
0001
0000
1001
0000
1000
0010
1000
0000
1010
0000
0101
0000
,  // measure 3
0002
0000
0023
0000
0230
0000
2300
0000
3001
0100
0010
0100
1000
0000
0110
0000
,  // measure 4
2002
0000
0000
0000
0000
0000
0000
0000
0000
0000
0000
0000
0000
0000
0000
0000
0000
3003
0000
0000
0000
0000
0000
0000
0000
0000
0000
0000
0000
0000
0000
0000
,  // measure 5
0020
0000
0000
0000
0000
0000
0000
0000
0000
0000
0000
0000
0000
0000
0000
0000
0000
0030
0000
0000
0000
0000
0000
0000
0000
0000
0000
0000
0000
0000
0000
0000
,  // measure 6
1001
0000
0000
0000
0000
0000
0000
0000
0000
0000
0000
0000
2002
0000
0000
0000
0000
0000
0000
0000
0000
0000
0000
0000
0000
3003
0000
0000
0000
0000
0000
0000
,  // measure 7
0100
0000
0000
0000
0100
0000
1001
0000
0000
1001
0000
0000
1000
0000
0001
0000
,  // measure 8
0011
0001
1000
0000
1010
1000
0001
0000
,  // measure 9
0011
0001
1000
0000
1010
1000
0001
0000
,  // measure 10
2000
3100
0010
0100
0002
0103
0010
0100
,  // measure 11
2000
0000
0000
0000
0000
3000
0000
0000
0002
0000
0000
0000
0000
0003
0000
0000
2000
0000
0000
0000
0000
3000
0000
0000
0002
0000
0000
0000
0000
0003
0000
0000
2000
0000
0000
0000
0000
0000
0000
0000
0000
3000
0000
0000
0000
0000
0000
0000
0002
0000
0000
0000
0000
0000
0000
0000
0000
0003
0000
0000
0000
0000
0000
0000
,  // measure 12
1001
0000
1001
1000
0010
0100
0010
0001
,  // measure 13
0000
0010
0100
0010
1000
0000
2010
0000
,  // measure 14
3001
0001
1000
0100
0010
0100
0002
0203
,  // measure 15
0320
0230
2300
0000
0001
0000
3010
0000
,  // measure 16
0210
0000
1300
0100
0001
0010
1000
0000
,  // measure 17
0010
0100
0010
0001
2000
0000
0002
3003
,  // measure 18
0000
0000
0001
0100
1000
0100
0001
0000
,  // measure 19
1000
0100
0010
0001
0100
0010
1000
0000
,  // measure 20
1001
0000
1001
0001
0010
0100
0010
1000
,  // measure 21
0000
0010
0100
0010
0001
0000
0012
0000
,  // measure 22
1003
0000
0000
0001
0000
0000
0100
0000
0010
0000
0100
0000
2000
0000
3200
0000
,  // measure 23
0320
0230
0302
0000
1000
0000
0013
0000
,  // measure 24
0210
0000
0301
0100
1000
0010
0001
0000
,  // measure 25
0010
1000
0010
0000
2002
0000
3003
0000
,  // measure 26
0002
0010
0000
2003
0100
0000
3002
0100
,  // measure 27
0000
2003
0010
0000
3001
0110
0000
0000
,  // measure 28
2002
0000
0000
0000
0000
0000
0000
0000
0000
0000
0000
0000
0000
0000
0000
0000
0000
3003
0000
0000
0000
0000
0000
0000
0000
0000
0000
0000
0000
0000
0000
0000
,  // measure 29
0020
0000
0000
0000
0000
0000
0000
0000
0000
0000
0000
0000
0000
0000
0000
0000
0000
0030
0000
0000
0000
0000
0000
0000
0000
0000
0000
0000
0000
0000
0000
0000
,  // measure 30
1001
0000
0000
0000
0000
0000
0000
0000
0000
0000
0000
0000
2002
0000
0000
0000
0000
0000
0000
0000
0000
0000
0000
0000
0000
3003
0000
0000
0000
0000
0000
0000
,  // measure 31
0100
0000
0000
0000
0100
0000
1001
0000
0000
1001
0000
0000
0001
0000
1000
0000
,  // measure 32
1010
1000
0001
0000
0011
0001
1000
0000
,  // measure 33
1010
1000
0001
0000
0011
0001
1000
0000
,  // measure 34
0002
0103
0010
0100
2000
3100
0010
0100
,  // measure 35
0002
0000
0000
0000
0000
0003
0000
0000
2000
0000
0000
0000
0000
3000
0000
0000
0002
0000
0000
0000
0000
0003
0000
0000
2000
0000
0000
0000
0000
3000
0000
0000
0002
0000
0000
0000
0000
0000
0000
0000
0000
0003
0000
0000
0000
0000
0000
0000
2000
0000
0000
0000
0000
0000
0000
0000
0000
3000
0000
0000
0000
0000
0000
0000
,  // measure 36
0002
0010
0000
2003
0010
0000
3100
0000
,  // measure 37
0010
0100
0010
0100
0002
0203
2300
3000
,  // measure 38
0001
0012
0000
1003
2010
0000
3001
0010
,  // measure 39
0100
1000
0001
0100
0010
0000
0110
0000
,  // measure 40
2000
0001
0000
3100
0010
0002
1000
0000
,  // measure 41
0103
0010
0100
0010
0002
0023
2030
3000
,  // measure 42
0010
2001
0000
3100
0010
0100
1002
0000
,  // measure 43
0203
0000
0302
0000
0013
0001
1001
0000
,  // measure 44
2000
0010
0000
3002
0010
0000
0103
0000
,  // measure 45
0010
0100
0010
0100
2000
3200
0302
0003
,  // measure 46
1000
2010
0000
3001
0012
0000
1003
0020
,  // measure 47
0000
1030
0001
0010
1000
0010
0001
0000
,  // measure 48
2001
0000
3010
2010
0000
3001
1002
0000
,  // measure 49
0013
0012
0000
1003
1020
0000
0130
0102
,  // measure 50
0000
0013
0021
0000
0130
2100
0000
3001
,  // measure 51
1000
0010
0100
0001
0010
0100
0001
0100
,  // measure 52
1000
0000
0000
0000
,  // measure 53
0000
0000
0000
0000
,  // measure 54
1001
0000
1000
0010
1000
0000
1001
0000
0001
0010
0001
0000
0011
0000
1100
0000
,  // measure 55
2000
0000
3020
0000
0230
0000
0302
0000
1003
0100
0010
0001
0100
0010
1000
0000
,  // measure 56
0001
0010
0001
1000
0001
0100
0001
0010
,  // measure 57
0011
0000
1010
0000
0011
0010
0200
0000
,  // measure 58
1300
0010
1000
0001
1000
0100
1000
0010
,  // measure 59
1010
0000
0011
0000
1010
0010
0200
0302
,  // measure 60
1003
1100
0001
0101
,  // measure 61
1000
1010
0001
0011
,  // measure 62
2000
3010
0100
0010
0002
0013
0100
0010
,  // measure 63
2000
3002
0023
2030
3020
0032
2003
3020
,  // measure 64
0130
0000
0000
0000
0000
0000
0000
1001
0001
0000
0010
0000
1000
0000
0001
0000
,  // measure 65
0100
1000
0001
0010
1000
0001
0100
1000
,  // measure 66
0001
0010
0200
0301
0100
0010
0001
1000
,  // measure 67
0010
0001
1000
0100
0001
0010
0100
1000
,  // measure 68
0010
0100
0002
0000
1003
0010
0001
1000
,  // measure 69
0100
0001
1000
0010
0001
1000
0100
0001
,  // measure 70
1000
0010
0200
1300
0100
0010
1000
0001
,  // measure 71
0010
1000
0001
0100
1000
0010
0100
0001
,  // measure 72
0010
0100
2000
0000
3001
0100
0010
0100
,  // measure 73
2000
0000
3000
0200
0000
0300
0001
0000
1000
0000
0001
0000
1000
0000
0100
0000
,  // measure 74
0002
0203
2300
3000
0001
1000
0010
1000
,  // measure 75
0010
1000
0010
0100
0001
1000
0100
0010
,  // measure 76
0100
2002
3003
0000
1000
0010
0001
0010
,  // measure 77
0100
0010
1000
1000
0001
0010
1000
0010
,  // measure 78
0100
0010
0001
1000
0002
0000
0203
0000
,  // measure 79
0320
0000
2030
0000
3100
0010
0100
0010
,  // measure 80
0002
0000
1003
0000
0001
0100
0010
0100
,  // measure 81
0001
0010
0100
0010
0011
0000
1010
0000
,  // measure 82
0011
0001
1000
0010
1000
0100
0010
0100
,  // measure 83
1000
0010
0100
0010
1010
0000
0011
0000
,  // measure 84
1010
1000
0100
0010
0001
0100
1000
0100
,  // measure 85
0001
0010
1000
0010
0001
0100
0010
1000
,  // measure 86
1010
0000
0101
0000
1002
0000
0013
0210
,  // measure 87
0000
0000
1300
0000
2001
0000
0000
0000
3010
0000
0000
0100
0000
0000
0001
0000
,  // measure 88
1000
0200
0000
0000
0310
0100
0001
0100
,  // measure 89
0010
0100
0001
0100
1100
0000
0011
0000
,  // measure 90
0001
0010
0200
2300
3010
0100
1000
0100
,  // measure 91
0010
0000
0100
0000
1000
0000
0100
0000
0101
0000
0000
1010
0000
0000
1000
0000
,  // measure 92
0001
0020
0000
0000
1030
0010
1000
0010
,  // measure 93
0001
0100
2000
0000
3001
0010
0001
0010
,  // measure 94
1000
0100
0002
0000
1003
0010
0100
0010
,  // measure 95
0001
0001
1000
1000
0001
0100
0010
0200
,  // measure 96
0000
1300
0000
0000
;

//---------------dance-single - ----------------
#NOTEDATA:;
#CHARTNAME:;
#STEPSTYPE:dance-single;
#DESCRIPTION:;
#CHARTSTYLE:;
#DIFFICULTY:Hard;
#METER:18;
#RADARVALUES:1.023332,1.131107,0.558496,1.254593,0.886310,885.000000,816.000000,69.000000,155.000000,0.000000,0.000000,0.000000,0.000000,0.000000,1.023332,1.131107,0.558496,1.254593,0.886310,885.000000,816.000000,69.000000,155.000000,0.000000,0.000000,0.000000,0.000000,0.000000;
#CREDIT:;
#OFFSET:-1.855600;
#BPMS:0.000000=108.000000
,16.000000=216.000000
,208.000000=108.000000
,224.000000=216.000000
,256.000000=54.000000
,258.000000=216.000000
;
#STOPS:;
#DELAYS:;
#WARPS:;
#TIMESIGNATURES:0.000000=4=4
;
#TICKCOUNTS:0.000000=4
;
#COMBOS:0.000000=1
;
#SPEEDS:0.000000=1.000000=0.000000=0
;
#SCROLLS:0.000000=1.000000
,16.000000=0.000000
,18.000000=1.000000
,20.000000=0.000000
,22.000000=1.000000
,25.500000=0.000000
,27.000000=1.000000
,44.000000=0.000000
,44.250000=2.000000
,44.500000=0.000000
,44.750000=2.000000
,45.000000=0.000000
,45.250000=2.000000
,45.500000=0.000000
,45.750000=2.000000
,46.000000=0.000000
,46.500000=2.000000
,47.000000=0.000000
,47.500000=2.000000
,48.000000=1.000000
,71.000000=2.000000
,71.250000=1.000000
,71.500000=0.500000
,73.000000=1.000000
,102.000000=2.000000
,102.250000=1.000000
,102.500000=0.500000
,103.000000=1.000000
,112.000000=0.000000
,114.000000=1.000000
,116.000000=0.000000
,118.000000=1.000000
,121.500000=0.000000
,123.000000=1.000000
,140.000000=0.000000
,140.250000=2.000000
,140.500000=0.000000
,140.750000=2.000000
,141.000000=0.000000
,141.250000=2.000000
,141.500000=0.000000
,141.750000=2.000000
,142.000000=0.000000
,142.500000=2.000000
,143.000000=0.000000
,143.500000=2.000000
,144.000000=1.000000
,187.500000=2.000000
,187.750000=1.000000
,188.000000=0.500000
,188.500000=1.000000
,257.750000=0.000000
,257.937500=4.000000
,258.000000=1.000000
,273.000000=0.500000
,274.000000=1.000000
,289.000000=0.500000
,290.000000=1.000000
,304.500000=0.500000
,306.000000=1.000000
;
#FAKES:;
#LABELS:0.000000=Song Start
;
#DISPLAYBPM:108.000000:216.000000;
#NOTES:
// measure 0
0000
0000
0000
0000
,  // measure 1
0000
0000
0000
0000
,  // measure 2
1001
0000
0100
0010
0100
0000
1001
0000
1000
0010
0100
0001
0010
0100
2000
0000
,  // measure 3
3002
0000
0203
0000
0320
0000
0230
0000
1300
0100
0010
1000
0001
0010
0100
0000
,  // measure 4
2002
0000
0000
0000
0000
0000
0000
0000
0000
0000
0000
0000
0000
0000
0000
0000
0000
3003
0000
0000
0000
0000
0000
0000
0000
0000
0000
0000
0000
0000
0000
0000
,  // measure 5
0020
0000
0000
0000
0000
0000
0000
0000
0000
0000
0000
0000
0000
0000
0000
0000
0000
0030
0000
0000
0000
0000
0000
0000
0000
0000
0000
0000
0000
0000
0000
0000
,  // measure 6
1001
0000
0000
0000
0000
0000
0000
0000
0000
0000
0000
0000
2002
0000
0000
0000
0000
0000
0000
0000
0000
0000
0000
0000
0000
3003
0000
0000
0000
0000
0000
0000
,  // measure 7
0100
0000
0000
0000
0100
0000
1001
0000
0000
1001
0000
0000
1000
0010
1000
0010
,  // measure 8
0200
0000
0301
0000
0010
0000
0100
0010
0200
0000
1300
0000
0010
0000
0100
0010
,  // measure 9
0200
0000
0301
0000
0010
0000
0100
0010
0200
0000
1300
0000
0010
0000
0100
0001
,  // measure 10
2000
0000
3001
0010
0001
0010
0001
0000
2000
0000
3001
0100
0001
0100
0001
0000
,  // measure 11
2000
0000
0000
0000
0000
3000
0000
0000
0020
0000
0000
0000
0000
0030
0000
0000
2000
0000
0000
0000
0000
3000
0000
0000
0200
0000
0000
0000
0000
0300
0000
0000
0020
0000
0000
0000
0000
0000
0000
0000
0000
0030
0000
0000
0000
0000
0000
0000
0220
0000
0000
0000
0000
0000
0000
0000
0000
0330
0000
0000
0000
0000
0000
0000
,  // measure 12
1001
0000
0000
0000
0000
0000
0000
0000
0000
0000
0000
0000
1001
0000
0000
0000
0000
0000
1000
0000
0000
0001
0000
0000
1000
0000
0000
0000
0010
0000
0000
0000
0100
0000
0000
0000
0002
0000
0000
0000
0000
0000
1000
0000
0000
0000
0000
0000
,  // measure 13
0000
0000
0013
0100
0010
0000
0100
0000
1000
0010
1000
0010
0200
0000
0300
0000
,  // measure 14
1001
0000
1001
0000
1000
0000
0001
1000
0001
0000
0010
0000
0200
0000
0000
0000
,  // measure 15
0000
0000
1300
0000
1100
0000
0001
0100
0001
0100
0010
0000
1000
0100
0010
0000
,  // measure 16
0011
0000
0000
0000
0000
0000
0001
0000
0100
0000
0010
0000
1000
0000
0100
0000
0010
0000
0002
0000
0000
1000
0000
0000
,  // measure 17
0000
0000
0103
0010
0100
0000
0010
1000
0001
0000
0000
0000
2002
0000
3003
0000
,  // measure 18
0000
0000
0000
0000
0000
0000
0000
0000
0000
0000
0000
0000
1000
0000
0000
0000
0100
0000
0000
0000
0010
0000
0000
0000
0001
0000
0000
1000
0000
0000
0001
0000
0000
1000
0000
0000
0010
0000
0000
0000
0000
0000
0100
0000
0000
0000
0000
0000
,  // measure 19
0001
1000
0100
1000
0001
0000
0100
0000
0020
0000
0000
0000
0130
0000
0010
0000
,  // measure 20
1001
0000
0000
0000
0000
0000
0000
0000
0000
0000
0000
0000
1001
0000
0000
0000
0000
0000
0001
0000
0000
1000
0000
0000
0001
0000
0000
0000
0010
0000
0000
0000
0100
0000
0000
0000
2000
0000
0000
0000
0000
0000
0001
0000
0000
0000
0000
0000
,  // measure 21
0000
0000
3010
0100
0010
0000
0100
0000
0001
0010
0001
0010
0200
0000
0300
0000
,  // measure 22
1001
0000
0000
1001
0000
0000
1001
0000
0001
0100
0010
0000
0200
0000
0000
0000
,  // measure 23
0000
0000
0301
0000
0101
0000
1000
0100
1000
0100
0010
0000
0001
0100
0010
0000
,  // measure 24
1010
0000
0000
0000
1000
0010
1000
0000
0001
0010
0001
0000
2000
0000
0000
0000
,  // measure 25
3010
0100
0001
1000
0100
0000
0010
0000
0220
0000
0000
0000
0330
0000
0000
0000
,  // measure 26
0011
1001
0000
1010
1001
0000
1100
1001
,  // measure 27
0000
0000
0101
0000
1001
0000
0000
0000
0100
0010
0200
0000
0000
0000
0300
0000
,  // measure 28
2002
0000
0000
0000
0000
0000
0000
0000
0000
0000
0000
0000
0000
0000
0000
0000
0000
3003
0000
0000
0000
0000
0000
0000
0000
0000
0000
0000
0000
0000
0000
0000
,  // measure 29
0020
0000
0000
0000
0000
0000
0000
0000
0000
0000
0000
0000
0000
0000
0000
0000
0000
0030
0000
0000
0000
0000
0000
0000
0000
0000
0000
0000
0000
0000
0000
0000
,  // measure 30
1001
0000
0000
0000
0000
0000
0000
0000
0000
0000
0000
0000
2002
0000
0000
0000
0000
0000
0000
0000
0000
0000
0000
0000
0000
3003
0000
0000
0000
0000
0000
0000
,  // measure 31
0100
0000
0000
0000
0100
0000
1001
0000
0000
1001
0000
0000
0001
0010
0001
0010
,  // measure 32
0200
0000
1300
0000
0010
0000
0100
0010
0200
0000
0301
0000
0010
0000
0100
0010
,  // measure 33
0200
0000
1300
0000
0010
0000
0100
0010
0200
0000
0301
0000
0010
0000
0100
1000
,  // measure 34
0002
0000
1003
0010
1000
0010
1000
0000
0002
0000
1003
0100
1000
0100
1000
0000
,  // measure 35
0002
0000
0000
0000
0000
0003
0000
0000
0020
0000
0000
0000
0000
0030
0000
0000
0002
0000
0000
0000
0000
0003
0000
0000
0200
0000
0000
0000
0000
0300
0000
0000
0020
0000
0000
0000
0000
0000
0000
0000
0000
0030
0000
0000
0000
0000
0000
0000
0220
0000
0000
0000
0000
0000
0000
0000
0000
0330
0000
0000
0000
0000
0000
0000
,  // measure 36
2000
0010
0000
3002
0010
0000
1000
0000
,  // measure 37
0103
0010
1000
0010
0100
0000
0001
0000
0020
0000
0230
0000
0302
0000
0103
0000
,  // measure 38
0010
0012
0000
1003
1002
0000
0103
0102
,  // measure 39
1003
0001
1000
0001
0010
0000
0100
0000
0010
0001
0000
1000
0010
0000
0100
0000
,  // measure 40
0002
1000
0000
0013
0100
2000
0001
0000
,  // measure 41
3010
0000
0100
0001
1000
0000
0001
1000
0200
0000
0320
0000
2030
0000
3020
0000
,  // measure 42
0130
0010
0002
0000
0000
0000
1003
0000
1000
0001
0100
0010
2000
0000
0000
0000
,  // measure 43
3001
0000
0000
0000
0010
0000
0000
0000
0100
0000
0000
0000
1000
0000
0000
0001
0000
0000
1000
0000
0000
0001
0000
0000
0100
0000
0000
0000
0000
0000
0010
0000
0000
0000
0000
0000
1010
0000
0000
0000
0000
0000
0000
0000
0000
0000
0000
0000
,  // measure 44
0002
0010
0000
2003
0010
0000
0001
0000
,  // measure 45
3100
0000
0010
0000
0001
1000
0001
0100
0020
0000
0230
0000
2300
0000
3100
0000
,  // measure 46
0010
2010
0000
3001
2001
0000
3100
2200
,  // measure 47
3300
0000
1001
0000
0001
1000
0001
1000
0010
0000
0100
0000
0010
1000
0100
0010
,  // measure 48
0002
0000
0000
0000
0013
0001
2000
0000
0000
0000
3010
1000
0002
0000
0000
0000
,  // measure 49
0013
0001
0200
0000
0000
0000
0310
1000
0200
0000
0000
0000
0310
0001
2000
0000
,  // measure 50
0000
0000
3010
0100
0002
0000
0000
0000
1003
0100
0020
0000
0000
0000
0130
1000
,  // measure 51
0001
0000
0100
0000
0010
0000
0100
0000
1000
0000
0100
0000
0010
0100
0001
1000
,  // measure 52
0100
0000
0000
0000
,  // measure 53
0000
0000
0000
0000
,  // measure 54
1001
0000
0100
0010
0100
0000
1001
0000
0001
0010
0100
1000
0010
0100
0002
0000
,  // measure 55
2003
0000
3200
0000
0320
0000
0230
0000
0301
0100
0010
0001
1000
0010
0100
0001
,  // measure 56
1000
0000
0001
0010
0001
0000
1000
0010
1000
0000
0001
0100
0001
0000
1000
0000
,  // measure 57
1100
0000
0101
0000
0011
0010
2100
0000
,  // measure 58
3001
0000
1000
0010
1000
0000
0001
0010
0001
0000
1000
0100
1000
0000
0001
0000
,  // measure 59
0101
0000
1001
0100
0010
0100
1001
0000
,  // measure 60
2000
0000
3100
0000
0020
0000
0130
0000
0002
0000
0103
0000
2000
0000
3001
1000
,  // measure 61
0002
0000
0103
0000
0020
0000
0130
0000
2000
0000
3100
0000
0002
0000
1003
0001
,  // measure 62
1000
0000
0001
0010
0100
0010
0001
0000
1000
0000
0001
0100
0010
0100
0001
0000
,  // measure 63
2000
3200
0302
2003
3020
0032
2003
3002
,  // measure 64
0103
0000
0000
0000
0000
0000
0000
2001
3010
1000
0010
1000
0010
0000
0100
0010
,  // measure 65
0100
0010
0100
0000
0001
0100
0001
0100
0001
0000
1000
0001
1000
0001
1000
0000
,  // measure 66
0001
0010
0100
1000
0002
0000
1003
0010
1000
0010
0100
0000
0001
0010
0001
0010
,  // measure 67
0100
0000
1000
0001
1000
0001
0100
0000
0010
0000
0100
0000
1000
0000
0001
0000
,  // measure 68
0010
0000
1000
0000
0002
0000
0000
0000
0013
0001
0010
0001
0010
0000
0100
0010
,  // measure 69
0100
0010
0100
0000
1000
0100
1000
0100
1000
0000
0001
1000
0001
1000
0001
0000
,  // measure 70
1000
0010
0100
0001
2000
0000
3001
0010
0001
0010
0100
0000
1000
0010
1000
0010
,  // measure 71
0100
0000
0001
1000
0001
1000
0100
0000
0010
0000
0100
0000
0001
0000
1000
0000
,  // measure 72
0010
0001
2000
0000
3001
0001
0100
0100
,  // measure 73
0010
0000
0010
0000
1000
0010
0100
0001
1000
0000
1000
0000
0100
0000
0100
0000
,  // measure 74
0010
0001
0010
0001
1000
0010
1000
0010
0100
0000
0100
0000
0001
1000
0100
0000
,  // measure 75
1000
0001
0100
0000
0001
1000
0100
0010
0100
0000
0010
0000
0001
0010
0100
1000
,  // measure 76
0001
0000
0200
0000
0000
0000
0000
0000
0310
0000
0010
0000
0100
0010
1000
0000
,  // measure 77
0100
0010
0001
0000
1000
0001
1000
0001
1000
0000
0001
0100
0010
0100
0001
0000
,  // measure 78
1000
0000
0000
0100
0000
0000
0010
0000
0000
0100
0000
0000
1000
0000
0000
0000
0000
0000
0001
0000
0000
0000
0000
0000
1000
0000
0000
0000
0010
0000
0000
0000
0100
0000
0000
0000
0001
0000
0000
0000
0010
0000
0000
0000
0100
0000
0000
0000
,  // measure 79
1000
0000
0000
0000
0010
0000
0000
0000
0100
0000
0000
0000
0001
0000
0000
0000
0010
0000
0000
0000
0100
0000
0000
0000
1000
0000
0000
0010
0000
0000
0100
0000
0000
0001
0000
0000
1000
0000
0000
0000
0000
0000
0100
0000
0000
0000
0000
0000
,  // measure 80
0020
0000
0130
0110
1001
2000
3010
0200
,  // measure 81
0310
0000
0002
0000
0013
0000
0200
0000
0320
0000
1030
0010
2000
0000
3001
0010
,  // measure 82
0002
0000
1003
0000
0001
0100
0010
0100
0001
0000
2000
0000
3100
0000
0020
0000
,  // measure 83
0130
0000
0002
0000
0103
0000
0020
0000
0230
0000
1300
0001
0100
0010
1000
0000
,  // measure 84
0001
0010
0100
1000
0001
0000
1000
0010
0100
0000
0002
0000
0013
0000
0200
0000
,  // measure 85
0310
0000
2000
0000
3010
0000
0200
0000
0320
0000
0031
0010
0002
0000
1003
0010
,  // measure 86
2000
0000
3001
0000
1000
0100
0010
0100
1000
0000
1100
0000
0000
0000
0011
0000
,  // measure 87
0000
0000
1001
0000
0001
0100
0010
0100
0001
0000
0000
0101
0000
0000
1010
0000
,  // measure 88
1001
0200
0000
0300
1001
2000
3100
0020
,  // measure 89
0130
0000
0002
0000
2003
0000
3010
0000
0002
0000
1003
0010
2000
0000
3001
0010
,  // measure 90
0002
0000
0000
0000
0103
0001
1000
0001
0010
0000
0002
0000
0103
0000
0020
0000
,  // measure 91
0130
0000
2000
0000
3002
0000
0013
0000
1000
0000
0000
1010
0000
0000
1001
0000
,  // measure 92
1200
0000
0000
0000
0000
0000
0000
0000
0310
0001
0010
0001
1000
0001
1000
0001
,  // measure 93
0010
0001
1000
0001
0200
0000
0000
0000
0310
1000
0010
1000
0001
1000
0001
1000
,  // measure 94
0010
1000
0001
1000
0200
0000
0000
0000
1300
0100
0010
0001
1000
0001
0100
0010
,  // measure 95
1000
0000
0010
0000
0100
0000
0001
0000
2001
0000
3100
0010
0100
0000
0020
0000
,  // measure 96
0000
0130
2002
3003
0000
0000
0000
0000
;

//---------------dance-single - ----------------
#NOTEDATA:;
#CHARTNAME:;
#STEPSTYPE:dance-single;
#DESCRIPTION:;
#CHARTSTYLE:;
#DIFFICULTY:Easy;
#METER:13;
#RADARVALUES:0.604749,0.861420,0.518026,0.817509,0.020235,523.000000,459.000000,64.000000,101.000000,0.000000,0.000000,0.000000,0.000000,0.000000,0.604749,0.861420,0.518026,0.817509,0.020235,523.000000,459.000000,64.000000,101.000000,0.000000,0.000000,0.000000,0.000000,0.000000;
#CREDIT:;
#OFFSET:-1.855600;
#BPMS:0.000000=108.000000
,16.000000=216.000000
,208.000000=108.000000
,224.000000=216.000000
,256.000000=108.000000
,260.000000=216.000000
;
#STOPS:;
#DELAYS:;
#WARPS:;
#TIMESIGNATURES:0.000000=4=4
;
#TICKCOUNTS:0.000000=4
;
#COMBOS:0.000000=1
;
#SPEEDS:0.000000=1.000000=0.000000=0
;
#SCROLLS:0.000000=1.000000
,16.000000=0.000000
,18.000000=1.000000
,20.000000=0.000000
,22.000000=1.000000
,25.500000=0.000000
,27.000000=1.000000
,112.000000=0.000000
,114.000000=1.000000
,116.000000=0.000000
,118.000000=1.000000
,121.500000=0.000000
,123.000000=1.000000
;
#FAKES:;
#LABELS:0.000000=Song Start
;
#DISPLAYBPM:108.000000:216.000000;
#NOTES:
// measure 0
0000
0000
0000
0000
,  // measure 1
0000
0000
0000
0000
,  // measure 2
1001
1000
0010
1000
1001
0001
0010
0001
,  // measure 3
2000
0000
3020
0000
0230
0000
0302
0000
2003
0000
3100
0010
0100
0000
0110
0000
,  // measure 4
2002
0000
0000
0000
0000
0000
0000
0000
0000
0000
0000
0000
0000
0000
0000
0000
0000
3003
0000
0000
0000
0000
0000
0000
0000
0000
0000
0000
0000
0000
0000
0000
,  // measure 5
0020
0000
0000
0000
0000
0000
0000
0000
0000
0000
0000
0000
0000
0000
0000
0000
0000
0030
0000
0000
0000
0000
0000
0000
0000
0000
0000
0000
0000
0000
0000
0000
,  // measure 6
1001
0000
0000
0000
0000
0000
0000
0000
0000
0000
0000
0000
2002
0000
0000
0000
0000
0000
0000
0000
0000
0000
0000
0000
0000
3003
0000
0000
0000
0000
0000
0000
,  // measure 7
0010
0000
0000
0010
0000
0000
1001
0000
,  // measure 8
0001
0010
0001
0000
1000
0010
1000
0000
,  // measure 9
0001
0010
0001
0000
1000
0010
1000
0000
,  // measure 10
0200
0010
2300
0001
,  // measure 11
3010
0100
0010
0100
0010
0000
0110
0000
,  // measure 12
1001
0000
1001
0000
0001
1000
0200
0000
,  // measure 13
0000
0010
0310
0000
0110
0000
1000
0000
,  // measure 14
0001
1000
0010
0000
0100
0001
2000
0000
,  // measure 15
0000
0100
3100
0000
0010
0001
1000
0000
,  // measure 16
1001
0000
1000
0010
1000
0100
0020
0000
,  // measure 17
0000
0001
0031
0000
0100
0000
2020
0000
,  // measure 18
3030
0000
2000
0000
3010
0100
0001
0000
,  // measure 19
0010
0001
0100
0001
2000
0000
3001
0000
,  // measure 20
1001
0000
1001
0000
1000
0001
0200
0000
,  // measure 21
0000
0010
0310
0000
0110
0000
0001
0000
,  // measure 22
1000
0000
0000
0001
0000
0000
0010
0000
0100
0000
1000
0000
0002
0000
0000
0000
,  // measure 23
0000
0100
0103
0000
0010
1000
0001
0000
,  // measure 24
1001
0000
0001
0010
0001
0100
0020
0000
,  // measure 25
0000
1000
1030
0000
2002
0000
3003
0000
,  // measure 26
2000
0100
3000
0002
0010
0003
2000
0010
,  // measure 27
3000
0002
0100
0003
1000
0001
0000
0000
,  // measure 28
2002
0000
0000
0000
0000
0000
0000
0000
0000
0000
0000
0000
0000
0000
0000
0000
0000
3003
0000
0000
0000
0000
0000
0000
0000
0000
0000
0000
0000
0000
0000
0000
,  // measure 29
0020
0000
0000
0000
0000
0000
0000
0000
0000
0000
0000
0000
0000
0000
0000
0000
0000
0030
0000
0000
0000
0000
0000
0000
0000
0000
0000
0000
0000
0000
0000
0000
,  // measure 30
1001
0000
0000
0000
0000
0000
0000
0000
0000
0000
0000
0000
2002
0000
0000
0000
0000
0000
0000
0000
0000
0000
0000
0000
0000
3003
0000
0000
0000
0000
0000
0000
,  // measure 31
0010
0000
0000
0010
0000
0000
1001
0000
,  // measure 32
1000
0010
1000
0000
0001
0010
0001
0000
,  // measure 33
1000
0010
1000
0000
0001
0010
0001
0000
,  // measure 34
0200
0010
0302
1000
,  // measure 35
0013
0100
0010
0100
0010
0000
0110
0000
,  // measure 36
0002
0010
0000
2003
0010
0000
3100
0000
,  // measure 37
0010
0001
0100
0000
0220
0000
0330
0000
,  // measure 38
1000
0020
0000
0031
0020
0000
1030
0010
,  // measure 39
0200
0302
0013
1001
,  // measure 40
0002
0100
0000
0103
0001
2000
0100
0000
,  // measure 41
3100
1000
0010
0000
0220
0000
0330
0000
,  // measure 42
0001
0020
0000
0130
1000
0010
0200
0000
,  // measure 43
0310
0100
0001
0000
0001
0010
0100
0000
,  // measure 44
2000
0010
0000
3002
0010
0000
0103
0000
,  // measure 45
0010
1000
0100
0000
0220
0000
0330
0000
,  // measure 46
0001
0020
0000
1030
0020
0000
0031
0001
,  // measure 47
0000
1000
0010
0100
0001
0000
1001
0000
,  // measure 48
0022
0000
0033
2200
0000
3300
2020
0000
,  // measure 49
3030
0202
0000
0303
2002
0000
3003
0022
,  // measure 50
0000
0033
2002
0000
3003
2020
0000
3030
,  // measure 51
0001
0010
0001
0010
0100
1000
0002
0000
,  // measure 52
1003
0000
0000
0000
,  // measure 53
0000
0000
0000
0000
,  // measure 54
1001
0001
0010
0001
1001
1000
0010
1000
,  // measure 55
0002
0000
0023
0000
0230
0000
2300
0000
3002
0000
0103
0010
0100
0000
0110
0000
,  // measure 56
2000
0010
0001
3100
,  // measure 57
0110
0000
0010
0100
1000
0100
0010
0000
,  // measure 58
0002
0010
1000
0103
,  // measure 59
0110
0000
0010
0100
0001
0100
0010
0000
,  // measure 60
2000
0010
3002
0010
,  // measure 61
2003
0100
3002
0100
,  // measure 62
1003
0100
0010
0000
0001
0100
0010
0000
,  // measure 63
1000
0001
1000
0001
1000
0001
1000
0000
,  // measure 64
1001
0000
0000
0000
0000
0000
0000
1001
,  // measure 65
0001
0000
0010
0100
0000
0010
1000
0000
,  // measure 66
0010
0100
0000
0010
0001
0000
2000
3010
,  // measure 67
0000
0100
0001
0000
1000
0100
0000
0010
,  // measure 68
0001
0010
0100
1000
0001
0000
2002
3003
,  // measure 69
1000
0000
0010
0100
0000
0010
0001
0000
,  // measure 70
0010
0100
0000
0010
1000
0000
0002
0013
,  // measure 71
0000
0100
1000
0000
0001
0100
0000
0010
,  // measure 72
1000
0100
1000
0100
0010
0000
2002
3003
,  // measure 73
0001
1000
0001
1000
0010
0000
1010
0000
,  // measure 74
1000
0001
1000
0001
0010
0000
0011
0000
,  // measure 75
1000
0010
0000
0010
0000
0010
0100
0000
,  // measure 76
0001
0010
0100
1000
0002
0000
0000
0000
,  // measure 77
1003
0010
0100
0000
0110
0000
1001
0000
,  // measure 78
0001
0010
0100
0000
1000
0010
0100
0000
,  // measure 79
0002
0023
0230
2300
,  // measure 80
0002
0000
3003
1001
,  // measure 81
0001
0100
0010
0100
1000
0000
0100
0000
,  // measure 82
0101
0000
0101
0000
0100
0001
0010
0000
,  // measure 83
0001
0010
0100
0010
1000
0000
0010
0000
,  // measure 84
0011
0000
0001
1000
0010
0100
0001
0000
,  // measure 85
1000
0100
0010
0100
0001
0000
0100
0000
,  // measure 86
1100
0000
1100
0000
0100
1000
0010
0000
,  // measure 87
1010
0000
0000
0101
0000
0000
0011
0000
,  // measure 88
1000
0000
0000
0010
0000
0000
0100
0000
0001
0000
2000
0000
0000
0000
0000
0000
,  // measure 89
3001
0010
1000
0010
0001
0000
0010
0000
,  // measure 90
0110
0110
2002
3003
,  // measure 91
1000
0010
0001
0010
1000
0000
0010
0000
,  // measure 92
0100
0000
0000
0001
0000
0000
1000
0000
2002
0000
0000
0000
3003
0000
0000
0000
,  // measure 93
1000
0100
0001
0100
0010
0000
0011
0000
,  // measure 94
0001
0100
1000
0100
0010
0000
1010
0000
,  // measure 95
1000
0100
0010
0001
0100
0010
1000
0000
,  // measure 96
0001
1000
0001
0020
0000
0000
0130
0000
;

//---------------dance-single - ----------------
#NOTEDATA:;
#CHARTNAME:;
#STEPSTYPE:dance-single;
#DESCRIPTION:;
#CHARTSTYLE:;
#DIFFICULTY:Beginner;
#METER:8;
#RADARVALUES:0.344580,0.427978,0.259013,0.388519,0.000000,298.000000,266.000000,32.000000,48.000000,0.000000,0.000000,0.000000,0.000000,0.000000,0.344580,0.427978,0.259013,0.388519,0.000000,298.000000,266.000000,32.000000,48.000000,0.000000,0.000000,0.000000,0.000000,0.000000;
#CREDIT:;
#OFFSET:-1.855600;
#BPMS:0.000000=216.000000
;
#STOPS:;
#DELAYS:;
#WARPS:;
#TIMESIGNATURES:0.000000=4=4
;
#TICKCOUNTS:0.000000=4
;
#COMBOS:0.000000=1
;
#SPEEDS:0.000000=1.000000=0.000000=0
;
#SCROLLS:0.000000=1.000000
;
#FAKES:;
#LABELS:0.000000=Song Start
;
#DISPLAYBPM:108.000000:216.000000;
#NOTES:
// measure 0
0000
0000
0000
0000
,  // measure 1
0000
0000
0000
0000
,  // measure 2
0000
0000
0000
0000
,  // measure 3
0000
0000
0000
0000
,  // measure 4
1000
0000
1000
0000
,  // measure 5
0010
0000
0100
0000
,  // measure 6
0002
0000
0023
0000
,  // measure 7
0230
0000
2300
3001
,  // measure 8
1001
0000
0000
0000
,  // measure 9
0010
0000
0000
0000
,  // measure 10
1001
0000
0000
1001
0000
0000
0000
0000
,  // measure 11
0010
0000
0000
0010
0000
0000
0000
0000
,  // measure 12
1010
0000
0101
0000
,  // measure 13
0011
0000
1100
0000
,  // measure 14
0002
0003
2000
3000
,  // measure 15
0001
1000
0001
0000
,  // measure 16
1000
0010
1000
0010
,  // measure 17
0000
0100
0100
0000
,  // measure 18
0010
0000
1000
0002
,  // measure 19
0000
1003
1001
0000
,  // measure 20
1000
0100
1000
0100
,  // measure 21
0000
0010
0010
0000
,  // measure 22
0000
0001
1000
0001
,  // measure 23
0200
0300
0010
1000
,  // measure 24
0001
0010
0001
0010
,  // measure 25
0000
0100
0100
0000
,  // measure 26
0010
0000
0001
2000
,  // measure 27
0000
3001
1001
0000
,  // measure 28
0001
0100
0001
0100
,  // measure 29
0000
0010
0020
0000
,  // measure 30
1030
0000
0000
0010
0000
0000
1000
0000
,  // measure 31
0000
0100
0000
0000
0000
0110
0000
0000
,  // measure 32
1001
0000
0000
0000
,  // measure 33
0010
0000
0000
0000
,  // measure 34
1001
0000
0000
1001
0000
0000
0000
0000
,  // measure 35
0010
0000
0000
0010
0000
0000
0000
0000
,  // measure 36
0011
0000
1100
0000
,  // measure 37
1010
0000
0101
0000
,  // measure 38
2000
3000
0002
0003
,  // measure 39
1000
0001
1000
0000
,  // measure 40
0002
0000
0023
0000
,  // measure 41
0130
0010
0001
0100
,  // measure 42
0010
0000
0110
0000
,  // measure 43
1000
0010
1000
0000
,  // measure 44
0002
0000
0013
0200
,  // measure 45
0000
1300
0010
0100
,  // measure 46
0001
0000
1000
0001
,  // measure 47
0020
0000
0031
0001
,  // measure 48
2000
0000
3020
0000
,  // measure 49
0130
0010
1000
0100
,  // measure 50
0010
0000
0110
0110
,  // measure 51
0000
0001
1000
0001
,  // measure 52
0200
0000
0000
0320
0000
0000
2030
0000
,  // measure 53
0000
3002
0000
0000
0023
0000
0000
0230
,  // measure 54
0000
0000
2300
0000
0000
3002
0000
0000
,  // measure 55
1003
0010
0100
0001
,  // measure 56
1000
0000
0000
0000
,  // measure 57
0000
0000
0000
0000
,  // measure 58
0000
0000
0000
0000
,  // measure 59
0000
0000
0000
0000
,  // measure 60
0001
0000
0001
0000
,  // measure 61
0010
0000
0100
0000
,  // measure 62
2000
0000
3020
0000
,  // measure 63
0230
0000
0302
1003
,  // measure 64
0001
0010
0100
0010
,  // measure 65
0001
0001
0001
0000
,  // measure 66
1000
0010
0100
0010
,  // measure 67
1000
1000
1000
0000
,  // measure 68
0002
0023
0230
0300
,  // measure 69
2000
3020
0230
0300
,  // measure 70
0002
0003
2000
3000
,  // measure 71
0001
1000
0001
1000
,  // measure 72
0001
0000
0000
0000
,  // measure 73
0000
0000
0000
1001
,  // measure 74
0001
0000
0000
0010
0000
0000
1000
0000
,  // measure 75
0000
0100
0000
0000
0001
0000
0022
0000
,  // measure 76
0033
0000
0001
0000
0000
0010
0000
0000
,  // measure 77
0100
1000
0001
1001
,  // measure 78
1000
0000
0000
0010
0000
0000
0001
0000
,  // measure 79
0000
0100
0000
0000
1000
0000
2020
0000
,  // measure 80
3030
0000
1000
0000
0000
0010
0000
0000
,  // measure 81
0100
0001
1000
1001
,  // measure 82
0001
0010
0100
0000
,  // measure 83
1000
0010
0100
0000
,  // measure 84
1001
0000
1001
0000
,  // measure 85
1001
0100
0010
0000
,  // measure 86
1000
0010
1000
1000
,  // measure 87
0001
0010
0001
0001
,  // measure 88
0200
0000
0000
0000
,  // measure 89
0020
0000
0000
0330
,  // measure 90
1000
0010
0100
0001
,  // measure 91
1000
1000
1000
0000
,  // measure 92
0001
0010
0100
1000
,  // measure 93
0001
0001
0001
0000
,  // measure 94
1000
0100
0010
0001
,  // measure 95
0100
0010
1000
0000
,  // measure 96
0001
0000
0000
1000
0000
0000
0001
0000
,  // measure 97
0010
0000
1001
0000
,  // measure 98
0001
0100
0001
0010
,  // measure 99
0001
0001
0001
0000
,  // measure 100
1000
0100
1000
0010
,  // measure 101
1000
1000
1000
0000
,  // measure 102
0002
0003
0001
0011
,  // measure 103
2000
3000
1000
1010
,  // measure 104
0001
0001
1000
1000
,  // measure 105
0200
0000
0300
1001
;
