#TITLE:Upgrades;
#SUBTITLE:;
#ARTIST:Auvic;
#TITLETRANSLIT:;
#SUBTITLETRANSLIT:;
#ARTISTTRANSLIT:;
#GENRE:Electro Funk;
#CREDIT:;
#BANNER:Upgrades.png;
#BACKGROUND:Upgrades-bg.png;
#LYRICSPATH:;
#CDTITLE:cdtitle.png;
#MUSIC:Upgrades.ogg;
#OFFSET:-1.407624;
#SAMPLESTART:17.409878;
#SAMPLELENGTH:16.000000;
#SELECTABLE:YES;
#BPMS:0.000000=120.000000
;
#STOPS:
;
#BGCHANGES:;
#KEYSOUNDS:;
#ATTACKS:;

//---------------dance-single - ----------------
#NOTES:
     dance-single:
     :
     Challenge:
     16:
     0.663137,0.672753,0.485530,0.823929,0.879103,631.000000,565.000000,66.000000,112.000000,0.000000,0.000000,0.663137,0.672753,0.485530,0.823929,0.879103,631.000000,565.000000,66.000000,112.000000,0.000000,0.000000:
// measure 0
0000
0000
0000
0000
,  // measure 1
0000
0000
0000
0000
,  // measure 2
0000
0000
0000
0000
,  // measure 3
0000
0000
0000
0000
0000
0000
0000
1100
,  // measure 4
0220
0000
0330
0000
0000
0000
0000
0101
,  // measure 5
0220
0000
0330
0000
2002
0000
3003
0011
,  // measure 6
0220
0000
0330
0000
0000
0000
0000
1010
,  // measure 7
0220
0000
0330
0000
2002
0000
3003
1001
,  // measure 8
0002
0000
0023
0000
0130
0002
0000
0103
0020
0000
0130
1000
0001
0010
0100
1000
,  // measure 9
0001
0000
0101
0000
2000
0010
0000
0001
3001
0000
0000
0001
1000
0100
0010
0001
,  // measure 10
2000
0000
3020
0000
0130
2000
0000
3100
0020
0000
0130
0001
1000
0010
0100
0001
,  // measure 11
1000
0000
1100
0000
0002
0010
0000
1000
1003
0000
0000
1000
0001
0100
0010
1000
,  // measure 12
0001
0000
1002
0000
0010
0000
2003
0100
0000
0001
3001
0000
1000
0010
0100
0001
,  // measure 13
1000
0000
2001
0000
0010
0000
3002
0100
0000
1000
1003
0000
0001
0010
0100
1000
,  // measure 14
0001
0000
0201
0000
0010
0000
0302
0100
0000
1000
1000
0000
0013
0100
0010
0001
,  // measure 15
1000
0000
1200
0000
0010
0000
2300
0100
0000
0001
3001
0000
1000
0001
0100
0010
,  // measure 16
1010
0000
0001
1000
0001
0010
0000
0010
0011
0000
1000
0001
0200
0000
0000
1000
,  // measure 17
2300
0000
3200
0000
0310
0002
0000
0013
0200
0000
0310
2000
0000
3100
0010
0001
,  // measure 18
0011
0000
1000
0001
1000
0010
0000
0010
1010
0000
0001
1000
0200
0000
0000
0001
,  // measure 19
0302
0000
0203
0000
0310
2000
0000
3010
0200
0000
0310
0002
0000
1003
0010
0100
,  // measure 20
0101
0000
1000
0100
0010
0100
0000
0100
1100
0000
0001
0100
0020
0000
0000
0001
,  // measure 21
0032
0000
0023
0000
0130
2000
0000
3100
0002
0000
1003
0002
0000
0013
0100
1000
,  // measure 22
1100
0000
0001
0010
0001
1000
0001
0100
0101
0000
1000
0010
0002
0000
0000
0013
,  // measure 23
2000
0000
3002
0000
0013
2000
0000
3010
0002
1000
0003
1000
0001
0100
0010
1000
,  // measure 24
2002
0000
0000
0000
0000
0000
3003
0101
,  // measure 25
2002
0000
0000
0000
0000
3003
1100
1100
,  // measure 26
2002
0000
0000
0000
0000
0000
3003
1010
,  // measure 27
2002
0000
0000
0000
0000
3003
0011
0011
,  // measure 28
1001
0000
1000
0010
0000
1000
0010
0100
0001
0000
1000
0010
0100
0001
1001
0000
,  // measure 29
0011
0000
0001
0010
0000
0001
0010
0100
1000
0000
0100
0010
0011
0000
1001
0000
,  // measure 30
1010
0000
0010
0100
0000
0001
1000
0100
0010
0000
0001
0100
0010
1000
1001
0000
,  // measure 31
1001
0000
0001
0010
0000
0100
0010
0001
1000
0010
0100
0001
1000
0100
0001
0200
,  // measure 32
0000
0000
0000
0000
,  // measure 33
0000
0000
0000
0000
0000
0000
0000
0000
0310
0100
0000
0100
0010
0000
0001
0000
,  // measure 34
1002
0000
0000
0000
0000
0000
0000
0000
0000
1000
0000
0000
0103
0000
0000
0001
0000
0000
1000
0000
0000
1000
0000
0000
0200
0000
0000
0000
0000
0000
0310
0000
0000
0100
0000
0000
0010
0000
0001
0000
1000
0000
0001
0000
0000
0000
0000
0000
,  // measure 35
0201
0000
0310
0100
1000
0100
0010
0100
0002
0000
0000
1003
1100
0000
0010
0000
,  // measure 36
1002
0000
0000
0000
0000
0000
0000
0000
0000
1000
0000
0000
0013
0000
0000
0001
0000
0000
1000
0000
0000
1000
0000
0000
0020
0000
0000
0000
0000
0000
0130
0000
0000
0010
0000
0000
1000
0000
0001
0000
1000
0000
0100
0000
0000
0000
0000
0000
,  // measure 37
0120
0000
1030
0010
0100
1000
0001
0100
0010
0000
2001
0000
3100
0120
0000
0031
,  // measure 38
2001
0000
0000
0000
0000
0000
0000
0000
0000
0001
0000
0000
3100
0000
0000
1000
0000
0000
0001
0000
0000
0001
0000
0000
0200
0000
0000
0000
0000
0000
0310
0000
0000
0100
0000
0000
0010
0000
1000
0000
0001
0000
1000
0000
0000
0000
0000
0000
,  // measure 39
1200
0000
0310
0100
0001
0100
0010
0100
2000
0000
0000
3001
0101
0000
0010
0000
,  // measure 40
2001
0000
0000
0000
0000
0000
0000
0000
0000
0001
0000
0000
3010
0000
0000
1000
0000
0000
0001
0000
0000
0001
0000
0000
0020
0000
0000
0000
0000
0000
0130
0000
0000
0010
0000
0000
0001
0000
1000
0000
0001
0000
0100
0000
0000
0000
0000
0000
,  // measure 41
0120
0000
0031
0010
0100
0001
1000
0001
0010
0000
2100
0000
3010
0102
0000
0013
,  // measure 42
1001
0000
0000
0000
0000
0000
2001
0000
0000
0000
0000
0000
0100
0000
0000
3002
0000
0000
0000
0000
0000
0010
0000
0000
2003
0000
0000
0000
0000
0000
0100
0000
0000
3001
0000
0000
1000
0000
0010
0000
0100
0000
0001
0000
0000
1000
0000
0000
,  // measure 43
0100
0000
0010
0100
0001
0200
0000
0010
2300
0000
3100
0010
0001
1000
0001
0000
,  // measure 44
1001
0000
0000
0000
0000
0000
1002
0000
0000
0000
0000
0000
0100
0000
0000
2003
0000
0000
0000
0000
0000
0010
0000
0000
3002
0000
0000
0000
0000
0000
0100
0000
0000
1003
0000
0000
0001
0000
0010
0000
0100
0000
1000
0000
0000
0001
0000
0000
,  // measure 45
0100
0000
0010
0100
1000
0200
0000
0010
0302
0000
1003
0100
0010
0001
1000
0000
,  // measure 46
1001
0000
0000
0000
0000
0000
2001
0000
0000
0000
0000
0000
0010
0000
0000
3002
0000
0000
0000
0000
0000
0100
0000
0000
2003
0000
0000
0000
0000
0000
0010
0000
0000
3001
0000
0000
1000
0000
0100
0000
0010
0000
0001
0000
0000
1000
0000
0000
,  // measure 47
0010
0000
0100
0010
0001
0020
0000
0100
2030
0000
3001
0100
0010
1000
0001
0000
,  // measure 48
1001
0000
0000
0000
0000
0000
2001
0000
0000
0000
0000
0000
3100
0000
0000
0020
0000
0000
0000
0000
0000
0130
0000
0000
0002
0000
0000
0000
0000
0000
0103
0000
0000
0010
0000
0000
0100
0000
1000
0000
0001
0000
1000
0000
0000
0001
0000
0000
,  // measure 49
0100
0000
0000
0000
0010
0000
0100
0000
0001
0000
2000
0000
0000
0000
3100
0000
0010
0000
0000
0000
0010
0000
0000
0000
0010
0000
0100
0010
0100
0000
1000
0000
,  // measure 50
0002
0000
0100
0100
0000
1003
0010
0100
1000
0000
0100
0010
1000
0010
0100
0001
,  // measure 51
2000
0000
0100
0100
0000
3001
0010
0100
0001
0000
0100
0010
0001
0010
0100
1000
,  // measure 52
0020
0000
1000
0100
0000
0031
0010
0100
0001
0000
1000
0010
0100
0001
1000
0100
,  // measure 53
0020
0000
0001
0100
0000
1030
0010
0100
1000
0000
0010
0100
0010
0100
0001
1000
,  // measure 54
0200
0000
0001
0302
0000
0103
0001
0100
0010
0100
0010
0001
1000
0001
0100
0010
,  // measure 55
0200
0000
1000
2300
0000
3100
1000
0100
0010
0100
0010
1000
0001
0010
0100
1000
,  // measure 56
0020
0000
0100
0032
0000
0013
0100
1000
0100
0010
1000
0001
0100
0001
1000
0001
,  // measure 57
0020
0000
0100
2030
0000
3010
0100
0001
0100
0010
0001
1000
0001
0100
1000
0100
,  // measure 58
0020
0000
0000
0130
,  // measure 59
1001
0000
0000
0000
;

//---------------dance-single - ----------------
#NOTES:
     dance-single:
     :
     Hard:
     12:
     0.409863,0.455736,0.301617,0.566451,0.275869,390.000000,349.000000,41.000000,77.000000,0.000000,0.000000,0.409863,0.455736,0.301617,0.566451,0.275869,390.000000,349.000000,41.000000,77.000000,0.000000,0.000000:
0000
0000
0000
0000
,
0000
0000
0000
0000
,
0000
0000
0000
0000
,
0000
0000
0000
0000
0000
0000
0000
1000
,
2020
0000
3030
0000
0000
0000
0000
0001
,
0022
0000
0033
0000
2002
0000
3003
0001
,
0202
0000
0303
0000
0000
0000
0000
1000
,
2200
0000
3300
0000
2002
0000
3003
0001
,
1000
0000
0002
0000
0000
0010
0000
0000
1000
0000
0000
1000
0000
0000
0103
0000
,
0001
0000
0001
0000
0100
0001
0000
0100
0001
0000
0000
0000
1001
0000
0000
0000
,
0001
0000
2000
0000
0000
0010
0000
0000
0001
0000
0000
0001
0000
0000
3100
0000
,
1000
0000
1000
0000
0100
1000
0000
0100
1000
0000
0000
0000
1001
0000
0000
0000
,
1000
0000
1000
0000
0010
0000
0100
0001
0000
0002
0100
0000
1003
0000
0000
0000
,
0001
0000
0001
0000
0010
0000
0100
1000
0000
2000
0100
0000
3001
0000
0000
0000
,
0100
0000
0100
0000
0010
0000
1000
0100
0000
0200
0010
0000
1300
0000
0000
0000
,
0100
0000
0100
0000
0010
0000
0001
0100
0000
0200
0010
0000
0301
0000
1000
0000
,
2010
3001
2001
3200
,
0001
0000
0302
0000
0000
0203
0000
0000
1300
0000
0100
0010
0000
0100
0010
0000
,
0012
1003
1002
0203
,
1000
0000
2300
0000
0000
3200
0000
0000
0301
0000
0100
0010
0000
0100
0010
0000
,
2010
3001
1002
0023
,
1000
0000
2030
0000
0000
3020
0000
0000
0130
0000
0010
0001
0000
0010
0001
0000
,
0012
0000
1003
0000
1001
1000
0020
0000
,
0001
0000
0032
0000
0000
0023
0000
0130
0010
0000
1000
0000
0001
0000
0010
0000
,
0220
0000
0000
0000
0330
0000
0000
0001
,
0022
0000
0000
0000
0033
0000
1000
1000
,
2020
0000
0000
0000
3030
0000
0000
0001
,
0202
0000
0000
0000
0303
0000
1000
1000
,
1200
0000
0310
0000
0100
0010
0001
0100
,
0201
0000
0310
0000
0100
0010
1000
0100
,
1200
0000
0301
0000
0100
1000
0010
0100
,
0201
0000
0000
0000
1300
0000
0000
0000
0100
0000
0001
0000
1000
0000
0100
0020
,
0000
0000
0000
0000
,
0000
0000
0000
0000
0000
0000
0000
0000
0130
0010
0000
0010
0001
0000
1000
0000
,
1001
0000
0000
0001
1000
0000
0010
0000
0200
0000
0010
0000
0001
0000
0301
0000
,
2000
0000
0010
0000
0001
0000
3100
0000
0020
0000
0000
0130
0010
0000
0010
0000
,
0011
0000
0000
0001
1000
0000
0100
0000
0020
0000
0100
0000
0001
0000
0031
0000
,
1000
0000
0010
0000
0001
0000
0010
0000
2000
0000
0010
0000
3002
0100
0000
1003
,
0001
0000
0000
1000
0001
0000
0010
0000
0200
0000
0010
0000
1000
0000
1300
0000
,
0002
0000
0010
0000
1000
0000
0103
0000
0020
0000
0000
0130
0010
0000
0010
0000
,
1010
0000
0000
1000
0001
0000
0100
0000
0020
0000
0100
0000
1000
0000
1030
0000
,
0001
0000
0010
0000
1000
0000
0010
0000
0001
0000
0001
0000
1000
0001
0000
0001
,
0100
0000
0201
0000
0000
1000
0000
0000
0001
0000
0000
1300
0000
0100
0001
0000
,
0100
0000
0102
0000
0000
0010
0000
0000
0103
0000
0001
1000
0001
0000
0010
0000
,
0100
0000
1200
0000
0000
0001
0000
0000
1000
0000
0000
0301
0000
0100
1000
0000
,
0100
0000
2100
0000
0000
0010
0000
0000
3100
0000
1000
0001
1000
0000
0001
0000
,
1000
0000
1020
0000
0000
0001
0000
0000
1000
0000
0000
0031
0000
0010
1000
0000
,
0001
0000
0021
0000
0000
1000
0000
0000
0031
0000
1000
0001
1000
0000
0010
0000
,
0100
0000
0101
0000
0000
1100
0000
0000
0101
0000
0000
1100
0000
0000
0101
0000
,
0000
0000
0002
0000
0000
2003
0000
0000
3100
0000
0010
0000
0001
0000
0001
0000
,
2000
0000
0000
0100
0000
0000
3001
1000
0001
0000
1000
0000
0010
0000
0100
0000
,
0002
0000
0000
0100
0000
0000
1003
0001
1000
0000
0001
0000
0010
0000
0100
0000
,
2000
0000
0000
0010
0000
0000
3001
0100
0001
0000
1000
0000
0100
0000
0010
0000
,
0002
0000
0000
0010
0000
0000
1003
0100
1000
0000
0001
0000
0100
0000
0010
0000
,
0200
0000
0000
1000
0000
0000
0310
0100
0010
0000
0100
0000
0001
0000
0010
0000
,
0200
0000
0000
0001
0000
0000
0310
0100
0010
0000
0100
0000
1000
0000
0010
0000
,
1020
0000
0000
0001
0000
0000
1030
0010
1000
0000
0100
0000
0010
0000
0001
0000
,
0021
0000
0000
1000
0000
0000
0031
0010
0001
0000
0100
0000
0010
0000
1000
0200
,
0000
0000
0000
0310
,
1001
0000
0000
0000
;

//---------------dance-single - ----------------
#NOTES:
     dance-single:
     :
     Medium:
     9:
     0.307923,0.347227,0.257478,0.463460,0.095635,293.000000,258.000000,35.000000,63.000000,0.000000,0.000000,0.307923,0.347227,0.257478,0.463460,0.095635,293.000000,258.000000,35.000000,63.000000,0.000000,0.000000:
0000
0000
0000
0000
,
0000
0000
0000
0000
,
0000
0000
0000
0000
,
0000
0000
0000
0000
,
2020
3030
0000
0000
,
0202
0303
2002
3003
,
0022
0033
0000
0000
,
2200
3300
2002
3003
,
1000
0000
0020
0000
0000
1000
0000
0000
1000
0000
0000
1030
0000
0000
0010
0000
,
0100
0101
1000
1100
,
0001
0000
0020
0000
0000
0001
0000
0000
0001
0000
0000
0031
0000
0000
0010
0000
,
0100
1100
0001
0101
,
1000
0010
0100
0000
0001
0000
1100
0000
,
0001
0010
0100
0000
1000
0000
0101
0000
,
1000
0010
0001
0000
0010
0000
1010
0000
,
0001
0010
1000
0000
0010
0000
0011
0000
,
2002
3003
0201
1000
,
0310
0000
2000
0000
0000
0010
0000
0000
0010
0000
0000
0010
0000
0000
3001
0000
,
2002
3003
1200
0001
,
0310
0000
0002
0000
0000
0010
0000
0000
0010
0000
0000
0010
0000
0000
1003
0000
,
2002
3003
1020
0001
,
0130
0000
0002
0000
0000
0100
0000
0000
0100
0000
0000
0100
0000
0000
1003
0000
,
2002
0000
3003
0000
0001
0010
2000
0000
,
3010
0000
0002
0000
0000
1000
0000
0000
1000
0000
0000
1003
0000
0000
0001
0000
,
0202
0303
0000
0000
,
2020
3030
0000
0000
,
0022
0033
0000
0000
,
2200
3300
0000
0000
,
0002
0000
0103
0000
0001
0001
0100
0010
,
2000
0000
3100
0000
1000
1000
0100
0010
,
0002
0000
1003
0000
0010
0010
0100
0001
,
2000
0000
0000
0000
3100
0000
0000
0000
0010
0000
0001
0000
0100
0000
0010
2000
,
0000
0000
0000
0000
,
0000
0000
3010
0010
,
1001
0000
1000
0100
0001
0100
1000
0000
,
0001
0010
0100
1000
0002
0000
1003
0000
,
1001
0000
1000
0010
0001
0010
1000
0000
,
0100
1000
0010
1000
0100
0000
0011
0000
,
1001
0000
0001
0100
1000
0100
0001
0000
,
1000
0010
0100
0001
2000
0000
3001
0000
,
1001
0000
0001
0010
1000
0010
0001
0000
,
0100
0001
0010
0001
0100
0000
0110
0000
,
1000
0000
0020
0000
0000
1000
0000
0000
0100
0000
0000
1000
0000
0000
1030
0000
,
0000
0000
0002
0000
0000
0100
0000
0000
1003
0000
0000
0000
1001
0000
0000
0000
,
0001
0000
0020
0000
0000
0001
0000
0000
0100
0000
0000
0001
0000
0000
0031
0000
,
0000
0000
2000
0000
0000
0100
0000
0000
3001
0000
0000
0000
1001
0000
0000
0000
,
0001
0000
0200
0000
0000
0010
0000
0000
0001
0000
0000
0010
0000
0000
0310
0000
,
0000
0000
2000
0000
0000
0010
0000
0000
3001
0000
0000
0000
1001
0000
0000
0000
,
1000
0000
0200
0000
0000
0010
0000
0000
1000
0000
0000
0010
0000
0000
0310
0000
,
0000
0000
0002
0000
0000
2003
0000
0000
3001
0000
1000
0000
0001
0000
0000
0000
,
2000
0000
3010
0000
1000
0010
0100
0010
,
0002
0000
0013
0000
0001
0010
0100
0010
,
2000
0000
3100
0000
1000
0100
0010
0100
,
0002
0000
0103
0000
0001
0100
0010
0100
,
2000
0000
3001
0100
0001
0100
0010
1000
,
0002
0000
1003
0100
1000
0100
0010
0001
,
0200
0000
0310
1000
0001
0010
0001
1000
,
0020
0000
0000
0000
0130
0000
0001
0000
0010
0000
0100
0000
1000
0000
0010
0200
,
0000
0000
0000
0310
,
1001
0000
0000
0000
;

//---------------dance-single - ----------------
#NOTES:
     dance-single:
     :
     Easy:
     6:
     0.238561,0.260421,0.220695,0.389895,0.000000,227.000000,197.000000,30.000000,53.000000,0.000000,0.000000,0.238561,0.260421,0.220695,0.389895,0.000000,227.000000,197.000000,30.000000,53.000000,0.000000,0.000000:
0000
0000
0000
0000
,
0000
0000
0000
0000
,
0000
0000
0000
0000
,
0000
0000
0000
0000
,
2002
3003
0000
0000
,
2002
3003
0220
0330
,
2002
3003
0000
0000
,
2002
3003
0220
0330
,
0002
0100
0103
0000
,
0001
0000
0100
0000
0001
1000
0001
0000
,
2000
0100
3100
0000
,
1000
0000
0100
0000
1000
0001
1000
0000
,
0010
1000
0100
0110
,
0010
0001
0100
0110
,
0100
0001
0010
0110
,
0100
1000
0010
0110
,
2020
3030
0102
1000
,
0013
0010
0100
0010
,
0022
0033
2100
0001
,
3010
0010
0100
0010
,
0202
0303
2010
0001
,
3100
0100
0010
0100
,
2200
0000
3300
0000
0001
1000
0002
0000
,
0103
0100
0010
1000
,
2002
3003
0000
0000
,
2002
3003
0000
0000
,
0220
0330
0000
0000
,
0220
0330
0000
0000
,
0002
0100
1003
1001
,
2000
0100
3001
1001
,
0002
0010
1003
1001
,
2000
0010
3001
1001
,
0010
0000
0000
0000
,
0000
0000
0010
0010
,
2002
0000
3003
0000
0001
0100
0001
0000
,
1000
0200
0010
1300
,
2002
0000
3003
0000
1000
0100
1000
0000
,
0001
0000
0100
0000
0010
0100
0010
0000
,
2002
0000
3003
0000
1000
0010
1000
0000
,
0001
0020
0100
0031
,
2002
0000
3003
0000
0001
0010
0001
0000
,
1000
0000
0010
0000
0100
0010
0100
0000
,
0001
0001
0010
0001
,
0010
0100
0010
0000
0001
0000
0001
0000
,
1000
1000
0010
1000
,
0010
0100
0010
0000
1000
0000
1000
0000
,
0001
0001
0010
0100
,
1000
0001
1000
0000
0010
0000
0100
0000
,
0002
0003
2000
3000
,
0001
1000
0001
0000
0020
0000
0230
0000
,
1300
0001
1000
0001
,
0100
0010
0100
0010
,
1000
0100
0010
0001
,
0100
0010
1000
0100
,
0010
0000
0001
0000
0100
0001
0100
0000
,
0010
0000
1000
0000
0100
1000
0100
0000
,
0010
0000
0001
0000
1000
0001
0100
0000
,
0010
0000
1000
0000
0001
1000
0100
0000
,
0020
0000
0000
0130
,
1001
0000
0000
0000
;

//---------------dance-single - ----------------
#NOTES:
     dance-single:
     :
     Beginner:
     3:
     0.145028,0.173614,0.110348,0.000000,0.000000,138.000000,123.000000,15.000000,0.000000,0.000000,0.000000,0.145028,0.173614,0.110348,0.000000,0.000000,138.000000,123.000000,15.000000,0.000000,0.000000,0.000000:
0000
0000
0000
0000
,
0000
0000
0000
0000
,
0000
0000
0000
0000
,
0000
0000
0000
0000
,
1001
0000
0000
0000
,
1001
0000
1001
0000
,
1001
0000
0000
0000
,
1001
0000
1001
0000
,
0001
0001
0001
0000
,
0100
0000
0001
0000
,
1000
1000
1000
0000
,
0100
0000
1000
0000
,
0010
0010
0010
0000
,
0100
0100
0100
0000
,
0001
0001
0001
0000
,
1000
1000
1000
0000
,
0100
0000
0010
0000
,
0001
0000
0001
0000
,
0100
0000
0010
0000
,
1000
0000
1000
0000
,
0001
0000
0010
0000
,
0100
0000
0100
0000
,
1000
0000
0010
0000
,
0100
0000
0001
0000
,
1001
0000
0000
0000
,
1001
0000
0000
0000
,
0110
0000
0000
0000
,
0110
0000
0000
0000
,
1000
0000
0100
0000
,
0010
0000
0001
0000
,
0100
0000
0010
0000
,
1000
0000
0001
0000
,
0010
0000
0000
0000
,
0000
0000
0000
0000
,
1001
0000
0001
0000
,
0100
0100
0100
0000
,
1001
0000
1000
0000
,
0100
0100
0100
0000
,
1001
0000
1000
0000
,
0010
0010
0010
0000
,
1001
0000
0001
0000
,
0010
0010
0010
0000
,
0001
0001
0001
0000
,
0010
0000
0001
0000
,
1000
1000
1000
0000
,
0010
0000
1000
0000
,
0100
0100
0100
0000
,
0010
0000
0001
0000
,
0100
0100
0100
0000
,
0010
0000
1000
0000
,
0001
0001
0001
0000
,
1000
1000
1000
0000
,
0100
0100
0100
0000
,
0010
0010
0010
0000
,
0001
1000
0001
0000
,
1000
0001
1000
0000
,
0010
0100
0010
0000
,
0100
0010
0100
0000
,
0010
0000
0000
0000
,
1001
0000
0000
0000
;
