#VERSION:0.83;
#TITLE:Uncontrollable;
#SUBTITLE:;
#ARTIST:Hiroyuki Sawano feat. mpi and Mika Kobayashi;
#TITLETRANSLIT:;
#SUBTITLETRANSLIT:;
#ARTISTTRANSLIT:;
#GENRE:Tyrant Rock;
#ORIGIN:;
#CREDIT:;
#BANNER:Uncontrollable.png;
#BACKGROUND:Uncontrollable-bg.png;
#PREVIEWVID:;
#JACKET:Uncontrollable-jacket.png;
#CDIMAGE:;
#DISCIMAGE:;
#LYRICSPATH:;
#CDTITLE:cdtitle.png;
#MUSIC:Uncontrollable.ogg;
#OFFSET:0.785200;
#SAMPLESTART:68.869919;
#SAMPLELENGTH:13.714287;
#SELECTABLE:YES;
#BPMS:0.000=140.000;
#STOPS:161.750=0.857;
#DELAYS:;
#WARPS:;
#TIMESIGNATURES:0.000=4=4;
#TICKCOUNTS:0.000=4;
#COMBOS:0.000=1;
#SPEEDS:0.000=1.000=0.000=0;
#SCROLLS:0.000=1.000;
#FAKES:;
#LABELS:0.000=Song Start;
#BGCHANGES:;
#KEYSOUNDS:;
#ATTACKS:
;

//---------------dance-single - ----------------
#NOTEDATA:;
#CHARTNAME:;
#STEPSTYPE:dance-single;
#DESCRIPTION:;
#CHARTSTYLE:;
#DIFFICULTY:Challenge;
#METER:13;
#RADARVALUES:0.590153,0.724332,0.388321,0.363534,0.276782,500.000000,453.000000,47.000000,44.000000,0.000000,0.000000,0.000000,0.000000,0.000000,0.590153,0.724332,0.388321,0.363534,0.276782,500.000000,453.000000,47.000000,44.000000,0.000000,0.000000,0.000000,0.000000,0.000000;
#CREDIT:;
#OFFSET:-0.929086;
#BPMS:0.000000=140.000000
;
#STOPS:157.750000=0.857140
;
#DELAYS:;
#WARPS:;
#TIMESIGNATURES:0.000000=4=4
;
#TICKCOUNTS:0.000000=4
;
#COMBOS:0.000000=1
;
#SPEEDS:0.000000=1.000000=0.000000=0
;
#SCROLLS:0.000000=1.000000
;
#FAKES:;
#LABELS:0.000000=Song Start
;
#NOTES:
0000
0000
0000
0000
,
0000
0000
0000
0000
,
0000
0000
0000
0000
,
0000
0000
0000
0000
0001
0100
0010
2000
,
0000
0000
0010
3002
0000
0000
0010
2003
,
0000
0000
0100
3002
0000
0000
0103
0200
,
0000
0000
0001
0320
0000
0000
1000
1000
,
0000
0000
0130
0001
1000
0100
0010
0001
,
0011
0000
0000
0000
1000
0000
1000
0000
0010
0000
1000
0000
0100
0010
0200
0000
,
0010
0000
1300
0001
1000
0001
0100
0010
,
1010
0000
0000
0000
0001
0000
0001
0000
0010
0000
0001
0000
0100
0010
0200
0000
,
0010
0000
0301
1000
0001
0010
0100
1000
,
1100
0000
0001
0001
1000
0010
0100
0001
,
0101
0000
1000
1000
0100
0010
0001
1000
,
1001
0000
0000
0000
0001
0000
0100
0000
0010
0000
1000
0000
0100
0010
0200
0000
,
0010
0000
0000
0000
1300
0000
1000
0000
0000
1000
0100
0000
0010
0000
0001
0000
,
0100
0010
1000
0000
1010
0000
0000
0000
,
1000
0010
0001
0020
0000
2030
0000
0000
,
3100
0010
0001
0000
0011
0000
0000
0002
,
0000
0013
1000
0020
0000
0032
0000
0000
,
1003
0000
0001
0100
0010
0200
0000
2300
,
0000
3200
0000
0302
0000
0000
1003
0000
,
0001
0000
1000
0100
0010
0200
0000
0302
,
0000
0203
0000
2300
0000
3001
0000
0001
,
1000
0010
1000
0000
0010
0000
0100
0000
1000
0000
0100
0000
0010
1000
0010
0000
,
1000
0000
0100
0000
0010
0000
0002
0000
0000
0000
0103
0010
1000
0000
1001
0000
,
0001
0010
0001
0000
0010
0000
0100
0000
0001
0000
0100
0000
0010
0001
0010
0000
,
0001
0000
0100
0000
0010
0000
2000
0000
0000
0000
3100
0010
0001
0000
1001
0000
,
0001
0100
0001
0000
0100
0000
0010
0000
0001
0000
0010
0100
0010
0000
1000
0000
,
0001
0000
0010
0000
0100
0000
2000
0000
0000
0000
3010
0100
0001
0000
1001
0000
,
1000
0100
1000
0000
0100
0000
0010
0000
1000
0000
0010
0100
0010
0000
0001
0000
,
1000
0000
0010
0000
0100
0000
0001
1000
0200
0000
0000
0000
0320
0000
0000
0000
,
0032
0000
0000
0000
0010
0000
0000
0000
0203
0000
0010
0000
0310
0100
0001
0000
,
2000
0000
0000
0000
0010
0000
0000
0000
3200
0000
0010
0000
0310
0100
1000
0000
,
0002
0000
0000
0000
0100
0000
0000
0000
1003
0000
0100
0000
0010
0001
1000
0000
,
0010
0100
0001
0000
0020
0000
0230
0000
,
2300
0000
0000
0000
0100
0000
0000
0000
3020
0000
0100
0000
0130
0010
1000
0000
,
0002
0000
0000
0000
0100
0000
0000
0000
0023
0000
0100
0000
0130
0010
0001
0000
,
2000
0000
0000
0000
0100
0000
0000
0000
3001
0000
0100
0000
0010
1000
0001
0000
,
1000
0000
0100
0000
0010
0001
0010
0001
0001
0000
0010
0000
0011
0000
0010
0001
,
1000
0000
1010
0000
1000
0001
0010
0000
0011
0000
0010
0001
0100
0000
0101
0000
,
0000
0000
0001
0000
0010
0000
0001
0000
1000
0000
0010
0000
1010
0000
0010
1000
,
0001
0000
0011
0000
0001
1000
0010
0000
1010
0000
0010
1000
0100
0000
1100
0000
,
0000
0000
1000
0000
0010
0000
0100
0000
0001
0000
1000
0100
0010
0000
0110
0000
,
0000
0000
0001
0000
0010
0000
0100
0000
1000
0000
0001
0100
0010
0000
0110
0000
,
0000
1000
0001
1001
0010
0110
1000
1001
,
0100
0110
0001
1002
0000
0103
0010
2001
,
0000
0000
3100
0000
0010
0000
0001
0000
0100
0000
0010
0000
1010
0000
0010
0100
,
0001
0000
0011
0000
0001
0010
0100
0000
0110
0000
0010
0100
1000
0000
1001
0000
,
0000
0000
1000
0000
0010
0000
0100
0000
0001
0000
0010
0000
0011
0000
0010
0100
,
1000
0000
1010
0000
1000
0010
0100
0000
0110
0000
0010
0100
0001
0000
1001
0000
,
0000
0000
0001
0000
0010
0000
0100
0000
1100
0000
0000
0000
0001
0000
1000
0010
,
1000
0000
0010
0000
0100
0000
0010
0000
0011
0000
0000
0000
1000
0000
0001
0010
,
0001
0000
0010
0000
0100
0000
0010
0000
1010
0000
0000
0000
0001
0000
0100
0010
,
1000
0000
0100
0000
0010
0000
0001
0000
0011
0000
0000
1000
0010
0000
1010
0000
,
0000
0001
0010
0000
0011
0000
0000
0000
1002
0000
0000
0000
0100
0000
0000
0000
,
0000
0000
0100
0000
0000
0100
0000
0000
1000
0000
0000
0000
0100
0000
0000
0000
,
0000
0100
0000
0100
1003
0000
1001
0000
,
0000
0000
1001
0000
0000
1001
0000
0000
0100
0000
0000
0000
1001
0000
0000
0000
,
0000
0000
1001
0000
0000
0000
1001
0000
0001
0000
0010
0100
0000
0010
0100
0000
,
1000
0001
0000
1000
0001
0000
0100
0000
0010
0000
1000
0001
0000
1000
0001
0000
,
0010
0100
0000
0010
0100
0000
1000
0000
0001
0000
1000
0010
0000
0100
0001
0000
,
1000
0100
0000
0010
0001
0000
1000
0000
0010
0000
0100
0001
0000
0010
0100
0000
,
1000
0010
0000
0100
0001
0000
1000
0000
0200
0000
0000
0000
0000
0000
0000
0000
,
0000
0000
0320
0000
,
0000
0000
0000
0000
0000
0000
0000
0000
0130
0000
0010
0001
0000
1000
0001
0000
,
0100
0001
0000
1000
0001
0000
0010
0000
0100
0000
1000
0000
0001
0000
0100
0000
,
0010
0000
1000
0000
0001
0010
0100
1000
0000
0000
0000
0000
0000
0000
0000
0000
;

//---------------dance-single - ----------------
#NOTEDATA:;
#CHARTNAME:;
#STEPSTYPE:dance-single;
#DESCRIPTION:;
#CHARTSTYLE:;
#DIFFICULTY:Hard;
#METER:10;
#RADARVALUES:0.420189,0.501460,0.214816,0.446156,0.053704,356.000000,330.000000,26.000000,54.000000,0.000000,0.000000,0.000000,0.000000,0.000000,0.420189,0.501460,0.214816,0.446156,0.053704,356.000000,330.000000,26.000000,54.000000,0.000000,0.000000,0.000000,0.000000,0.000000;
#CREDIT:;
#OFFSET:-0.929086;
#BPMS:0.000000=140.000000
;
#STOPS:157.750000=0.857140
;
#DELAYS:;
#WARPS:;
#TIMESIGNATURES:0.000000=4=4
;
#TICKCOUNTS:0.000000=4
;
#COMBOS:0.000000=1
;
#SPEEDS:0.000000=1.000000=0.000000=0
;
#SCROLLS:0.000000=1.000000
;
#FAKES:;
#LABELS:0.000000=Song Start
;
#NOTES:
0000
0000
0000
0000
,
0000
0000
0000
0000
,
0000
0000
0000
0000
,
0000
0000
0000
0000
0001
0100
0010
2000
,
0000
0000
0000
0010
0000
0000
0000
3002
,
0000
0000
0000
0010
0000
0000
1000
2003
,
0000
0000
0000
0100
0000
0000
0001
3002
,
0000
0000
0000
0000
1003
0010
0100
0001
,
1000
0000
0001
0001
0010
0100
0010
1000
,
0020
0000
0100
0000
0031
0010
0100
1000
,
0001
0000
1000
1000
0010
0100
0010
0001
,
0020
0000
0100
0000
1030
0010
0100
0001
,
1000
0000
0100
0010
0100
0010
0100
1000
,
0001
0000
0100
0010
0100
0010
0100
0001
,
1000
0000
0001
0010
0100
1000
0010
0200
,
0001
0000
0010
0310
0000
1000
0001
1000
,
0100
0010
0011
0000
,
0001
0010
0100
0020
0000
0032
0000
0000
,
0103
0000
0010
0000
1010
0000
0000
2000
,
0000
3010
0100
0020
0000
2030
0000
0000
,
3001
0000
1000
0000
0100
0020
0000
0032
,
0000
0203
0000
0320
0000
0000
1030
0000
,
1000
0000
0001
0000
0010
0200
0000
2300
,
0000
3020
0000
0230
0000
0001
0000
0301
,
1000
0100
0001
0000
0201
0000
0010
0000
,
0301
0100
1000
0020
0000
1030
0000
1001
,
0001
0100
1000
0000
1200
0000
0010
0000
,
1300
0100
0001
0020
0000
0031
0000
1001
,
1001
0000
1000
0010
0001
0020
0000
0100
,
0000
0031
0010
2000
0000
3010
0000
1001
,
1001
0000
0001
0010
1000
0020
0000
0100
,
0000
1030
0010
0001
2000
0000
3200
0000
,
0320
0100
0032
1000
,
0203
0000
0010
0000
0302
0000
1003
0001
,
0010
0100
1000
0100
1000
0001
0100
0000
,
0010
1000
0100
0010
0002
0000
0203
0000
,
0320
0100
2030
0001
,
3200
0000
0010
0000
2300
0000
3001
1000
,
0010
0100
0001
1000
0001
1000
0100
0010
,
0001
0000
0100
0000
0010
0000
0000
1000
1000
0000
0010
0000
2010
0000
0000
0000
,
0010
0010
0000
0001
0001
0000
3100
1100
,
0000
1000
0100
0010
0001
0010
0012
0000
,
0010
0010
0000
1000
1000
0000
0103
0101
,
0000
0001
1000
0001
0010
0001
0010
1000
,
0000
0010
0001
1000
0010
1000
0010
0001
,
0000
0010
1000
1010
0000
0101
0000
0011
,
0000
1100
0000
1001
0000
0100
0010
2002
,
0000
0000
3003
0000
0001
0010
0210
0000
,
1000
1000
0000
0010
0010
0000
0301
0101
,
0000
0100
1000
0001
1000
0010
0210
0000
,
0001
0001
0000
0010
0010
0000
1300
1100
,
0000
0100
0010
0100
0002
0000
0013
0100
,
0001
0100
0001
0100
2000
0000
3010
0100
,
1000
0100
1000
0100
0002
0000
1003
0000
,
0001
0010
0100
1000
0020
0000
0100
0230
,
0000
0001
0301
0000
2002
0000
0000
0000
,
0000
0000
0000
0000
,
0000
3003
0001
0011
,
0000
0000
1000
0000
0000
0010
0000
0000
1000
0000
0000
0000
1010
0000
0000
0000
,
0000
0000
0001
0000
0000
0000
0001
0000
1000
0000
0000
0100
0000
0000
1000
0000
,
0000
0100
0000
0000
0010
0000
0000
0000
0001
0000
0000
0100
0000
0000
0001
0000
,
0000
0100
0000
0000
0010
0000
0000
0000
1000
0000
0000
0001
0000
0000
0010
0000
,
0000
0100
0000
0000
1000
0000
0000
0000
0001
0000
0000
0100
0000
0000
0010
0000
,
0000
1000
0000
0000
0100
0000
0010
0000
0200
0000
0000
0000
0000
0000
0000
0000
,
0000
0000
0320
0000
,
0000
0000
0000
0000
0000
0000
0000
0000
0031
0000
0000
0100
0000
0000
0001
0000
,
0000
0100
0000
0000
0010
0000
1000
0000
0100
0000
0010
0000
0100
0000
0010
0000
,
0001
0000
0100
0000
0010
0000
1000
0100
0000
0000
0000
0000
0000
0000
0000
0000
;

//---------------dance-single - ----------------
#NOTEDATA:;
#CHARTNAME:;
#STEPSTYPE:dance-single;
#DESCRIPTION:;
#CHARTSTYLE:;
#DIFFICULTY:Beginner;
#METER:2;
#RADARVALUES:0.093244,0.167928,0.033049,0.223078,0.000000,79.000000,75.000000,4.000000,27.000000,0.000000,0.000000,0.000000,0.000000,0.000000,0.093244,0.167928,0.033049,0.223078,0.000000,79.000000,75.000000,4.000000,27.000000,0.000000,0.000000,0.000000,0.000000,0.000000;
#CREDIT:;
#OFFSET:-0.929086;
#BPMS:0.000000=140.000000
;
#STOPS:;
#DELAYS:;
#WARPS:;
#TIMESIGNATURES:0.000000=4=4
;
#TICKCOUNTS:0.000000=4
;
#COMBOS:0.000000=1
;
#SPEEDS:0.000000=1.000000=0.000000=0
;
#SCROLLS:0.000000=1.000000
;
#FAKES:;
#LABELS:0.000000=Song Start
;
#NOTES:
0000
0000
0000
0000
,
0000
0000
0000
0000
,
0000
0000
0000
0000
,
0000
0000
0000
0000
,
2000
0000
3000
0000
,
2000
0000
3000
0000
,
0002
0000
0003
0000
,
2000
0000
3000
0000
,
0100
0000
0100
0000
,
0100
0000
0000
0000
,
0010
0000
0010
0000
,
0010
0000
0000
0000
,
0002
0000
0003
0000
,
0002
0000
0003
0000
,
2000
0000
3000
0000
,
0002
0000
0003
0000
,
0100
0000
0000
0000
,
0000
0000
0000
0000
,
0010
0000
0000
0000
,
0000
0000
0000
0000
,
1000
0000
0000
0000
,
0000
0000
0000
0000
,
0001
0000
0000
0000
,
0000
0000
0000
0000
,
0000
1000
1000
0000
,
0010
0000
0000
0000
,
0000
0001
0001
0000
,
0010
0000
0000
0000
,
0000
1000
1000
0000
,
0100
0000
0000
0000
,
0000
0001
0001
0000
,
0100
0000
0000
0000
,
2000
0000
3000
0000
,
0020
0000
0030
0000
,
0200
0000
0000
0000
,
0300
0000
0000
0000
,
0002
0000
0003
0000
,
0020
0000
0030
0000
,
0200
0000
0000
0000
,
0300
0000
0000
0000
,
2002
0000
3003
0010
,
0010
0000
0000
0000
,
2002
3003
0001
0000
,
1000
0000
0000
0000
,
0010
0000
0000
0000
,
0100
0000
0000
0000
,
0001
0000
0001
0000
,
1000
0000
0001
0000
,
2002
0000
3003
0010
,
0010
0000
0000
0000
,
2002
0000
3003
0100
,
0100
0000
0000
0000
,
1000
0000
1000
0000
,
0001
0000
0001
0000
,
1000
0000
1000
0000
,
0020
0000
0030
0000
,
0010
0000
0000
0000
,
0100
0000
0000
0000
,
0001
0000
0000
0000
,
1000
0000
0000
0000
,
0200
0000
0300
0000
,
0020
0000
0030
0000
,
0002
0000
0003
0000
,
2000
0000
3000
0000
,
0010
0000
0000
0000
,
0000
0000
0000
0000
,
0010
0000
0100
0000
,
0010
0000
0100
0100
;

//---------------dance-single - ----------------
#NOTEDATA:;
#CHARTNAME:;
#STEPSTYPE:dance-single;
#DESCRIPTION:;
#CHARTSTYLE:;
#DIFFICULTY:Medium;
#METER:7;
#RADARVALUES:0.263208,0.391109,0.090884,0.537039,0.000000,223.000000,212.000000,11.000000,65.000000,0.000000,0.000000,0.000000,0.000000,0.000000,0.263208,0.391109,0.090884,0.537039,0.000000,223.000000,212.000000,11.000000,65.000000,0.000000,0.000000,0.000000,0.000000,0.000000;
#CREDIT:;
#OFFSET:-0.929086;
#BPMS:0.000000=140.000000
;
#STOPS:157.750000=0.428566
;
#DELAYS:;
#WARPS:;
#TIMESIGNATURES:0.000000=4=4
;
#TICKCOUNTS:0.000000=4
;
#COMBOS:0.000000=1
;
#SPEEDS:0.000000=1.000000=0.000000=0
;
#SCROLLS:0.000000=1.000000
;
#FAKES:;
#LABELS:0.000000=Song Start
;
#NOTES:
0000
0000
0000
0000
,
0000
0000
0000
0000
,
0000
0000
0000
0000
,
0000
0000
0000
0000
0000
0000
0000
2000
,
0000
0000
0000
0010
0000
0000
0000
3002
,
0000
0000
0000
0010
0000
0000
0000
2003
,
0000
0000
0000
0100
0000
0000
0000
3002
,
0000
0000
0103
0010
,
2000
0000
0000
0010
0000
0010
0000
3002
,
0000
1003
0100
0010
,
0002
0000
0000
0010
0000
0010
0000
2003
,
0000
3001
0100
0010
,
2000
0010
3002
0010
,
2003
0100
3002
0100
,
2003
0010
3200
0010
,
2300
0000
3001
0001
,
1000
0010
0010
0000
,
1000
0000
0000
0020
0000
0230
0000
0000
,
0301
0000
0010
0000
0010
0000
0000
0001
,
0000
0000
0000
0020
0000
0230
0000
0000
,
1300
0000
0001
0000
0100
0000
0000
0020
,
0000
2030
0000
3020
0000
0000
1030
0000
,
0001
0000
1000
0000
0100
0000
0000
0020
,
0000
0032
0000
0023
0000
0000
0031
0000
,
1000
0010
1000
0000
2020
0000
3030
0000
,
0010
0000
1000
0200
0000
0320
0000
0000
,
0031
0010
0001
0000
0022
0000
0033
0000
,
0010
0000
0001
0200
0000
0320
0000
0000
,
1030
0000
0100
1000
0100
0000
0000
0020
,
0000
0130
0010
0002
0000
0000
1003
0000
,
0001
0000
0100
0001
0100
0000
0000
0020
,
0000
0130
0010
2000
0000
0000
3000
0000
,
2200
3000
0020
0300
,
0002
0030
2000
3000
,
0103
0010
1000
0001
,
0010
0100
1000
0001
,
0202
0003
0020
0300
,
2000
0030
0002
0003
,
3100
0010
0100
0010
,
0002
0000
0003
1000
,
1020
0000
0000
0001
0000
0000
1000
0000
,
0000
0001
0000
1030
0010
1000
0200
0000
,
0001
0000
0000
1000
0000
0000
0001
0000
,
0000
1300
0000
1000
0001
1000
0020
0000
,
0030
1000
0000
0010
0000
2002
0000
3003
,
0000
0001
0000
0010
0000
1001
0000
1001
,
0000
0110
0000
0110
0000
2000
0000
3010
,
0100
0002
0000
0000
0003
0000
0001
0000
,
0021
0000
0000
1000
0000
0000
0001
0000
,
0000
1000
0000
0031
0010
0001
0200
0000
,
1000
0000
0000
0001
0000
0000
1000
0000
,
0000
0301
0000
1000
0001
1000
0200
0000
,
0300
0000
1000
0000
0001
0200
0000
0000
,
0300
0000
0010
0000
1000
0002
0000
0000
,
0003
0000
0010
0100
0010
0000
0002
0000
,
0000
2003
0000
0000
0000
3020
0000
0000
,
0000
0000
0000
0000
,
0000
0000
0030
0010
,
0100
0000
0100
0010
,
0100
0000
0100
0001
,
0010
0100
1000
0001
,
0100
0010
1000
0001
,
0010
1000
0010
0001
,
0100
1000
0100
0002
,
0000
0000
0000
2003
,
0000
0000
0000
3100
,
0010
0000
0100
0010
0001
0000
0100
0000
,
0010
0000
0100
0010
1000
0010
0000
0000
;

//---------------dance-single - ----------------
#NOTEDATA:;
#CHARTNAME:;
#STEPSTYPE:dance-single;
#DESCRIPTION:;
#CHARTSTYLE:;
#DIFFICULTY:Easy;
#METER:4;
#RADARVALUES:0.188849,0.223078,0.057835,0.413107,0.000000,160.000000,153.000000,7.000000,50.000000,0.000000,0.000000,0.000000,0.000000,0.000000,0.188849,0.223078,0.057835,0.413107,0.000000,160.000000,153.000000,7.000000,50.000000,0.000000,0.000000,0.000000,0.000000,0.000000;
#CREDIT:;
#OFFSET:-0.929086;
#BPMS:0.000000=140.000000
;
#STOPS:157.750000=0.428566
;
#DELAYS:;
#WARPS:;
#TIMESIGNATURES:0.000000=4=4
;
#TICKCOUNTS:0.000000=4
;
#COMBOS:0.000000=1
;
#SPEEDS:0.000000=1.000000=0.000000=0
;
#SCROLLS:0.000000=1.000000
;
#FAKES:;
#LABELS:0.000000=Song Start
;
#NOTES:
0000
0000
0000
0000
,
0000
0000
0000
0000
,
0000
0000
0000
0000
,
0000
0000
0000
0000
,
2000
0000
3000
0000
,
0002
0000
0003
0000
,
0020
0000
0030
0000
,
0200
0000
1300
0001
,
1000
0000
0010
1000
,
0020
0000
0130
0000
,
0001
0000
0010
0001
,
0020
0000
0130
0000
,
2000
3000
2000
3000
,
0002
0003
0002
0003
,
0200
0300
0020
0030
,
2000
0000
0000
0000
,
3000
0001
0001
0000
,
0001
0010
0001
0000
,
0000
1000
1000
0000
,
1000
0010
1000
0000
,
0000
0001
0001
0000
,
0100
0001
1000
0000
,
0000
1000
1000
0000
,
0100
1000
0001
0000
,
0000
2000
3020
0030
,
1000
0010
0100
0001
,
0000
0002
0023
0030
,
0001
0010
0100
1000
,
0000
0002
0203
0300
,
0001
1000
0100
0100
,
0000
2000
3200
0300
,
1000
0001
0100
0100
,
0200
0000
0320
0000
,
2030
0000
3002
0000
,
0023
0000
0000
0100
,
0130
0000
0010
0100
,
0020
0000
0032
0000
,
2003
0000
3020
0000
,
0230
0000
0000
0301
,
1000
0000
0000
2002
,
0000
3003
0001
1000
,
0200
0300
0100
2002
,
3003
0002
0003
0001
,
1000
0020
0030
0110
,
0000
1000
0000
0110
,
0000
0001
0000
1000
,
1000
0001
0001
2000
,
0000
3001
0000
2002
,
0000
3003
1000
0001
,
0200
0300
0100
2002
,
0000
3003
1000
0001
,
0020
0030
0000
0110
,
0000
0001
0010
1000
,
0000
1000
0010
0001
,
0000
0100
0010
2000
,
0000
3002
0000
0023
,
0000
0000
0000
0000
,
0000
0000
0030
0100
,
0010
0000
0010
0100
,
0010
0000
0010
0001
,
0001
0001
0000
1000
,
1000
1000
0000
0001
,
0100
0010
0000
1000
,
0100
0010
0001
2000
,
0000
0000
0000
3002
,
0000
0000
0000
0103
,
0010
0100
0010
1000
,
0001
0010
0100
0000
;
