#VERSION:0.83;
#TITLE:登山者たち;
#SUBTITLE:;
#ARTIST:ひので155;
#TITLETRANSLIT:Tozanshatachi;
#SUBTITLETRANSLIT:;
#ARTISTTRANSLIT:Hinode155;
#GENRE:Tozan;
#ORIGIN:;
#CREDIT:;
#BANNER:Tozanshatachi.png;
#BACKGROUND:Tozanshatachi-bg.png;
#PREVIEWVID:;
#JACKET:Tozanshatachi-jacket.png;
#CDIMAGE:;
#DISCIMAGE:;
#LYRICSPATH:;
#CDTITLE:cdtitle.png;
#MUSIC:Tozanshatachi.ogg;
#OFFSET:-0.599000;
#SAMPLESTART:49.798996;
#SAMPLELENGTH:13.714287;
#SELECTABLE:YES;
#BPMS:0.000=175.000;
#STOPS:;
#DELAYS:;
#WARPS:;
#TIMESIGNATURES:0.000=4=4;
#TICKCOUNTS:0.000=4;
#COMBOS:0.000=1;
#SPEEDS:0.000=1.000=0.000=0;
#SCROLLS:0.000=1.000;
#FAKES:;
#LABELS:0.000=Song Start;
#BGCHANGES:;
#KEYSOUNDS:;
#ATTACKS:
;

//---------------dance-single - ----------------
#NOTEDATA:;
#CHARTNAME:;
#STEPSTYPE:dance-single;
#DESCRIPTION:;
#CHARTSTYLE:;
#DIFFICULTY:Challenge;
#METER:15;
#RADARVALUES:0.767272,0.867295,0.426976,0.842716,0.331468,478.000000,440.000000,38.000000,75.000000,0.000000,0.000000,0.000000,0.000000,0.000000,0.767272,0.867295,0.426976,0.842716,0.331468,478.000000,440.000000,38.000000,75.000000,0.000000,0.000000,0.000000,0.000000,0.000000;
#CREDIT:;
#NOTES:
// measure 0
0000
0000
0000
0000
,  // measure 1
0000
0000
0000
0000
,  // measure 2
0011
1010
1100
0101
,  // measure 3
0001
0000
0010
0000
0001
0000
0010
0000
0001
0000
0000
0000
0010
0000
0000
0000
0001
0000
0000
0000
0000
0000
0000
0000
2002
3003
0000
0000
0000
0000
0000
0000
,  // measure 4
2000
0100
0000
3001
0000
1000
0010
0100
,  // measure 5
0002
0100
0000
1003
0000
0001
0010
0100
,  // measure 6
2000
0010
0000
3001
0000
1000
0010
0100
,  // measure 7
0002
0000
0000
0000
0010
0000
0000
0000
0000
0000
0000
0000
1003
0000
0000
0000
2002
3003
0000
0000
0000
0000
0000
0000
0001
0000
0000
0000
0100
0000
0000
0000
,  // measure 8
0010
0000
1000
0010
1000
0000
0001
1000
0200
0000
0000
0000
1300
0000
0100
0000
,  // measure 9
0010
0000
0001
0010
0001
0000
1000
0001
0200
0000
0000
0000
0310
0000
1000
0000
,  // measure 10
0001
0000
0010
0100
1000
0000
0010
0100
0002
0000
0000
0000
1003
0000
0100
0000
,  // measure 11
0010
0000
0000
0000
0100
0000
0010
0000
0001
0000
0000
0000
1000
0000
0000
0000
2002
3003
0000
0000
0000
0000
0000
0000
1000
0000
0000
0000
0010
0000
0000
0000
,  // measure 12
0100
0010
0100
0001
1000
0001
1000
0100
,  // measure 13
0010
0100
0010
0001
1000
0001
1000
0010
,  // measure 14
0100
0010
0100
0001
1000
0001
1000
0100
,  // measure 15
0010
0000
0000
0000
0010
0000
0000
0000
0010
0000
0000
0000
0010
0000
0000
0000
0010
0000
0000
0000
0000
0000
0000
0000
2002
3003
0000
0000
0000
0000
0000
0000
,  // measure 16
0001
0000
0100
0010
0100
0000
0001
0000
0010
0000
0100
0010
0100
0000
0010
0000
,  // measure 17
0001
0000
0000
0000
1000
0000
0010
0000
0100
0000
0000
0000
0020
0000
0000
0000
0001
0000
0000
0000
0000
0000
0000
0000
2030
3000
0000
0000
0000
0000
0000
0000
,  // measure 18
1000
0000
0100
0010
0100
0000
1000
0000
0010
0000
0100
0010
0100
0000
0010
0000
,  // measure 19
1000
0000
0000
0000
0001
0000
0010
0000
0100
0000
0000
0000
0020
0000
0000
0000
1000
0000
0000
0000
0000
0000
0000
0000
0032
0003
0000
0000
0000
0000
0000
0000
,  // measure 20
2000
0000
3010
0001
1000
0100
0001
0010
,  // measure 21
2000
0000
3001
0100
1000
0001
0100
0010
,  // measure 22
1000
1000
0010
0010
0100
0100
0001
0001
,  // measure 23
1000
0000
0100
0000
0010
0000
0001
0000
1000
0001
0100
0001
1000
0000
1000
0000
,  // measure 24
0002
0000
0013
1000
0001
0100
1000
0010
,  // measure 25
0002
0000
1003
0100
0001
1000
0100
0010
,  // measure 26
0001
0001
0100
0100
0010
0010
1000
1000
,  // measure 27
0100
0000
0010
0001
1000
0000
0010
1000
0001
0000
1000
0000
0100
0010
0100
0010
,  // measure 28
0002
0000
0003
1000
0010
0000
0100
0000
0002
0000
0000
0000
0003
0000
0100
0000
,  // measure 29
0200
0000
0000
0000
0300
0000
0001
0000
0010
0000
0000
0000
0001
0000
0000
0000
0100
0000
0000
0000
0000
0000
0000
0000
2002
3003
0000
0000
0000
0000
0000
0000
,  // measure 30
2000
0000
3000
0001
0010
0000
0100
0000
2000
0000
0000
0000
3000
0000
0100
0000
,  // measure 31
0200
0000
0000
0000
0300
0000
1000
0000
0010
0000
0000
0000
1000
0000
0000
0000
0100
0000
0000
0000
0000
0000
0000
0000
2002
3003
0000
0000
0000
0000
0000
0000
,  // measure 32
0002
0000
0003
0100
1000
0000
0100
0000
0002
0000
0000
0000
0003
0000
1000
0000
,  // measure 33
2000
0000
0000
0000
3000
0000
0100
0000
0001
0000
0000
0000
0100
0000
0000
0000
1000
0000
0000
0000
0000
0000
0000
0000
2002
3003
0000
0000
0000
0000
0000
0000
,  // measure 34
1010
0011
0101
1100
,  // measure 35
1000
0010
1000
0010
1000
0000
0010
0000
1000
0000
0000
0000
0002
0000
1003
0000
,  // measure 36
0100
0000
1001
1000
0010
0000
1001
0001
,  // measure 37
0010
0000
0110
1000
0001
0000
1001
0001
,  // measure 38
0100
0000
1010
0010
0100
0001
1001
1000
,  // measure 39
0100
0000
0000
0000
0010
0000
0000
0000
0011
0000
0000
0000
0001
0000
0000
0000
1000
0000
0000
0000
0000
0000
0000
0000
2002
3003
0000
0000
0001
0000
0100
0000
,  // measure 40
0010
0000
1000
0000
0020
0000
1030
0100
0010
0000
0001
0000
2000
0000
3010
0100
,  // measure 41
0001
0000
0010
0100
2000
0000
3001
0000
1000
0010
1000
0010
0100
0001
1000
0001
,  // measure 42
0020
0030
0000
0000
,  // measure 43
1000
0010
0100
0001
,  // measure 44
0011
1010
1100
0101
,  // measure 45
0001
0000
0010
0000
0001
0000
0010
0000
0001
0000
0000
0000
0010
0000
0000
0000
0001
0000
0000
0000
0000
0000
0000
0000
2002
3003
0000
0000
0001
0000
0000
0000
,  // measure 46
0100
0000
1001
0001
0010
0000
1001
1000
,  // measure 47
0010
0000
0110
0001
1000
0000
1001
1000
,  // measure 48
0100
0000
0011
0010
0100
1000
1001
0001
,  // measure 49
0100
0000
0000
0000
0010
0000
0000
0000
1010
0000
0000
0000
1000
0000
0000
0000
0001
0000
0000
0000
0000
0000
0000
0000
2002
3003
0000
0000
1000
0000
0100
0000
,  // measure 50
0010
0000
0001
0000
0020
0000
0031
0100
0010
0000
1000
0000
0002
0000
0013
0100
,  // measure 51
1000
0000
0010
0100
0002
0000
1003
0000
0001
0010
0001
0010
0100
1000
0001
1000
,  // measure 52
0020
0030
0000
0000
,  // measure 53
0001
0010
0100
1000
,  // measure 54
0001
0000
0100
0010
1000
0000
0001
1000
0100
0000
0010
0000
0002
0000
1003
0000
,  // measure 55
1000
0000
0100
0010
0001
0000
1000
0001
0100
0000
0010
0000
2000
0000
3001
0000
,  // measure 56
0001
2000
3200
0320
2030
3002
0203
0320
,  // measure 57
0032
0203
0320
0032
2003
3200
0320
2030
,  // measure 58
3001
0000
0010
0000
0001
0000
0010
0000
0001
0000
0000
0000
0010
0000
0001
0000
0010
0000
0001
0000
0010
0000
0000
0000
0002
0003
0000
0000
0000
0000
0000
0000
,  // measure 59
1000
0010
1000
0010
1000
0000
0010
1000
0010
1000
0010
0000
0100
0000
0001
0000
,  // measure 60
1001
0002
0023
0032
,  // measure 61
2003
0010
3100
0110
;

//---------------dance-single - ----------------
#NOTEDATA:;
#CHARTNAME:;
#STEPSTYPE:dance-single;
#DESCRIPTION:;
#CHARTSTYLE:;
#DIFFICULTY:Hard;
#METER:11;
#RADARVALUES:0.539338,0.555069,0.415740,0.662936,0.000000,336.000000,299.000000,37.000000,59.000000,0.000000,0.000000,0.000000,0.000000,0.000000,0.539338,0.555069,0.415740,0.662936,0.000000,336.000000,299.000000,37.000000,59.000000,0.000000,0.000000,0.000000,0.000000,0.000000;
#CREDIT:;
#NOTES:
// measure 0
0000
0000
0000
0000
,  // measure 1
0000
0000
0000
0000
,  // measure 2
0101
1100
1010
0011
,  // measure 3
0001
0000
0000
0000
0010
0000
0000
0000
0001
0000
0000
0000
0010
0000
0000
0000
0001
0000
0000
0000
0000
0000
0000
0000
2002
3003
0000
0000
0000
0000
0000
0000
,  // measure 4
2000
0100
0000
0001
0000
3010
0000
0100
,  // measure 5
0002
0100
0000
1000
0000
0013
0000
0100
,  // measure 6
2000
0100
0000
0001
0000
3010
0000
0100
,  // measure 7
0002
0000
0000
0000
1000
0000
0000
0000
0000
0000
0000
0000
0013
0000
0000
0000
0220
0330
0000
0000
0000
0000
0000
0000
1000
0000
0000
0000
0001
0000
0000
0000
,  // measure 8
0200
0000
1000
0000
0010
0000
0301
1000
,  // measure 9
0200
0000
0001
0000
0010
0000
1300
0001
,  // measure 10
0200
0000
1000
0000
0001
0000
0310
0100
,  // measure 11
0001
0000
0000
0000
1000
0000
0000
0000
0100
0000
0000
0000
0000
0000
0000
0000
0220
0330
0000
0000
0000
0000
0000
0000
0001
0000
0000
0000
0010
0000
0000
0000
,  // measure 12
0100
1000
0000
0001
0000
1000
0000
0001
,  // measure 13
0000
0100
0000
0010
0000
0100
0000
0010
,  // measure 14
0000
1000
0000
0001
0000
1000
0000
0001
,  // measure 15
0010
0000
0000
0000
0100
0000
0000
0000
0010
0000
0000
0000
0100
0000
0000
0000
0010
0000
0000
0000
0000
0000
0000
0000
2002
3003
0000
0000
0000
0000
0000
0000
,  // measure 16
0001
0100
0001
0000
0100
0001
0100
0000
,  // measure 17
0001
0000
0000
0000
0100
0000
0000
0000
1000
0000
0000
0000
0200
0000
0000
0000
0001
0000
0000
0000
0000
0000
0000
0000
0320
0030
0000
0000
0000
0000
0000
0000
,  // measure 18
1000
0100
1000
0000
0100
1000
0100
0000
,  // measure 19
1000
0000
0000
0000
0100
0000
0000
0000
0001
0000
0000
0000
0200
0000
0000
0000
1000
0000
0000
0000
0000
0000
0000
0000
0320
0030
0000
0000
0000
0000
0000
0000
,  // measure 20
0002
0000
1000
0000
0103
0010
1000
0010
,  // measure 21
0200
0000
0010
0000
0301
0000
1000
0001
,  // measure 22
1000
1100
0001
0101
,  // measure 23
2000
0000
3100
0000
0010
0001
0100
0010
,  // measure 24
2000
0000
0001
0000
3100
0010
0001
0010
,  // measure 25
0200
0000
0010
0000
1300
0000
0010
1000
,  // measure 26
0001
0011
1000
1010
,  // measure 27
0001
0010
0100
1000
0001
0000
0100
0010
,  // measure 28
1000
0000
0100
0000
0020
0000
0030
0100
,  // measure 29
1000
0000
0000
0000
0000
0000
0000
0000
0010
0000
0000
0000
0000
0000
0000
0000
1000
0000
0000
0000
0000
0000
0000
0000
2002
3003
0000
0000
0000
0000
0000
0000
,  // measure 30
0001
0000
0100
0000
0020
0000
0030
0100
,  // measure 31
0001
0000
0000
0000
0000
0000
0000
0000
0010
0000
0000
0000
0000
0000
0000
0000
0001
0000
0000
0000
0000
0000
0000
0000
2002
3003
0000
0000
0000
0000
0000
0000
,  // measure 32
1000
0000
0010
0000
0200
0000
0300
0001
,  // measure 33
0010
0000
0000
0000
0000
0000
0000
0000
0100
0000
0000
0000
0000
0000
0000
0000
1000
0000
0000
0000
0000
0000
0000
0000
2002
3003
0000
0000
0000
0000
0000
0000
,  // measure 34
1100
0101
0011
1010
,  // measure 35
1000
0010
1000
0010
1000
0000
0002
1003
,  // measure 36
0100
0110
0001
0110
,  // measure 37
1000
1010
0001
0101
,  // measure 38
1000
0010
0001
0010
1000
0000
1010
0000
,  // measure 39
1000
0100
0001
0100
0010
0000
0110
0000
,  // measure 40
1000
0001
0200
0000
0310
1000
0002
0000
,  // measure 41
0023
0000
0130
1000
0010
0100
0001
1000
,  // measure 42
0200
0300
0000
0000
,  // measure 43
0001
0100
0010
1000
,  // measure 44
0101
1100
1010
0011
,  // measure 45
0001
0010
0001
0010
0001
0000
2000
3001
,  // measure 46
0100
0110
1000
0110
,  // measure 47
0001
0011
1000
1100
,  // measure 48
0001
0010
1000
0010
0001
0000
0011
0000
,  // measure 49
0001
0100
1000
0100
0010
0000
0110
0000
,  // measure 50
0001
1000
0200
0000
0310
0001
2000
0000
,  // measure 51
3020
0000
0130
0001
0010
0100
1000
0001
,  // measure 52
0200
0300
0000
0000
,  // measure 53
1000
0100
0010
0001
,  // measure 54
2000
0010
0000
0100
0000
3010
0000
0100
,  // measure 55
0002
0010
0000
0100
0000
0013
0000
0100
,  // measure 56
2000
3200
0302
0203
,  // measure 57
2300
3020
0032
0023
,  // measure 58
1030
0000
0000
0000
0010
0000
0000
0000
0100
0000
0000
0000
0010
0000
0000
0000
1000
0000
0000
0000
0000
0000
0000
0000
2020
3030
0000
0000
0000
0000
0000
0000
,  // measure 59
0001
0010
0100
0010
0001
0000
0100
0010
,  // measure 60
1000
0002
0023
0032
,  // measure 61
2003
0010
3100
0110
;

//---------------dance-single - ----------------
#NOTEDATA:;
#CHARTNAME:;
#STEPSTYPE:dance-single;
#DESCRIPTION:;
#CHARTSTYLE:;
#DIFFICULTY:Medium;
#METER:9;
#RADARVALUES:0.435002,0.450993,0.146071,0.955078,0.000000,271.000000,258.000000,13.000000,85.000000,0.000000,0.000000,0.000000,0.000000,0.000000,0.435002,0.450993,0.146071,0.955078,0.000000,271.000000,258.000000,13.000000,85.000000,0.000000,0.000000,0.000000,0.000000,0.000000;
#CREDIT:;
#NOTES:
// measure 0
0000
0000
0000
0000
,  // measure 1
0000
0000
0000
0000
,  // measure 2
2000
3200
0320
0032
,  // measure 3
1003
0000
0000
0000
0001
0000
0000
0000
1000
0000
0000
0000
0001
0000
0000
0000
1000
0000
0000
0000
0000
0000
0000
0000
2002
3003
0000
0000
0000
0000
0000
0000
,  // measure 4
0002
0100
0103
0010
,  // measure 5
2000
0100
3100
0010
,  // measure 6
0002
1000
1003
0010
,  // measure 7
0200
0000
0000
0000
0000
0000
0000
0000
0301
0000
0000
0000
0000
0000
0000
0000
2002
3003
0000
0000
0000
0000
0000
0000
1000
0000
0000
0000
0000
0000
0000
0000
,  // measure 8
0100
0010
0001
0000
0020
0000
0031
0000
,  // measure 9
0100
0010
1000
0000
0020
0000
1030
0000
,  // measure 10
0001
1000
0100
0000
0020
0000
0031
0000
,  // measure 11
1000
0000
0000
0000
0001
0000
0000
0000
0100
0000
0000
0000
0000
0000
0000
0000
0220
0330
0000
0000
0000
0000
0000
0000
0000
0000
0000
0000
0000
0000
0000
0000
,  // measure 12
0000
1000
0000
0001
0000
1000
0000
0001
,  // measure 13
0000
0010
0000
0100
0000
0010
0000
0100
,  // measure 14
0000
1000
0000
0001
0000
1000
0000
0001
,  // measure 15
1000
0000
0000
0000
0001
0000
0000
0000
1000
0000
0000
0000
0001
0000
0000
0000
1000
0000
0000
0000
0000
0000
0000
0000
2002
3003
0000
0000
0000
0000
0000
0000
,  // measure 16
0001
0001
0100
0100
,  // measure 17
0001
0000
0000
0000
0100
0000
0000
0000
0001
0000
0000
0000
0100
0000
0000
0000
0010
0000
0000
0000
0000
0000
0000
0000
2002
3003
0000
0000
0000
0000
0000
0000
,  // measure 18
1000
1000
0100
0100
,  // measure 19
1000
0000
0000
0000
0100
0000
0000
0000
1000
0000
0000
0000
0100
0000
0000
0000
0010
0000
0000
0000
0000
0000
0000
0000
2002
3003
0000
0000
0000
0000
0000
0000
,  // measure 20
0002
0000
0000
0000
0103
0010
1000
0000
,  // measure 21
0020
0000
0000
0000
1030
0000
0001
1000
,  // measure 22
0200
0320
0032
2003
,  // measure 23
3020
0130
0001
1000
,  // measure 24
2000
0000
0000
0000
3100
0010
0001
0000
,  // measure 25
0020
0000
0000
0000
0031
0000
1000
0001
,  // measure 26
0200
0000
0301
1000
0200
0000
0320
0000
,  // measure 27
0032
0000
0013
0000
0010
0001
1000
0000
,  // measure 28
0001
0100
0020
0030
,  // measure 29
0100
0000
0000
0000
0000
0000
0000
0000
0010
0000
0000
0000
0000
0000
0000
0000
1000
0000
0000
0000
0000
0000
0000
0000
2002
3003
0000
0000
0000
0000
0000
0000
,  // measure 30
1000
0100
0020
0030
,  // measure 31
0100
0000
0000
0000
0000
0000
0000
0000
0010
0000
0000
0000
0000
0000
0000
0000
0001
0000
0000
0000
0000
0000
0000
0000
2002
3003
0000
0000
0000
0000
0000
0000
,  // measure 32
1000
0010
2000
3000
,  // measure 33
0001
0000
0000
0000
0000
0000
0000
0000
0010
0000
0000
0000
0000
0000
0000
0000
0001
0000
0000
0000
0000
0000
0000
0000
2002
3003
0000
0000
0000
0000
0000
0000
,  // measure 34
0002
0203
0320
2030
,  // measure 35
3001
1000
0001
1000
0001
0000
2000
3001
,  // measure 36
0010
0000
0000
0001
1000
0000
0000
0001
,  // measure 37
0100
0000
0001
0100
0002
0000
0003
1000
,  // measure 38
0100
0000
0010
0000
0100
0000
1000
0010
,  // measure 39
0100
0000
0000
0000
0000
0000
0000
0000
0010
0000
0000
0000
0000
0000
0000
0000
2000
0000
0000
0000
0000
0000
0000
0000
3002
0003
0000
0000
1000
0000
0000
0000
,  // measure 40
0200
0000
0300
0010
0002
0000
0003
1000
,  // measure 41
0010
0000
0100
0001
0020
0000
0230
0000
,  // measure 42
1300
0000
0000
0000
,  // measure 43
0001
0100
0010
1000
,  // measure 44
2000
3200
0320
0032
,  // measure 45
1003
0000
0000
0000
0001
0000
0000
0000
1000
0000
0000
0000
0001
0000
0000
0000
1000
0000
0000
0000
0000
0000
0000
0000
0002
0003
0000
0000
1000
0000
0000
0000
,  // measure 46
0010
0000
0000
1000
0001
0000
0000
1000
,  // measure 47
0100
0000
1000
0100
2000
0000
3000
0001
,  // measure 48
0100
0000
0010
0000
0100
0000
0001
0010
,  // measure 49
0100
0000
0000
0000
0000
0000
0000
0000
0010
0000
0000
0000
0000
0000
0000
0000
0002
0000
0000
0000
0000
0000
0000
0000
2003
3000
0000
0000
0001
0000
0000
0000
,  // measure 50
0200
0000
0300
0010
2000
0000
3000
0001
,  // measure 51
0010
0000
0100
1000
0020
0000
0230
0000
,  // measure 52
0301
0000
0000
0000
,  // measure 53
1000
0100
0010
0001
,  // measure 54
2000
0000
0010
0000
3001
0000
0001
1000
,  // measure 55
0002
0000
0010
0000
1003
0000
1000
0001
,  // measure 56
2000
3020
0230
0302
,  // measure 57
0023
0230
2300
3002
,  // measure 58
0103
0000
0000
0000
0000
0000
0000
0000
0000
0000
0000
0000
0100
0000
0000
0000
0000
0000
0000
0000
0000
0000
0000
0000
2002
3003
0000
0000
0000
0000
0000
0000
,  // measure 59
0010
0000
0000
0010
0000
0000
1001
0000
,  // measure 60
1001
2000
3200
0320
,  // measure 61
0032
1000
0103
0110
;

//---------------dance-single - ----------------
#NOTEDATA:;
#CHARTNAME:;
#STEPSTYPE:dance-single;
#DESCRIPTION:;
#CHARTSTYLE:;
#DIFFICULTY:Easy;
#METER:6;
#RADARVALUES:0.313009,0.346918,0.202252,0.528102,0.000000,195.000000,177.000000,18.000000,47.000000,0.000000,0.000000,0.000000,0.000000,0.000000,0.313009,0.346918,0.202252,0.528102,0.000000,195.000000,177.000000,18.000000,47.000000,0.000000,0.000000,0.000000,0.000000,0.000000;
#CREDIT:;
#NOTES:
// measure 0
0000
0000
0000
0000
,  // measure 1
0000
0000
0000
0000
,  // measure 2
2000
3200
0320
0032
,  // measure 3
1003
0000
0000
0000
0000
0000
0000
0000
1000
0000
0000
0000
0000
0000
0000
0000
1000
0000
0000
0000
0000
0000
0000
0000
0002
0003
0000
0000
0000
0000
0000
0000
,  // measure 4
0100
0000
0001
0010
,  // measure 5
0001
0000
1000
0010
,  // measure 6
1000
0000
0100
0010
,  // measure 7
0100
0000
0000
0000
0000
0000
0000
0000
0000
0000
0000
0000
0000
0000
0000
0000
2002
3003
0000
0000
0000
0000
0000
0000
0000
0000
0000
0000
0000
0000
0000
0000
,  // measure 8
0001
0100
0020
0030
,  // measure 9
1000
0100
0020
0030
,  // measure 10
0001
1000
0002
0003
,  // measure 11
0100
0000
0000
0000
0000
0000
0000
0000
0010
0000
0000
0000
0000
0000
0000
0000
2002
3003
0000
0000
0000
0000
0000
0000
0000
0000
0000
0000
0000
0000
0000
0000
,  // measure 12
0001
0000
1000
0000
,  // measure 13
0001
0000
1000
0000
,  // measure 14
0001
0000
1000
0000
,  // measure 15
0001
0000
0000
0000
0000
0000
0000
0000
0001
0000
0000
0000
0000
0000
0000
0000
0001
0000
0000
0000
0000
0000
0000
0000
2000
3000
0000
0000
0000
0000
0000
0000
,  // measure 16
0100
0000
0100
0000
,  // measure 17
0010
0000
0000
0000
0000
0000
0000
0000
0001
0000
0000
0000
0000
0000
0000
0000
1000
0000
0000
0000
0000
0000
0000
0000
0020
0030
0000
0000
0000
0000
0000
0000
,  // measure 18
0100
0000
0100
0000
,  // measure 19
0010
0000
0000
0000
0000
0000
0000
0000
1000
0000
0000
0000
0000
0000
0000
0000
0001
0000
0000
0000
0000
0000
0000
0000
0020
0030
0000
0000
0000
0000
0000
0000
,  // measure 20
0200
0000
0310
0100
,  // measure 21
2000
0000
3100
1000
,  // measure 22
0001
0100
0001
0100
,  // measure 23
0020
0000
1030
0001
,  // measure 24
0200
0000
0310
0100
,  // measure 25
0002
0000
0103
0001
,  // measure 26
1000
0100
1000
0100
,  // measure 27
0020
0000
0031
1000
,  // measure 28
0001
0000
0100
0000
,  // measure 29
0100
0000
0000
0000
0000
0000
0000
0000
0001
0000
0000
0000
0000
0000
0000
0000
0010
0000
0000
0000
0000
0000
0000
0000
0002
0003
0000
0000
0000
0000
0000
0000
,  // measure 30
1000
0000
0100
0000
,  // measure 31
0100
0000
0000
0000
0000
0000
0000
0000
1000
0000
0000
0000
0000
0000
0000
0000
0010
0000
0000
0000
0000
0000
0000
0000
2000
3000
0000
0000
0000
0000
0000
0000
,  // measure 32
0001
0000
0010
0000
,  // measure 33
0100
0000
0000
0000
0000
0000
0000
0000
0010
0000
0000
0000
0000
0000
0000
0000
0100
0000
0000
0000
0000
0000
0000
0000
2000
3000
0000
0000
0000
0000
0000
0000
,  // measure 34
0002
0203
0320
2030
,  // measure 35
3001
0001
0001
0010
,  // measure 36
0011
0000
1100
0000
,  // measure 37
0101
0000
1010
0000
,  // measure 38
0001
0010
0100
0000
,  // measure 39
1000
0000
0000
0000
0000
0000
0000
0000
0010
0000
0000
0000
0000
0000
0000
0000
0100
0000
0000
0000
0000
0000
0000
0000
0002
0003
0000
0000
0000
0000
0000
0000
,  // measure 40
1001
0000
1001
0000
,  // measure 41
1000
0100
0001
0100
,  // measure 42
1000
0000
0000
0000
,  // measure 43
0001
0100
0010
1000
,  // measure 44
2000
3200
0320
0032
,  // measure 45
1003
0000
0000
0000
0000
0000
0000
0000
1000
0000
0000
0000
0000
0000
0000
0000
1000
0000
0000
0000
0000
0000
0000
0000
0020
0030
0000
0000
0000
0000
0000
0000
,  // measure 46
1010
0000
0101
0000
,  // measure 47
1100
0000
0011
0000
,  // measure 48
1000
0010
0100
0000
,  // measure 49
0001
0000
0000
0000
0000
0000
0000
0000
0010
0000
0000
0000
0000
0000
0000
0000
0100
0000
0000
0000
0000
0000
0000
0000
2000
3000
0000
0000
0000
0000
0000
0000
,  // measure 50
1001
0000
1001
0000
,  // measure 51
0001
0100
1000
0100
,  // measure 52
0001
0000
0000
0000
,  // measure 53
1000
0100
0010
0001
,  // measure 54
0200
0000
0310
1000
,  // measure 55
0200
0000
0310
0001
,  // measure 56
2000
3020
0230
0302
,  // measure 57
2003
3200
0320
0032
,  // measure 58
1003
0000
0000
0000
0000
0000
0000
0000
0000
0000
0000
0000
0000
0000
0000
0000
0000
0000
0000
0000
0000
0000
0000
0000
2020
3030
0000
0000
0000
0000
0000
0000
,  // measure 59
0001
0000
0000
0011
,  // measure 60
1100
0000
0000
0000
,  // measure 61
0000
0000
0000
0110
;

//---------------dance-single - ----------------
#NOTEDATA:;
#CHARTNAME:;
#STEPSTYPE:dance-single;
#DESCRIPTION:;
#CHARTSTYLE:;
#DIFFICULTY:Beginner;
#METER:3;
#RADARVALUES:0.171753,0.242843,0.011236,0.303378,0.000000,107.000000,106.000000,1.000000,27.000000,0.000000,0.000000,0.000000,0.000000,0.000000,0.171753,0.242843,0.011236,0.303378,0.000000,107.000000,106.000000,1.000000,27.000000,0.000000,0.000000,0.000000,0.000000,0.000000;
#CREDIT:;
#NOTES:
// measure 0
0000
0000
0000
0000
,  // measure 1
0000
0000
0000
0000
,  // measure 2
1000
0000
0001
0000
,  // measure 3
0200
0000
0000
0000
0000
0000
0000
0000
0000
0000
0000
0000
0000
0000
0000
0000
0300
0000
0000
0000
0000
0000
0000
0000
0200
0300
0000
0000
0000
0000
0000
0000
,  // measure 4
0100
0000
0000
0000
,  // measure 5
0010
0000
0000
0000
,  // measure 6
1000
0000
0000
0000
,  // measure 7
0001
0000
0000
0000
0000
0000
0000
0000
0000
0000
0000
0000
0000
0000
0000
0000
2000
3000
0000
0000
0000
0000
0000
0000
0000
0000
0000
0000
0000
0000
0000
0000
,  // measure 8
0100
0000
0000
0000
,  // measure 9
0010
0000
0000
0000
,  // measure 10
0001
0000
0000
0000
,  // measure 11
1000
0000
0000
0000
0000
0000
0000
0000
0000
0000
0000
0000
0000
0000
0000
0000
0002
0003
0000
0000
0000
0000
0000
0000
0000
0000
0000
0000
0000
0000
0000
0000
,  // measure 12
0100
0000
0010
0000
,  // measure 13
0100
0000
0010
0000
,  // measure 14
0100
0000
0010
0000
,  // measure 15
0200
0000
0000
0000
0000
0000
0000
0000
0000
0000
0000
0000
0000
0000
0000
0000
0300
0000
0000
0000
0000
0000
0000
0000
0200
0300
0000
0000
0000
0000
0000
0000
,  // measure 16
0100
0000
0001
0000
,  // measure 17
0020
0000
0000
0000
0000
0000
0000
0000
0000
0000
0000
0000
0000
0000
0000
0000
0030
0000
0000
0000
0000
0000
0000
0000
0200
0300
0000
0000
0000
0000
0000
0000
,  // measure 18
0100
0000
1000
0000
,  // measure 19
0020
0000
0000
0000
0000
0000
0000
0000
0000
0000
0000
0000
0000
0000
0000
0000
0030
0000
0000
0000
0000
0000
0000
0000
0200
0300
0000
0000
0000
0000
0000
0000
,  // measure 20
0100
0000
0001
0000
,  // measure 21
2000
0000
3000
0000
,  // measure 22
0010
0000
0100
0000
,  // measure 23
0001
0000
0010
0000
,  // measure 24
0100
0000
1000
0000
,  // measure 25
0002
0000
0003
0000
,  // measure 26
0010
0000
0100
0000
,  // measure 27
1000
0000
0010
0000
,  // measure 28
2000
0000
3000
0000
,  // measure 29
1000
0000
0000
0000
0000
0000
0000
0000
0000
0000
0000
0000
0000
0000
0000
0000
1000
0000
0000
0000
0000
0000
0000
0000
2000
3000
0000
0000
0000
0000
0000
0000
,  // measure 30
0002
0000
0003
0000
,  // measure 31
0001
0000
0000
0000
0000
0000
0000
0000
0000
0000
0000
0000
0000
0000
0000
0000
0001
0000
0000
0000
0000
0000
0000
0000
0002
0003
0000
0000
0000
0000
0000
0000
,  // measure 32
2000
0000
3000
0000
,  // measure 33
0001
0000
0000
0000
0000
0000
0000
0000
0000
0000
0000
0000
0000
0000
0000
0000
1000
0000
0000
0000
0000
0000
0000
0000
0002
0003
0000
0000
0000
0000
0000
0000
,  // measure 34
1000
0000
0001
0000
,  // measure 35
0200
0000
0000
0000
0000
0000
0000
0000
0000
0000
0000
0000
0000
0000
0000
0000
0300
0000
0000
0000
0000
0000
0000
0000
0200
0300
0000
0000
0000
0000
0000
0000
,  // measure 36
0100
0000
0010
0000
,  // measure 37
1000
0000
1000
0000
,  // measure 38
0100
0000
0010
0000
,  // measure 39
0100
0000
0000
0000
0000
0000
0000
0000
0000
0000
0000
0000
0000
0000
0000
0000
0100
0000
0000
0000
0000
0000
0000
0000
0200
0300
0000
0000
0000
0000
0000
0000
,  // measure 40
1000
0000
0010
0000
,  // measure 41
1000
1000
2000
0000
,  // measure 42
3000
0000
0000
0000
,  // measure 43
0000
0000
0000
0000
,  // measure 44
0001
0000
1000
0000
,  // measure 45
0200
0000
0000
0000
0000
0000
0000
0000
0000
0000
0000
0000
0000
0000
0000
0000
0300
0000
0000
0000
0000
0000
0000
0000
0200
0300
0000
0000
0000
0000
0000
0000
,  // measure 46
0100
0000
0010
0000
,  // measure 47
0001
0000
0001
0000
,  // measure 48
0100
0000
0010
0000
,  // measure 49
0100
0000
0000
0000
0000
0000
0000
0000
0000
0000
0000
0000
0000
0000
0000
0000
0100
0000
0000
0000
0000
0000
0000
0000
0200
0300
0000
0000
0000
0000
0000
0000
,  // measure 50
0001
0000
0010
0000
,  // measure 51
0001
0001
0002
0000
,  // measure 52
0003
0000
0000
0000
,  // measure 53
0000
0000
0000
0000
,  // measure 54
0001
0000
0100
0000
,  // measure 55
0010
0000
1000
0000
,  // measure 56
0100
0000
0010
0000
,  // measure 57
0001
0000
1000
0000
,  // measure 58
0010
0000
0000
0000
0000
0000
0000
0000
0000
0000
0000
0000
0000
0000
0000
0000
0000
0000
0000
0000
0000
0000
0000
0000
0020
0030
0000
0000
0000
0000
0000
0000
,  // measure 59
0010
0000
0000
0010
,  // measure 60
0100
0000
0000
0000
,  // measure 61
0000
0000
0000
1001
;
