#VERSION:0.83;
#TITLE:The Zoo Zone;
#SUBTITLE:;
#ARTIST:Mystic Moon;
#TITLETRANSLIT:;
#SUBTITLETRANSLIT:;
#ARTISTTRANSLIT:;
#GENRE:Animal Minimal;
#ORIGIN:;
#CREDIT:;
#BANNER:The Zoo Zone.png;
#BACKGROUND:The Zoo Zone-bg.png;
#PREVIEWVID:;
#JACKET:The Zoo Zone-jacket.png;
#CDIMAGE:;
#DISCIMAGE:;
#LYRICSPATH:;
#CDTITLE:cdtitle.png;
#MUSIC:The Zoo Zone.ogg;
#OFFSET:-0.938100;
#SAMPLESTART:14.436100;
#SAMPLELENGTH:12.000000;
#SELECTABLE:YES;
#DISPLAYBPM:160.000000;
#BPMS:0.000=160.000,
158.000=80.000,
158.500=160.000;
#STOPS:32.000=0.750,
93.500=0.188,
94.000=0.187,
94.500=0.188,
95.000=0.187,
158.000=0.563,
190.000=2.250,
219.500=0.188,
220.000=0.187,
220.500=0.188,
221.500=0.187;
#DELAYS:;
#WARPS:;
#TIMESIGNATURES:0.000=4=4;
#TICKCOUNTS:0.000=4;
#COMBOS:0.000=1;
#SPEEDS:0.000=1.000=0.000=0;
#SCROLLS:0.000=1.000;
#FAKES:;
#LABELS:0.000=Song Start;
#BGCHANGES:;
#KEYSOUNDS:;
#ATTACKS:
;

//---------------dance-single - ----------------
#NOTEDATA:;
#CHARTNAME:;
#STEPSTYPE:dance-single;
#DESCRIPTION:;
#CHARTSTYLE:;
#DIFFICULTY:Challenge;
#METER:15;
#RADARVALUES:0.726038,0.765585,0.537904,0.417339,0.523992,548.000000,490.000000,58.000000,45.000000,76.000000,0.000000,0.000000,0.000000,0.000000,0.726038,0.765585,0.537904,0.417339,0.523992,548.000000,490.000000,58.000000,45.000000,76.000000,0.000000,0.000000,0.000000,0.000000;
#CREDIT:;
#OFFSET:-0.938100;
#BPMS:0.000000=160.000000
,158.000000=80.000000
,158.500000=160.000000
;
#STOPS:32.000000=0.750000
,93.500000=0.187500
,94.000000=0.187500
,94.500000=0.187500
,95.000000=0.187500
,158.000000=0.562500
,190.000000=2.250000
,219.500000=0.187500
,220.000000=0.187500
,220.500000=0.187500
,221.500000=0.187500
;
#DELAYS:;
#WARPS:;
#TIMESIGNATURES:0.000000=4=4
;
#TICKCOUNTS:0.000000=4
;
#COMBOS:0.000000=1
;
#SPEEDS:0.000000=1.000000=0.000000=0
;
#SCROLLS:0.000000=1.000000
;
#FAKES:;
#LABELS:0.000000=Song Start
;
#DISPLAYBPM:160.000000;
#NOTES:
// measure 0
0000
0000
0000
0000
,  // measure 1
0000
0000
0000
0000
,  // measure 2
0000
0000
0000
0000
,  // measure 3
0000
0000
0000
0000
,  // measure 4
1000
0000
0001
0010
0000
0100
0000
0010
0100
0000
1000
0010
1000
0010
0100
0000
,  // measure 5
0001
0000
1000
0100
0000
0010
0000
0100
0010
0000
0001
0100
0001
0100
0010
0000
,  // measure 6
1010
1000
0001
0010
0011
0001
1000
0010
,  // measure 7
0110
0000
0000
0000
1001
0000
0000
0001
0010
0000
1000
0000
0010
0000
0001
0000
,  // measure 8
0000
0000
0001
0010
0100
1000
0001
0000
1000
0000
0010
0000
1000
0010
1000
0000
,  // measure 9
0110
0000
0000
1010
0000
0000
1002
0000
0013
0000
0100
0000
1000
0001
0000
1000
,  // measure 10
0001
0000
0100
0000
0010
0000
1000
0000
MMMM
0000
0100
0000
0001
1000
0000
0001
,  // measure 11
1000
0000
0100
0000
0010
0000
0001
0000
MMMM
0000
0100
0000
1000
0001
0000
1000
,  // measure 12
0001
0000
1000
0010
0100
0001
1000
0000
0001
0000
0010
0000
0001
0010
0001
0000
,  // measure 13
0110
0000
0000
0011
0000
0000
1002
0000
0103
0000
0010
0000
1000
0100
0000
0010
,  // measure 14
0001
0000
0100
0000
0010
0000
1000
0000
MMMM
0000
0010
0000
0001
0100
0000
0010
,  // measure 15
1000
0000
0100
0000
0010
0000
0001
0000
MMMM
0000
0010
0000
1000
0100
0000
1000
,  // measure 16
0100
1000
0001
0100
1010
0000
0110
0000
,  // measure 17
0010
0000
0001
0000
0010
0000
1000
0000
MMMM
0000
0010
0000
0001
0100
0000
0001
,  // measure 18
0100
0000
1000
0000
0100
0000
0001
0000
MMMM
0000
0010
0000
1000
0100
0000
1000
,  // measure 19
0100
0000
0001
0000
0100
0000
1000
0000
MMMM
0000
0010
0000
0001
0100
0000
0100
,  // measure 20
0010
1000
0100
0010
0011
0000
0110
0000
,  // measure 21
0010
0000
1000
0000
0010
0000
0001
0000
MMMM
0000
0010
0000
1000
0100
0000
0001
,  // measure 22
0100
0000
0010
0000
0001
0000
1000
0000
MMMM
0000
0010
0000
0001
0100
0000
1000
,  // measure 23
0100
0000
0010
0000
1000
0000
1001
0000
1100
0000
0011
0000
1001
1000
0010
0000
,  // measure 24
0100
0000
0010
0000
0001
0000
0000
0001
0010
0000
0100
0000
0010
0000
2010
0000
,  // measure 25
3001
0000
0010
0000
1000
0000
0000
1000
0010
0000
0100
0000
0010
0000
0012
0000
,  // measure 26
1003
0000
0010
0000
0001
0000
0000
0001
0010
0000
0100
0000
0010
0000
2010
0000
,  // measure 27
3100
0000
0010
0000
0012
0000
0003
0010
0100
0000
0010
0000
0001
0000
1002
0000
,  // measure 28
0103
0000
0010
0000
2001
0000
3000
0100
0001
0000
0100
0000
0010
0000
0012
0000
,  // measure 29
1003
0000
0010
0000
1002
0000
0003
0100
1000
0000
0100
0000
0010
0000
2010
0000
,  // measure 30
3100
0100
0010
0012
0103
0100
0010
1002
,  // measure 31
0013
0000
2001
0000
3010
0000
1002
0000
0013
0100
0000
0100
0010
0000
1001
0000
,  // measure 32
2001
3200
0320
0000
,  // measure 33
0000
0000
0000
0000
0032
0000
0010
0000
1003
0000
0000
0001
0000
0000
0001
0000
,  // measure 34
0200
0000
0320
0000
2030
0010
3001
0000
,  // measure 35
0002
0000
0010
0000
1003
0000
0000
0000
0001
0000
0100
0010
1000
0000
0001
0000
,  // measure 36
2001
0000
0100
3002
0000
0010
2003
0010
,  // measure 37
3001
0000
0000
1000
0000
0000
1000
0000
0001
0000
0000
0000
1000
0100
0000
0010
,  // measure 38
0002
0000
0100
2003
0000
0010
3002
0010
,  // measure 39
1003
0000
0000
0000
0000
0000
0000
0000
0000
0001
0000
0000
0000
0000
0000
0000
0000
0000
1000
0000
0000
0000
0000
0000
2001
0000
0000
0000
0000
0000
3001
0000
0000
0000
0000
0000
1000
0000
0000
0000
0100
0000
0000
0000
1000
0000
0000
0000
,  // measure 40
0100
0000
0000
0001
0000
0000
0100
0000
0000
0010
0000
0000
MMMM
0000
0000
1000
0000
0000
0001
0000
0100
0000
0001
0000
,  // measure 41
0100
0000
0000
1000
0000
0000
0100
0000
0000
0010
0000
0000
MMMM
0000
0000
0001
0000
0000
0010
0000
0100
0000
0010
0000
,  // measure 42
1000
0000
0000
0010
0000
0000
0001
0000
0000
0100
0000
0000
MMMM
0000
0000
1000
0000
0000
0010
0000
0100
0000
0010
0000
,  // measure 43
0001
0010
1000
0100
MMMM
0001
0100
1000
,  // measure 44
0001
0000
0010
0100
0010
0000
2010
0000
3001
0000
1000
0000
0100
0000
0001
0000
,  // measure 45
1000
0000
0010
0100
0010
0000
0012
0000
1003
0000
0010
0000
0100
0000
2010
0000
,  // measure 46
3001
0000
0010
0000
0100
0000
0012
0000
1003
0000
0010
0100
0010
0000
0120
0000
,  // measure 47
1030
0001
0000
1000
0001
0000
1001
0000
0110
0000
1000
0010
0100
0001
0010
0000
,  // measure 48
0001
0000
0010
0000
0100
1000
0010
0000
1010
0000
0000
0110
0000
0000
0102
0000
,  // measure 49
1003
0000
0100
0000
0100
0000
0100
0000
0020
0000
0000
0230
0000
0000
0302
0000
,  // measure 50
0103
0010
0000
0010
0100
0000
0010
0001
2000
0000
0001
0000
3001
0000
1000
0000
,  // measure 51
0010
0100
0000
0100
0010
0100
0001
0000
1000
0000
0001
0010
0100
1000
0010
0000
,  // measure 52
1000
0000
0010
0000
0100
0001
0010
0000
0011
0000
0000
0110
0000
0000
2100
0000
,  // measure 53
3001
0000
0100
0000
0100
0000
0100
0000
0020
0000
0000
0230
0000
0000
2300
0000
,  // measure 54
3100
0010
0000
0010
0100
0000
0010
1000
0001
0000
0010
0000
0100
0000
1100
0000
,  // measure 55
0011
0000
1010
0000
0010
0100
0001
0000
1000
0000
1000
0000
0010
0000
0010
0000
,  // measure 56
0100
0001
0000
0001
0010
0000
1001
0000
MMMM
0000
1000
0000
1000
0000
1000
0000
,  // measure 57
0100
1000
0000
1000
0010
0000
1001
0000
MMMM
0000
0001
0000
0001
0000
0001
0000
,  // measure 58
0010
0001
0000
1000
0010
0000
1001
0000
MMMM
0000
1000
0100
1000
0000
0001
0100
,  // measure 59
0001
0000
0100
0010
0000
0010
0100
0000
0001
1000
0001
1000
0100
0010
0100
0010
,  // measure 60
0001
2000
0000
3001
0000
0000
1001
0000
MMMM
0000
0001
0000
0100
0000
1000
0000
,  // measure 61
0001
0010
0000
0100
0010
0000
1010
0000
MMMM
0000
1000
0000
0100
0000
0001
0000
,  // measure 62
1000
0010
0000
0100
0010
0000
0011
0000
MMMM
0000
0001
0100
0001
0000
1000
0100
,  // measure 63
1000
0000
0001
0100
0000
0010
1000
0000
1001
0000
0000
0000
0000
0000
0000
0000
;

//---------------dance-single - ----------------
#NOTEDATA:;
#CHARTNAME:;
#STEPSTYPE:dance-single;
#DESCRIPTION:;
#CHARTSTYLE:;
#DIFFICULTY:Hard;
#METER:13;
#RADARVALUES:0.643895,0.647803,0.380242,0.472984,0.352420,486.000000,445.000000,41.000000,51.000000,0.000000,0.000000,0.000000,0.000000,0.000000,0.643895,0.647803,0.380242,0.472984,0.352420,486.000000,445.000000,41.000000,51.000000,0.000000,0.000000,0.000000,0.000000,0.000000;
#CREDIT:;
#OFFSET:-0.938100;
#BPMS:0.000000=160.000000
,158.000000=80.000000
,158.500000=160.000000
;
#STOPS:32.000000=0.750000
,93.500000=0.187500
,94.000000=0.187500
,94.500000=0.187500
,95.000000=0.187500
,158.000000=0.562500
,190.000000=2.250000
,219.500000=0.187500
,220.000000=0.187500
,220.500000=0.187500
,221.500000=0.187500
;
#DELAYS:;
#WARPS:;
#TIMESIGNATURES:0.000000=4=4
;
#TICKCOUNTS:0.000000=4
;
#COMBOS:0.000000=1
;
#SPEEDS:0.000000=1.000000=0.000000=0
;
#SCROLLS:0.000000=1.000000
;
#FAKES:;
#LABELS:0.000000=Song Start
;
#DISPLAYBPM:160.000000;
#NOTES:
// measure 0
0000
0000
0000
0000
,  // measure 1
0000
0000
0000
0000
,  // measure 2
0000
0000
0000
0000
,  // measure 3
0000
0000
0000
0000
,  // measure 4
1000
0100
0010
0100
1000
0100
0010
0001
,  // measure 5
0100
0010
0100
0001
0100
0010
1000
0001
,  // measure 6
0010
0100
0010
0100
1000
0001
1000
0001
,  // measure 7
0100
0000
0010
0000
0100
0000
0010
2000
0000
0000
3100
0000
0010
0000
0001
0000
,  // measure 8
0000
0000
0002
0000
0203
0000
0320
0000
1030
0000
0100
0000
0010
0100
0010
0000
,  // measure 9
0100
0000
0000
0011
0000
0000
1001
0000
0000
0000
1000
0000
0010
0100
0000
0100
,  // measure 10
0001
0000
1000
0000
0100
0000
0020
0000
0000
0000
0031
0000
0010
0100
0000
0100
,  // measure 11
1000
0000
0001
0000
0100
0000
0020
0000
0000
0000
1030
0000
0001
0100
0000
0100
,  // measure 12
0001
0000
2000
0000
3200
0000
0320
0000
0031
0000
0100
0000
0010
0100
0010
0000
,  // measure 13
0100
0000
0000
1010
0000
0000
1001
0000
0000
0000
0001
0000
0010
0001
0000
0001
,  // measure 14
0100
0000
0010
0000
1000
0000
0200
0000
0000
0000
1300
0000
0010
1000
0000
1000
,  // measure 15
0100
0000
0010
0000
0001
0000
0200
0000
0000
0000
0310
0000
1000
0100
0000
0010
,  // measure 16
0001
1000
0001
0100
0110
0000
1010
0000
,  // measure 17
1000
0000
0010
0000
0001
0000
0020
0000
0000
0000
0130
0000
0010
1000
0000
0001
,  // measure 18
1000
0000
0100
0000
0010
0000
2000
0000
0000
0000
3010
0000
0100
0010
0000
0001
,  // measure 19
1000
0000
0001
0000
0100
0000
2000
0000
0000
0000
3100
0000
0010
0100
0000
0100
,  // measure 20
0001
1000
0100
0010
0110
0000
0011
0000
,  // measure 21
0001
0000
0010
0000
1000
0000
0020
0000
0000
0000
0130
0000
0010
0001
0000
1000
,  // measure 22
0001
0000
0100
0000
0010
0000
0002
0000
0000
0000
0013
0000
0100
0010
0000
1000
,  // measure 23
0001
1000
0100
0110
0011
1001
1010
1000
,  // measure 24
0001
0000
0100
0000
1000
0000
0000
1000
0100
0000
0010
0000
0100
0000
0001
0000
,  // measure 25
1000
0000
0100
0000
0001
0000
0000
0001
0100
0000
0010
0000
0100
0000
1000
0000
,  // measure 26
0001
0000
0100
0000
1000
0000
0000
1000
0100
0000
0010
0000
1000
0000
0001
0000
,  // measure 27
0010
0010
0100
1000
1000
0001
0100
0010
,  // measure 28
1000
0000
0010
0000
0001
0000
0000
0001
0010
0000
1000
0000
0100
0000
0001
0000
,  // measure 29
0100
0000
0010
0000
1000
0000
0000
1000
0010
0000
0001
0000
0100
0000
1000
0000
,  // measure 30
0100
0001
0010
1000
0010
0001
0100
1000
,  // measure 31
0100
0000
0001
0000
0100
0000
1000
0000
0100
0001
0000
0001
0100
0000
0010
0000
,  // measure 32
2001
3200
0320
0000
,  // measure 33
0000
0000
0000
0000
0230
0000
1300
0000
0001
0000
0000
0100
0000
0000
0001
0000
,  // measure 34
0200
0000
0320
0000
0230
0301
1000
0000
,  // measure 35
0200
1300
0001
0000
1000
0010
0100
0001
,  // measure 36
2001
0000
0100
3200
0000
0310
0020
0031
,  // measure 37
0100
0000
0000
0001
0000
0000
1000
0000
0100
0000
0000
0000
0100
1000
0000
1000
,  // measure 38
0002
0000
0100
0203
0000
0310
0020
1030
,  // measure 39
0100
0000
0000
0000
0000
0000
0000
0000
0000
0100
0000
0000
0000
0000
0000
0000
0000
0000
0100
0000
0000
0000
0000
0000
1002
0000
0000
0000
0000
0000
1003
0000
0000
0000
0000
0000
0001
0000
0000
0000
0010
0000
0000
0000
0001
0000
0000
0000
,  // measure 40
0010
0000
0000
0100
0000
0000
0000
0000
0000
0011
0000
0000
0000
0000
0000
0001
0000
0000
1000
0000
0010
0000
1000
0000
,  // measure 41
0010
0000
0000
0100
0000
0000
0000
0000
0000
1010
0000
0000
0000
0000
0000
0001
0000
0000
1000
0000
0100
0000
0010
0000
,  // measure 42
0100
0000
0000
1000
0000
0000
0000
0000
0000
1100
0000
0000
0000
0000
0000
1000
0000
0000
0001
0000
0100
0000
0010
0000
,  // measure 43
0100
0001
0000
0101
0000
1000
0100
0100
,  // measure 44
0010
0100
0100
0001
0100
0100
0010
0100
,  // measure 45
0100
1000
0100
0001
0100
1000
0010
0001
,  // measure 46
0010
1000
0100
0001
0100
1000
0100
0001
,  // measure 47
0100
0010
0000
0100
1000
0000
0001
0000
1001
0000
0002
0000
0203
0000
0320
0000
,  // measure 48
1030
0000
0100
0000
1000
0100
0010
0000
0001
0000
0000
0101
0000
0000
1010
0000
,  // measure 49
0000
0000
0001
0000
0001
0000
0001
0000
0200
0000
0000
2300
0000
0000
3200
0000
,  // measure 50
0301
0100
0000
0001
0100
0000
0001
0000
0020
0000
0100
0000
0130
0000
0010
0000
,  // measure 51
0001
1000
0000
1000
0010
0000
0100
0000
0001
0000
2000
0000
3200
0000
0320
0000
,  // measure 52
0031
0000
0100
0000
0001
0100
0010
0000
1000
0000
0000
1100
0000
0000
0011
0000
,  // measure 53
0000
0000
1000
0000
1000
0000
1000
0000
0200
0000
0000
0302
0000
0000
0203
0000
,  // measure 54
1300
0100
0000
0010
0001
0000
1000
0000
0010
0000
0100
0000
0001
0000
1001
0000
,  // measure 55
0110
1001
0020
0030
0001
0010
1000
0010
,  // measure 56
0001
0010
0000
0011
0000
0000
1002
0000
0000
0000
0103
0000
1000
0000
0100
0000
,  // measure 57
0001
0100
0000
0101
0000
0000
2001
0000
0000
0000
3100
0000
0001
0000
0100
0000
,  // measure 58
1000
0100
0000
1100
0000
0000
2001
0000
0000
0000
3010
0000
0100
0000
0010
0000
,  // measure 59
0100
0000
0001
1000
0000
1000
0001
0000
0010
0000
0010
0000
0010
0000
0010
0000
,  // measure 60
0110
0000
0000
1100
0000
0000
2001
0000
0000
0000
3010
0000
0001
0000
0010
0000
,  // measure 61
1000
0010
0000
0101
0000
0000
1002
0000
0000
0000
0013
0000
1000
0000
0010
0000
,  // measure 62
0001
0010
0000
1100
0000
0000
1002
0000
0000
0000
0103
0000
0010
0000
0100
0000
,  // measure 63
0010
0000
1000
0100
0000
0010
0001
0000
1001
0000
0000
0000
0000
0000
0000
0000
;

//---------------dance-single - ----------------
#NOTEDATA:;
#CHARTNAME:;
#STEPSTYPE:dance-single;
#DESCRIPTION:;
#CHARTSTYLE:;
#DIFFICULTY:Beginner;
#METER:3;
#RADARVALUES:0.178860,0.372823,0.213307,0.102016,0.000000,135.000000,112.000000,23.000000,11.000000,0.000000,0.000000,0.000000,0.000000,0.000000,0.178860,0.372823,0.213307,0.102016,0.000000,135.000000,112.000000,23.000000,11.000000,0.000000,0.000000,0.000000,0.000000,0.000000;
#CREDIT:;
#OFFSET:-0.938100;
#BPMS:0.000000=160.000000
;
#STOPS:;
#DELAYS:;
#WARPS:;
#TIMESIGNATURES:0.000000=4=4
;
#TICKCOUNTS:0.000000=4
;
#COMBOS:0.000000=1
;
#SPEEDS:0.000000=1.000000=0.000000=0
;
#SCROLLS:0.000000=1.000000
;
#FAKES:;
#LABELS:0.000000=Song Start
;
#DISPLAYBPM:160.000000;
#NOTES:
// measure 0
0000
0000
0000
0000
,  // measure 1
0000
0000
0000
0000
,  // measure 2
0000
0000
0000
0000
,  // measure 3
0000
0000
0000
0000
,  // measure 4
1000
0000
0000
0000
,  // measure 5
0001
0000
0000
0000
,  // measure 6
1000
0000
0001
0000
,  // measure 7
0020
0000
0000
0030
,  // measure 8
0000
0000
0000
0000
,  // measure 9
2002
0000
3003
0000
,  // measure 10
0001
0000
0010
0000
,  // measure 11
0001
0000
0010
0000
,  // measure 12
0001
0000
0100
0000
,  // measure 13
2002
0000
3003
0000
,  // measure 14
1000
0000
0010
0000
,  // measure 15
1000
0000
0010
0000
,  // measure 16
1000
0000
0100
0000
,  // measure 17
1001
0000
1001
0000
,  // measure 18
0001
0000
0100
0000
,  // measure 19
0001
0000
0100
0000
,  // measure 20
0001
0000
0010
0000
,  // measure 21
1001
0000
1001
0000
,  // measure 22
1000
0000
0100
0000
,  // measure 23
1000
0000
0100
0000
,  // measure 24
0000
0000
0000
0000
,  // measure 25
1000
0000
0010
0000
,  // measure 26
0100
0000
0001
0000
,  // measure 27
0010
0000
0100
0000
,  // measure 28
1000
0000
0001
0000
,  // measure 29
0100
0000
0100
0000
,  // measure 30
0010
0000
0010
0000
,  // measure 31
1001
0000
1001
0000
,  // measure 32
1001
1001
1001
0000
,  // measure 33
2000
0000
0000
0000
,  // measure 34
3000
0000
0000
0000
,  // measure 35
0002
0000
0000
0000
,  // measure 36
0003
0000
0000
0000
,  // measure 37
1001
0000
0000
0000
,  // measure 38
0010
0000
0000
0000
,  // measure 39
1001
0000
0000
0000
,  // measure 40
0100
0000
0100
0000
,  // measure 41
0000
0000
1001
0000
,  // measure 42
1000
1000
1000
0000
,  // measure 43
0001
0001
0001
0000
,  // measure 44
1000
1000
1000
0000
,  // measure 45
0100
0000
0100
0000
,  // measure 46
0010
0000
0010
0000
,  // measure 47
1001
0000
1001
0000
,  // measure 48
1001
1001
1001
0000
,  // measure 49
1001
0000
0000
0000
,  // measure 50
0000
0000
0000
0000
,  // measure 51
2002
0000
3003
0000
,  // measure 52
0001
0000
0010
0000
,  // measure 53
0100
0000
0100
0000
,  // measure 54
1000
0000
0001
0000
,  // measure 55
2002
0000
3003
0000
,  // measure 56
1000
0000
0010
0000
,  // measure 57
0100
0000
0100
0000
,  // measure 58
0000
0000
0000
0000
,  // measure 59
0001
0001
0001
0000
,  // measure 60
0100
0100
0100
0000
,  // measure 61
0010
0010
0010
0000
,  // measure 62
1000
0000
0001
0000
,  // measure 63
1000
1000
1000
0000
,  // measure 64
0100
0100
0100
0000
,  // measure 65
0010
0010
0010
0000
,  // measure 66
0001
0000
1000
0000
,  // measure 67
1001
0000
0000
0000
;

//---------------dance-single - ----------------
#NOTEDATA:;
#CHARTNAME:;
#STEPSTYPE:dance-single;
#DESCRIPTION:;
#CHARTSTYLE:;
#DIFFICULTY:Medium;
#METER:10;
#RADARVALUES:0.453111,0.493388,0.343145,0.398791,0.051008,342.000000,305.000000,37.000000,43.000000,0.000000,0.000000,0.000000,0.000000,0.000000,0.453111,0.493388,0.343145,0.398791,0.051008,342.000000,305.000000,37.000000,43.000000,0.000000,0.000000,0.000000,0.000000,0.000000;
#CREDIT:;
#OFFSET:-0.938100;
#BPMS:0.000000=160.000000
;
#STOPS:31.500000=0.750000
;
#DELAYS:;
#WARPS:;
#TIMESIGNATURES:0.000000=4=4
;
#TICKCOUNTS:0.000000=4
;
#COMBOS:0.000000=1
;
#SPEEDS:0.000000=1.000000=0.000000=0
;
#SCROLLS:0.000000=1.000000
,160.000000=0.000000
,161.500000=1.000000
,194.000000=0.000000
,198.500000=1.000000
;
#FAKES:;
#LABELS:0.000000=Song Start
;
#DISPLAYBPM:160.000000;
#NOTES:
// measure 0
0000
0000
0000
0000
,  // measure 1
0000
0000
0000
0000
,  // measure 2
0000
0000
0000
0000
,  // measure 3
0000
0000
0000
0000
,  // measure 4
0001
0010
0001
0000
0100
0001
0100
0000
,  // measure 5
0010
1000
0010
0000
1000
0100
1000
0000
,  // measure 6
1001
0010
1001
0100
,  // measure 7
1001
0000
1001
0000
0001
0010
0100
1000
,  // measure 8
0000
2000
3002
0023
0030
0001
0001
0000
,  // measure 9
0001
0000
0000
0100
0000
0000
0010
0000
0000
0000
1000
0000
0001
0000
0000
0000
,  // measure 10
0010
0000
0001
1000
0000
0001
1000
0000
,  // measure 11
0010
0000
1000
0001
0000
1000
0001
0000
,  // measure 12
0010
0002
2003
3020
0030
1000
1000
0000
,  // measure 13
1000
0000
0000
0100
0000
0000
0010
0000
0000
0000
0001
0000
0100
0000
0000
0000
,  // measure 14
0010
0000
1000
0100
0000
1000
0100
0000
,  // measure 15
0010
0000
0001
0100
0000
0001
0100
0000
,  // measure 16
0010
1000
0001
0000
1001
0000
1001
0000
,  // measure 17
1000
0000
0100
0001
0000
0100
1000
0000
,  // measure 18
0001
0000
0100
1000
0000
0100
0001
0000
,  // measure 19
1000
0000
0100
0001
0000
0100
1000
0000
,  // measure 20
0001
0100
0010
0000
1001
0000
1001
0000
,  // measure 21
1000
0000
0001
0010
0000
1000
0010
0000
,  // measure 22
0001
0000
1000
0010
0000
0001
0010
0000
,  // measure 23
1000
0000
0001
0002
0000
2003
0000
3002
,  // measure 24
0000
2003
0000
3001
0000
0001
0010
0000
,  // measure 25
0001
0100
0000
1001
0000
1000
0010
0000
,  // measure 26
1000
0100
0000
1001
0000
0001
0010
0000
,  // measure 27
0100
1000
0000
1010
0000
0001
0011
0000
,  // measure 28
1000
0010
0000
0110
0000
0001
1001
0000
,  // measure 29
0001
0010
0000
0110
0000
1000
1001
0000
,  // measure 30
0001
0100
0000
1010
0000
0001
0000
0011
,  // measure 31
0000
1000
0000
1010
0000
0011
0000
1010
,  // measure 32
0000
0001
0010
0100
2000
0000
3002
0000
,  // measure 33
0203
0000
0000
0000
0000
0000
0320
1030
,  // measure 34
0001
0001
2000
3200
,  // measure 35
0320
0031
1000
0000
0020
1030
0001
0000
,  // measure 36
1000
0001
1000
0000
1002
0000
0000
0023
,  // measure 37
0000
0000
0230
1300
0010
0000
0100
0000
,  // measure 38
0001
0000
1000
0001
2000
0000
0000
3020
,  // measure 39
0000
0000
0230
0301
0010
0000
0100
0000
,  // measure 40
1002
0000
0000
0000
0000
0103
0100
0000
,  // measure 41
0101
0000
1010
0000
0001
1000
0100
0000
,  // measure 42
1100
0000
0011
0000
1000
0010
0100
0000
,  // measure 43
1010
0000
0011
0000
0001
0010
0100
0000
,  // measure 44
0011
0000
1010
0000
0001
0100
0010
0000
,  // measure 45
1000
0100
0000
0010
0001
0000
0100
0010
,  // measure 46
0000
1000
0001
0010
0000
0001
1000
0010
,  // measure 47
0000
1000
0001
0010
0000
1001
0000
0110
,  // measure 48
0000
1000
0010
0100
0001
0000
0000
0000
,  // measure 49
0000
0000
0000
0000
,  // measure 50
0000
0002
0023
0230
0300
0010
0010
0000
,  // measure 51
0100
0000
0000
1000
0000
0000
0010
0000
0000
0000
0100
0000
0010
0000
0100
0000
,  // measure 52
0010
0000
0000
0100
0000
0000
0001
0000
1000
0000
0000
0000
0001
0000
0000
0000
,  // measure 53
0020
0001
0130
1000
,  // measure 54
0001
2000
3020
0230
0300
0010
0010
0000
,  // measure 55
0100
0000
0000
0001
0000
0000
0010
0000
0000
0000
0100
0000
0010
0000
0100
0000
,  // measure 56
0010
0000
0000
0100
0000
0000
1000
0000
0001
0000
0000
0000
1000
0000
0000
0000
,  // measure 57
0020
0000
0100
0230
0000
0320
0000
0230
,  // measure 58
0000
0302
0003
0000
1000
0100
1000
0000
,  // measure 59
0100
0000
0000
0100
0000
0000
0020
0000
0000
0000
0031
0000
0100
0000
0000
0000
,  // measure 60
0010
0000
0000
0010
0000
0000
2000
0000
0000
0000
3001
0000
0010
0000
0000
0000
,  // measure 61
0100
0000
0000
1000
0000
0000
0002
0000
0000
0000
0003
0000
0101
0000
0000
0000
,  // measure 62
1100
0000
0101
0000
1000
0010
0100
0001
,  // measure 63
2000
0000
0000
3001
0000
0001
0010
0000
,  // measure 64
0100
0000
0000
1000
0000
0000
0002
0000
0000
0000
1003
0000
0010
0000
0000
0000
,  // measure 65
0100
0000
0000
0001
0000
0000
2000
0000
0000
0000
3000
0000
0100
0000
0010
0000
,  // measure 66
0100
0010
0100
0000
1001
0000
0000
0000
;

//---------------dance-single - ----------------
#NOTEDATA:;
#CHARTNAME:;
#STEPSTYPE:dance-single;
#DESCRIPTION:;
#CHARTSTYLE:;
#DIFFICULTY:Easy;
#METER:6;
#RADARVALUES:0.312673,0.431714,0.352420,0.333871,0.000000,236.000000,198.000000,38.000000,36.000000,0.000000,0.000000,0.000000,0.000000,0.000000,0.312673,0.431714,0.352420,0.333871,0.000000,236.000000,198.000000,38.000000,36.000000,0.000000,0.000000,0.000000,0.000000,0.000000;
#CREDIT:;
#OFFSET:-0.938100;
#BPMS:0.000000=160.000000
;
#STOPS:32.000000=0.750000
;
#DELAYS:;
#WARPS:;
#TIMESIGNATURES:0.000000=4=4
;
#TICKCOUNTS:0.000000=4
;
#COMBOS:0.000000=1
;
#SPEEDS:0.000000=1.000000=0.000000=0
;
#SCROLLS:0.000000=1.000000
,160.000000=0.000000
,161.500000=1.000000
,194.000000=0.000000
,198.500000=1.000000
;
#FAKES:;
#LABELS:0.000000=Song Start
;
#DISPLAYBPM:160.000000;
#NOTES:
// measure 0
0000
0000
0000
0000
,  // measure 1
0000
0000
0000
0000
,  // measure 2
0000
0000
0000
0000
,  // measure 3
0000
0000
0000
0000
,  // measure 4
0001
0010
0001
0010
,  // measure 5
0100
1000
0100
1000
,  // measure 6
2002
3003
2002
3003
,  // measure 7
1001
1001
0110
1001
,  // measure 8
0000
0002
0003
0011
,  // measure 9
1000
1100
0000
0001
,  // measure 10
0100
0001
0000
0100
,  // measure 11
0010
0100
0000
0010
,  // measure 12
1000
2000
3000
1010
,  // measure 13
0001
0101
0000
1000
,  // measure 14
0100
1000
0000
0100
,  // measure 15
0010
0100
0000
0010
,  // measure 16
0001
1000
0010
0001
,  // measure 17
0010
1000
0000
0010
,  // measure 18
1000
0100
0000
0010
,  // measure 19
0001
0100
0000
0010
,  // measure 20
1000
0001
0010
1000
,  // measure 21
0010
0001
0000
0100
,  // measure 22
0010
1000
0000
0100
,  // measure 23
0010
0000
0000
0002
0000
0000
0000
0000
,  // measure 24
0000
0000
0000
0003
1000
0000
0010
0000
,  // measure 25
1000
1000
0001
0010
,  // measure 26
0001
0001
1000
0100
,  // measure 27
1000
1000
0001
0100
,  // measure 28
0001
0001
1000
0100
,  // measure 29
0010
0001
1000
0010
,  // measure 30
0100
0001
0022
0033
,  // measure 31
2002
3003
1010
1001
,  // measure 32
0011
1001
1020
0230
,  // measure 33
0302
0000
0000
0023
,  // measure 34
0130
1000
0001
0200
,  // measure 35
0320
0130
0002
1003
,  // measure 36
0100
0100
1002
0000
,  // measure 37
0203
0320
1030
0000
,  // measure 38
0001
1000
2000
0000
,  // measure 39
3200
0320
0031
0100
,  // measure 40
0110
0000
0000
1000
,  // measure 41
0010
0100
0001
0010
,  // measure 42
0100
1000
0010
0100
,  // measure 43
0001
1000
0100
0010
,  // measure 44
0001
1000
1010
0010
,  // measure 45
0100
0001
0011
0010
,  // measure 46
0100
1000
2020
3030
,  // measure 47
0202
0303
1010
0011
,  // measure 48
0101
1100
1001
0000
,  // measure 49
0000
0000
0000
0000
,  // measure 50
0000
2000
3000
1010
,  // measure 51
0100
1001
0000
1000
,  // measure 52
0010
0100
0001
0010
,  // measure 53
0002
0000
1003
0010
,  // measure 54
1000
0002
0003
0011
,  // measure 55
0100
1001
0000
0001
,  // measure 56
0010
0100
1000
0010
,  // measure 57
0200
0000
0000
0002
0000
0000
0000
0000
,  // measure 58
0000
0300
0003
0000
1000
0000
0100
0000
,  // measure 59
0011
0000
0001
0100
,  // measure 60
1010
0000
0100
0010
,  // measure 61
1001
0000
1000
0100
,  // measure 62
0001
0100
2000
3002
,  // measure 63
2000
0000
0000
3003
0000
0000
1000
0000
,  // measure 64
0010
0011
0000
0001
,  // measure 65
0010
1010
0000
0001
,  // measure 66
1000
0001
1001
0000
;
