#VERSION:0.83;
#TITLE:ちきゅう大爆発;
#SUBTITLE:(META ver);
#ARTIST:ピノキオピー feat. 初音ミク;
#TITLETRANSLIT:The Planet Big Bang;
#SUBTITLETRANSLIT:(META ver);
#ARTISTTRANSLIT:PinocchioP feat. Hatsune Miku;
#GENRE:Vocaloid Pop;
#ORIGIN:;
#CREDIT:;
#BANNER:The Planet Big Bang (META ver).png;
#BACKGROUND:The Planet Big Bang (META ver)-bg.png;
#PREVIEWVID:;
#JACKET:The Planet Big Bang (META ver)-jacket.png;
#CDIMAGE:;
#DISCIMAGE:;
#LYRICSPATH:;
#CDTITLE:cdtitle.png;
#MUSIC:The Planet Big Bang (META ver).ogg;
#OFFSET:-0.179915;
#SAMPLESTART:42.179916;
#SAMPLELENGTH:12.000000;
#SELECTABLE:YES;
#BPMS:0.000=160.000;
#STOPS:;
#DELAYS:;
#WARPS:;
#TIMESIGNATURES:0.000=4=4;
#TICKCOUNTS:0.000=4;
#COMBOS:0.000=1;
#SPEEDS:0.000=1.000=0.000=0;
#SCROLLS:0.000=1.000;
#FAKES:;
#LABELS:0.000=Song Start;
#BGCHANGES:;
#KEYSOUNDS:;
#ATTACKS:
;

//---------------dance-single - ----------------
#NOTEDATA:;
#CHARTNAME:;
#STEPSTYPE:dance-single;
#DESCRIPTION:;
#CHARTSTYLE:;
#DIFFICULTY:Challenge;
#METER:14;
#RADARVALUES:0.625096,0.679516,0.257392,0.380941,0.334610,425.000000,400.000000,25.000000,37.000000,0.000000,0.000000,0.000000,0.000000,0.000000,0.625096,0.679516,0.257392,0.380941,0.334610,425.000000,400.000000,25.000000,37.000000,0.000000,0.000000,0.000000,0.000000,0.000000;
#CREDIT:;
#OFFSET:-0.179915;
#BPMS:0.000000=160.000000
;
#STOPS:;
#DELAYS:;
#WARPS:;
#TIMESIGNATURES:0.000000=4=4
;
#TICKCOUNTS:0.000000=4
;
#COMBOS:0.000000=1
;
#SPEEDS:0.000000=1.000000=0.000000=0
;
#SCROLLS:0.000000=1.000000
,36.000000=0.500000
,43.000000=1.000000
,104.000000=0.500000
,112.000000=1.000000
,172.000000=0.000000
,173.000000=1.000000
;
#FAKES:;
#LABELS:0.000000=Song Start
;
#NOTES:
// measure 0
0000
0000
0000
0000
,  // measure 1
0000
0000
0000
0000
,  // measure 2
0000
0000
0000
0000
,  // measure 3
0000
0000
0000
0000
,  // measure 4
0000
0000
0000
0000
,  // measure 5
0000
0000
0000
0000
,  // measure 6
1000
0010
1000
0000
0100
0000
0010
0000
,  // measure 7
0001
0010
0001
0000
0100
0000
0010
0000
,  // measure 8
1000
0100
0000
1000
0100
0000
0010
0000
0001
0100
0000
0001
0100
0000
0010
0000
,  // measure 9
0220
0000
0000
0000
,  // measure 10
0330
0000
0000
0000
0000
0000
0000
0000
0000
0000
0000
0000
0110
0000
0001
1000
,  // measure 11
0001
0000
0010
0000
0100
0000
0010
0000
0001
0000
0100
0010
0100
0000
0001
0000
,  // measure 12
0010
0000
0100
0000
0010
0000
0100
0000
0001
0000
0000
0000
0110
0000
0100
1000
,  // measure 13
0001
0000
0100
0000
0010
0000
0100
0000
0001
0000
0010
0100
1000
0000
0001
0000
,  // measure 14
0100
0000
0010
0000
0000
0000
2010
0000
0000
0000
3001
0010
0100
0000
1000
0001
,  // measure 15
1000
0000
0010
0000
0100
0000
0010
0000
1000
0000
0100
0010
0100
0000
1000
0000
,  // measure 16
0010
0000
0100
0000
0010
0000
0100
0000
1000
0000
0000
0000
0110
0000
0100
0001
,  // measure 17
1000
0000
0100
0000
0010
0000
0100
0000
1000
0000
0010
0100
0001
0000
1000
0000
,  // measure 18
1010
0001
0011
2000
0000
3001
1001
0000
,  // measure 19
0002
0000
0000
1003
,  // measure 20
0001
0000
0010
0000
0001
0000
1000
0010
1000
0000
0001
0000
0010
0000
0000
0000
,  // measure 21
0100
0010
0100
0000
1000
0000
0010
0100
0010
0000
0100
0000
0001
0000
0010
0000
,  // measure 22
1000
0010
0001
0100
1000
0100
0001
0000
,  // measure 23
0010
0000
0001
1000
0010
0000
1000
0001
0010
0000
0100
0000
1000
0000
0001
0000
,  // measure 24
0100
0000
0010
0000
1000
0000
0100
0000
0010
0000
0001
1000
0001
0000
0000
0000
,  // measure 25
1000
0010
0000
1000
0010
0000
0100
0000
0001
0010
0000
0001
0010
0000
0100
0000
,  // measure 26
0220
0000
0030
0000
,  // measure 27
0300
0000
0000
0010
0010
0100
1001
0000
,  // measure 28
1000
0010
1000
0000
0100
1000
0100
0000
0010
0000
0100
1000
0020
0000
0000
0000
,  // measure 29
0031
0010
1000
0100
0002
0003
1100
0000
,  // measure 30
0001
0010
0001
0000
0100
0001
0100
0000
0001
0000
0100
0001
0020
0000
0000
0000
,  // measure 31
1030
0010
0001
0100
2000
3000
0101
0000
,  // measure 32
1000
0000
0001
0100
0001
0000
1000
0100
1000
0000
0001
0010
0001
0000
1000
0010
,  // measure 33
1000
0000
0001
1000
0100
0000
0010
0000
0002
0000
0003
0000
1001
0000
0000
0000
,  // measure 34
0001
0000
0000
0000
0100
0000
0000
0000
0001
0000
0200
0300
0000
0000
0200
0300
1000
0000
0000
0000
1000
0000
0020
0030
0000
0000
0000
0000
0020
0030
0000
0000
,  // measure 35
0001
0000
0100
0000
0010
0000
1000
0000
0100
0000
0010
0000
0001
1000
0001
1000
,  // measure 36
0001
0000
0100
0000
0001
0100
0010
0000
0001
0000
0010
0000
0100
0000
0001
0000
,  // measure 37
1000
0100
1000
0100
0010
0000
0100
0000
0002
0000
0003
0000
1100
0000
0000
0000
,  // measure 38
1000
0000
0100
0000
1000
0100
0010
0000
1000
0000
0010
0000
0100
0000
1000
0000
,  // measure 39
0001
0010
0001
0100
0010
0000
0100
0000
2000
0000
3000
0000
0101
0000
0000
0000
,  // measure 40
0001
0000
1000
0100
1000
0000
0001
0100
0001
0000
1000
0010
1000
0000
0001
0010
,  // measure 41
0001
0000
1000
0001
0100
0000
0010
0000
2000
0000
3000
0000
1001
0000
0000
0000
,  // measure 42
1000
0000
0000
0000
0100
0000
0000
0000
1000
0000
0200
0300
0000
0000
0200
0300
0001
0000
0000
0000
0001
0000
0020
0030
0000
0000
0000
0000
0020
0030
0000
0000
,  // measure 43
1010
0000
0000
0000
0002
0000
1003
0001
,  // measure 44
1000
0000
0100
0010
0100
0000
0002
0000
0000
0000
0103
0000
1000
0000
0001
0000
,  // measure 45
1000
0000
0010
0100
0010
0000
0002
0000
0000
0000
0013
0000
1000
0000
0001
1000
,  // measure 46
0001
0000
0010
0100
0010
0000
2000
0000
0000
0000
3010
0000
0100
0000
0010
0000
,  // measure 47
0001
0000
0001
0000
1000
0000
2001
0000
0000
0000
3001
0100
0010
0000
1000
0000
,  // measure 48
0001
0000
0100
0010
0100
0000
2000
0000
0000
0000
3100
0000
0010
0000
0100
0000
,  // measure 49
0001
0000
0010
0100
0010
0000
2000
0000
0000
0000
3010
0000
0001
0000
1000
0001
,  // measure 50
1000
0000
0010
0100
0010
0000
0002
0000
0000
0000
0013
0000
1000
0000
0010
0000
,  // measure 51
1010
0000
0000
0000
1001
0000
0000
0000
0001
0000
0010
0000
0100
1000
0001
1000
,  // measure 52
0002
0000
0010
0010
0000
0013
1001
0000
,  // measure 53
0001
0000
0100
0010
0000
1000
1010
0001
,  // measure 54
0002
0000
0100
0100
0000
1003
0001
1000
,  // measure 55
0100
0000
0100
0000
0000
0000
0020
0000
0000
0000
0031
0100
0010
0000
1000
0000
,  // measure 56
2000
0000
0010
0010
0000
3010
1001
0000
,  // measure 57
1000
0000
0100
0010
0000
0001
0011
1000
,  // measure 58
2000
0000
0100
0100
0000
3001
0100
0010
,  // measure 59
1000
0100
0010
0002
0000
0003
1000
0001
,  // measure 60
1001
0000
0000
0000
;

//---------------dance-single - ----------------
#NOTEDATA:;
#CHARTNAME:;
#STEPSTYPE:dance-single;
#DESCRIPTION:;
#CHARTSTYLE:;
#DIFFICULTY:Hard;
#METER:11;
#RADARVALUES:0.478014,0.525080,0.185322,0.257392,0.030887,325.000000,307.000000,18.000000,25.000000,0.000000,0.000000,0.000000,0.000000,0.000000,0.478014,0.525080,0.185322,0.257392,0.030887,325.000000,307.000000,18.000000,25.000000,0.000000,0.000000,0.000000,0.000000,0.000000;
#CREDIT:;
#OFFSET:-0.179915;
#BPMS:0.000000=160.000000
;
#STOPS:;
#DELAYS:;
#WARPS:;
#TIMESIGNATURES:0.000000=4=4
;
#TICKCOUNTS:0.000000=4
;
#COMBOS:0.000000=1
;
#SPEEDS:0.000000=1.000000=0.000000=0
;
#SCROLLS:0.000000=1.000000
,36.000000=0.500000
,43.000000=1.000000
,104.000000=0.500000
,112.000000=1.000000
,172.000000=0.000000
,173.000000=1.000000
;
#FAKES:;
#LABELS:0.000000=Song Start
;
#NOTES:
// measure 0
0000
0000
0000
0000
,  // measure 1
0000
0000
0000
0000
,  // measure 2
0000
0000
0000
0000
,  // measure 3
0000
0000
0000
0000
,  // measure 4
0000
0000
0000
0000
,  // measure 5
0000
0000
0000
0000
,  // measure 6
0001
0010
0001
0000
0100
0000
0010
0000
,  // measure 7
1000
0010
1000
0000
0100
0000
0010
0000
,  // measure 8
0001
0000
0000
0100
0000
0000
0001
0000
1000
0000
0000
0100
0000
0000
1000
0000
,  // measure 9
2002
0000
0000
0000
,  // measure 10
3003
0000
0000
1001
,  // measure 11
0001
0010
0001
0010
0100
0010
0001
1000
,  // measure 12
0001
0100
0001
0100
1000
0000
0110
0000
,  // measure 13
0001
0100
0001
0100
0010
1000
0100
0010
,  // measure 14
0001
0002
0000
2003
0000
3001
1001
0000
,  // measure 15
1000
0010
1000
0010
0100
0010
1000
0001
,  // measure 16
1000
0100
1000
0100
0001
0000
0110
0000
,  // measure 17
1000
0100
1000
0100
0010
0001
0100
0010
,  // measure 18
1000
2000
0001
0002
3000
1003
1001
0000
,  // measure 19
0002
0000
0000
1003
,  // measure 20
0001
0010
0100
1000
0001
0100
0010
0000
,  // measure 21
1000
0010
1000
0000
0001
0010
0001
0000
,  // measure 22
1000
0010
0100
0001
0010
0100
1000
0000
,  // measure 23
0001
0100
1000
0000
1000
0100
0001
0000
,  // measure 24
0001
0010
1000
0000
1000
0010
0001
0000
,  // measure 25
1000
0000
0000
0010
0000
0000
1000
0000
0001
0000
0000
0010
0000
0000
0001
0000
,  // measure 26
2002
0000
0003
0000
,  // measure 27
3000
0000
0000
0001
0100
0010
1000
0000
,  // measure 28
0001
0010
0001
0010
0001
0010
1000
0000
,  // measure 29
0010
0100
0010
0001
1000
0000
1001
0000
,  // measure 30
1000
0010
1000
0010
1000
0010
0001
0000
,  // measure 31
0010
0100
0010
1000
0001
0000
1001
0000
,  // measure 32
1000
0100
1000
0001
0100
0001
1000
0100
,  // measure 33
1000
0001
0100
0001
0010
0000
0110
0000
,  // measure 34
1000
0000
0001
0000
0100
0000
0000
0000
0100
0000
0000
0100
0000
0000
0100
0000
,  // measure 35
0020
0000
0000
0000
0130
0010
1000
0000
,  // measure 36
0001
0010
1000
0010
0001
0000
0001
1000
,  // measure 37
0001
0100
0001
0100
1000
0000
0101
0000
,  // measure 38
1000
0010
0001
0010
1000
0000
1000
0100
,  // measure 39
1000
0010
1000
0100
0001
0000
1100
0000
,  // measure 40
0001
0100
0001
1000
0100
1000
0001
0100
,  // measure 41
0001
1000
0100
1000
0010
0000
0110
0000
,  // measure 42
0001
0000
1000
0000
0100
0000
0000
0000
0100
0000
0000
0100
0000
0000
0010
0000
,  // measure 43
0110
0000
0002
1003
,  // measure 44
0001
0100
0001
0200
0000
0310
1000
0000
,  // measure 45
0001
0100
0001
2000
0000
3001
0010
0000
,  // measure 46
0100
0010
0001
2000
0000
3001
0100
1000
,  // measure 47
0100
0001
0000
2000
0000
3001
1001
0000
,  // measure 48
1000
0100
1000
0200
0000
0310
0001
0000
,  // measure 49
1000
0100
1000
0002
0000
1003
0010
0000
,  // measure 50
0100
0010
1000
0002
0000
1003
0100
0010
,  // measure 51
0001
0100
0010
2000
0000
0000
3001
1000
,  // measure 52
0200
0000
0010
0000
0000
0000
0310
0100
,  // measure 53
1000
0000
1001
0000
0000
1000
0010
0100
,  // measure 54
0002
0000
1000
0000
0000
1003
0100
0001
,  // measure 55
0100
1000
0000
0002
0000
1003
1000
0001
,  // measure 56
0200
0000
0010
0000
0000
0000
0310
0100
,  // measure 57
0001
0000
1001
0000
0000
0001
0010
0100
,  // measure 58
2000
0000
0001
0000
0000
3001
0100
0010
,  // measure 59
1000
0100
0010
0002
0000
0003
1000
0001
,  // measure 60
1001
0000
0000
0000
;

//---------------dance-single - ----------------
#NOTEDATA:;
#CHARTNAME:;
#STEPSTYPE:dance-single;
#DESCRIPTION:;
#CHARTSTYLE:;
#DIFFICULTY:Medium;
#METER:8;
#RADARVALUES:0.351524,0.432419,0.133844,0.391236,0.000000,239.000000,226.000000,13.000000,38.000000,0.000000,0.000000,0.000000,0.000000,0.000000,0.351524,0.432419,0.133844,0.391236,0.000000,239.000000,226.000000,13.000000,38.000000,0.000000,0.000000,0.000000,0.000000,0.000000;
#CREDIT:;
#OFFSET:-0.179915;
#BPMS:0.000000=160.000000
;
#STOPS:;
#DELAYS:;
#WARPS:;
#TIMESIGNATURES:0.000000=4=4
;
#TICKCOUNTS:0.000000=4
;
#COMBOS:0.000000=1
;
#SPEEDS:0.000000=1.000000=0.000000=0
;
#SCROLLS:0.000000=1.000000
,36.000000=0.500000
,43.000000=1.000000
,104.000000=0.500000
,112.000000=1.000000
,172.000000=0.000000
,173.000000=1.000000
;
#FAKES:;
#LABELS:0.000000=Song Start
;
#NOTES:
// measure 0
0000
0000
0000
0000
,  // measure 1
0000
0000
0000
0000
,  // measure 2
0000
0000
0000
0000
,  // measure 3
0000
0000
0000
0000
,  // measure 4
0000
0000
0000
0000
,  // measure 5
0000
0000
0000
0000
,  // measure 6
0001
0010
0001
0000
,  // measure 7
1000
0010
1000
0000
,  // measure 8
0001
0100
1000
0100
,  // measure 9
2002
0000
0000
0000
,  // measure 10
3003
0000
0000
1001
,  // measure 11
0001
0000
0010
0100
0010
0000
0001
0000
,  // measure 12
1000
0000
0001
0100
0010
0000
0110
0000
,  // measure 13
0001
0000
0010
0100
0010
0000
0100
0000
,  // measure 14
2000
0000
0000
3002
0000
0000
0103
0010
,  // measure 15
1000
0000
0010
0100
0010
0000
1000
0000
,  // measure 16
0001
0000
1000
0100
0010
0000
0110
0000
,  // measure 17
1000
0000
0010
0100
0010
0000
0100
0000
,  // measure 18
0001
1000
0002
2000
0000
0000
3003
0000
,  // measure 19
0002
0000
0000
1003
,  // measure 20
0001
0010
0100
0000
1000
0000
0001
0000
,  // measure 21
1000
0010
1000
0000
0001
0010
0001
0000
,  // measure 22
1000
0010
0100
0000
0001
0000
1000
0000
,  // measure 23
0100
0010
0100
0000
1000
0000
0001
0000
,  // measure 24
0100
0010
0100
0000
0001
0000
1000
0000
,  // measure 25
0001
0010
1000
0010
,  // measure 26
2002
0000
0003
0000
,  // measure 27
3000
0000
0010
1001
,  // measure 28
0002
0010
1000
0103
,  // measure 29
0001
0100
0001
0100
0010
0000
0110
0000
,  // measure 30
2000
0010
0001
3100
,  // measure 31
1000
0100
1000
0100
0010
0000
0110
0000
,  // measure 32
0002
0203
2300
3200
,  // measure 33
0302
0023
2030
3010
,  // measure 34
0001
1000
0100
0000
1000
0001
0100
0000
,  // measure 35
0020
0000
0000
0000
0100
0100
0130
0000
,  // measure 36
0001
0100
0002
0000
1000
0000
0013
0000
,  // measure 37
0001
0010
0001
0010
0100
0000
0110
0000
,  // measure 38
1000
0100
2000
0000
0001
0000
3010
0000
,  // measure 39
1000
0010
0100
0001
1000
0000
0110
0000
,  // measure 40
2000
3200
0302
0203
,  // measure 41
2300
3020
0032
0013
,  // measure 42
1000
0001
0100
0000
0001
1000
0100
0000
,  // measure 43
0110
0000
0002
1003
,  // measure 44
0001
0000
0100
0010
0000
0100
0001
0000
,  // measure 45
1000
0000
0001
0010
0000
0010
0100
0000
,  // measure 46
1000
0000
0010
0100
0000
0010
1000
0000
,  // measure 47
0002
0000
0000
0023
0000
0000
0130
0000
,  // measure 48
1000
0000
0100
0010
0000
0100
1000
0000
,  // measure 49
0001
0000
1000
0010
0000
0010
0100
0000
,  // measure 50
0001
0000
0010
0100
0000
0010
0001
0000
,  // measure 51
1000
0000
1000
0000
0001
1000
0001
0000
,  // measure 52
0200
0010
0000
0010
,  // measure 53
0300
0010
0000
0110
,  // measure 54
2000
0001
0000
3100
,  // measure 55
2000
0000
0000
3020
0000
0000
1030
0000
,  // measure 56
0200
0010
0000
0010
,  // measure 57
0300
0010
0000
0110
,  // measure 58
0002
1000
0000
0103
,  // measure 59
0010
0100
0010
0200
0000
0000
0301
0100
,  // measure 60
1000
0000
0000
0000
;

//---------------dance-single - ----------------
#NOTEDATA:;
#CHARTNAME:;
#STEPSTYPE:dance-single;
#DESCRIPTION:;
#CHARTSTYLE:;
#DIFFICULTY:Easy;
#METER:4;
#RADARVALUES:0.202972,0.247097,0.092661,0.494193,0.000000,138.000000,129.000000,9.000000,48.000000,0.000000,0.000000,0.000000,0.000000,0.000000,0.202972,0.247097,0.092661,0.494193,0.000000,138.000000,129.000000,9.000000,48.000000,0.000000,0.000000,0.000000,0.000000,0.000000;
#CREDIT:;
#OFFSET:-0.179915;
#BPMS:0.000000=160.000000
;
#STOPS:;
#DELAYS:;
#WARPS:;
#TIMESIGNATURES:0.000000=4=4
;
#TICKCOUNTS:0.000000=4
;
#COMBOS:0.000000=1
;
#SPEEDS:0.000000=1.000000=0.000000=0
;
#SCROLLS:0.000000=1.000000
,36.000000=0.500000
,43.000000=1.000000
,104.000000=0.500000
,112.000000=1.000000
,172.000000=0.000000
,173.000000=1.000000
;
#FAKES:;
#LABELS:0.000000=Song Start
;
#NOTES:
// measure 0
0000
0000
0000
0000
,  // measure 1
0000
0000
0000
0000
,  // measure 2
0000
0000
0000
0000
,  // measure 3
0000
0000
0000
0000
,  // measure 4
0000
0000
0000
0000
,  // measure 5
0000
0000
0000
0000
,  // measure 6
0001
0000
0000
0000
,  // measure 7
1000
0000
0000
0000
,  // measure 8
0001
0000
1000
0000
,  // measure 9
2002
0000
0000
0000
,  // measure 10
3003
0000
0000
1001
,  // measure 11
0010
0000
0001
0000
,  // measure 12
0010
0000
0001
0011
,  // measure 13
1000
0000
0100
0000
,  // measure 14
0020
0030
0002
0003
,  // measure 15
1000
0000
0010
0000
,  // measure 16
1000
0000
0010
1010
,  // measure 17
0001
0000
0100
0000
,  // measure 18
0020
2030
3002
0003
,  // measure 19
2000
0000
0000
3001
,  // measure 20
1000
1000
0100
0000
,  // measure 21
0010
0000
0010
0000
,  // measure 22
0001
0001
0100
0000
,  // measure 23
0010
0100
0001
0000
,  // measure 24
0010
0100
1000
0000
,  // measure 25
0001
0000
1000
0000
,  // measure 26
2002
0000
0003
0000
,  // measure 27
3000
0000
0001
1001
,  // measure 28
2000
0000
3020
0000
,  // measure 29
2030
3020
2000
3030
,  // measure 30
0002
0000
0023
0000
,  // measure 31
0032
0023
0002
0033
,  // measure 32
1000
1000
0001
0000
,  // measure 33
0001
0001
1000
0000
,  // measure 34
0010
0100
0010
0000
,  // measure 35
2002
0000
3003
0000
,  // measure 36
2000
3020
0230
0000
,  // measure 37
0320
0230
0002
0303
,  // measure 38
0002
0023
0230
0000
,  // measure 39
2300
3020
0200
0330
,  // measure 40
0001
0001
1000
0000
,  // measure 41
1000
1000
0001
0000
,  // measure 42
0010
0100
0010
0000
,  // measure 43
0110
0000
0000
0000
,  // measure 44
1000
0000
0100
0000
,  // measure 45
0010
0000
0001
1000
,  // measure 46
0001
0000
0100
0000
,  // measure 47
0020
0030
2000
3000
,  // measure 48
0001
0000
0100
0000
,  // measure 49
0010
0000
1000
0001
,  // measure 50
1000
0000
0100
0000
,  // measure 51
0020
0032
2003
3000
,  // measure 52
0002
0100
0000
0100
,  // measure 53
0003
0100
0000
0100
,  // measure 54
0002
0010
0003
0010
,  // measure 55
0020
0030
0200
0300
,  // measure 56
2000
0100
0000
0100
,  // measure 57
3000
0100
0000
0100
,  // measure 58
2000
0010
3000
0010
,  // measure 59
2000
3002
0023
0030
,  // measure 60
0110
0000
0000
0000
;

//---------------dance-single - ----------------
#NOTEDATA:;
#CHARTNAME:;
#STEPSTYPE:dance-single;
#DESCRIPTION:;
#CHARTSTYLE:;
#DIFFICULTY:Beginner;
#METER:1;
#RADARVALUES:0.075011,0.123548,0.010296,0.082366,0.000000,51.000000,50.000000,1.000000,8.000000,0.000000,0.000000,0.000000,0.000000,0.000000,0.075011,0.123548,0.010296,0.082366,0.000000,51.000000,50.000000,1.000000,8.000000,0.000000,0.000000,0.000000,0.000000,0.000000;
#CREDIT:;
#NOTES:
0000
0000
0000
0000
,
0000
0000
0000
0000
,
0000
0000
0000
0000
,
0000
0000
0000
0000
,
0000
0000
0000
0000
,
0000
0000
0000
0000
,
0001
0000
0000
0000
,
1000
0000
0000
0000
,
0010
0000
0000
0000
,
0020
0000
0000
0000
,
0030
0000
0000
0000
,
1000
0000
0000
0000
,
0001
0000
0000
0000
,
1000
0000
0000
0000
,
0100
0000
0000
0000
,
1000
0000
0000
0000
,
0001
0000
0000
0000
,
1000
0000
0000
0000
,
0020
0000
0000
0030
,
0000
0000
0000
0000
,
1000
0000
0000
0000
,
0100
0000
0000
0000
,
0010
0000
0000
0000
,
0001
0000
0000
0000
,
0100
0000
0000
0000
,
0010
0000
0000
0000
,
2000
0000
0000
0000
,
3000
0000
0000
0000
,
0001
0000
0000
0000
,
0001
0000
0000
0000
,
1000
0000
0000
0000
,
1000
0000
0000
0000
,
0100
0000
0000
0000
,
0010
0000
0000
0000
,
0001
0000
0000
0000
,
2000
0000
3000
0000
,
1000
0000
0000
0000
,
1000
0000
0000
0000
,
0001
0000
0000
0000
,
0001
0000
0000
0000
,
0100
0000
0000
0000
,
0010
0000
0000
0000
,
1000
0000
0000
0000
,
1000
0000
0000
0000
,
0001
0000
0000
0000
,
1000
0000
0000
0000
,
0001
0000
0000
0000
,
0100
0000
0000
0000
,
0001
0000
0000
0000
,
1000
0000
0000
0000
,
0001
0000
0000
0000
,
0010
0000
0000
0000
,
0002
0000
0000
0000
,
0003
0000
0000
0000
,
0002
0000
0003
0000
,
0001
0000
0000
0000
,
2000
0000
0000
0000
,
3000
0000
0000
0000
,
2000
0000
3000
0000
,
1000
0000
0000
0000
,
1001
0000
0000
0000
;
