#VERSION:0.83;
#TITLE:TRIP MACHINE (xac nanoglide mix);
#SUBTITLE:;
#ARTIST:DE-SIRE;
#TITLETRANSLIT:;
#SUBTITLETRANSLIT:;
#ARTISTTRANSLIT:;
#GENRE:Neurofunk;
#ORIGIN:;
#CREDIT:;
#BANNER:TRIP MACHINE (xac nanoglide mix).png;
#BACKGROUND:TRIP MACHINE (xac nanoglide mix)-bg.png;
#PREVIEWVID:;
#JACKET:TRIP MACHINE (xac nanoglide mix)-jacket.png;
#CDIMAGE:;
#DISCIMAGE:;
#LYRICSPATH:;
#CDTITLE:cdtitle.png;
#MUSIC:TRIP MACHINE (xac nanoglide mix).ogg;
#OFFSET:-0.341380;
#SAMPLESTART:22.929615;
#SAMPLELENGTH:11.294119;
#SELECTABLE:YES;
#BPMS:0.000=170.000,
160.000=85.000,
176.000=170.000;
#STOPS:;
#DELAYS:;
#WARPS:;
#TIMESIGNATURES:0.000=4=4;
#TICKCOUNTS:0.000=4;
#COMBOS:0.000=1;
#SPEEDS:0.000=1.000=0.000=0;
#SCROLLS:0.000=1.000;
#FAKES:;
#LABELS:0.000=Song Start;
#BGCHANGES:;
#KEYSOUNDS:;
#ATTACKS:
;

//---------------dance-single - ----------------
#NOTEDATA:;
#CHARTNAME:;
#STEPSTYPE:dance-single;
#DESCRIPTION:;
#CHARTSTYLE:;
#DIFFICULTY:Challenge;
#METER:16;
#RADARVALUES:0.753450,0.906597,0.712502,0.671553,0.536424,644.000000,557.000000,87.000000,82.000000,13.000000,0.000000,0.000000,0.000000,0.000000,0.753450,0.906597,0.712502,0.671553,0.536424,644.000000,557.000000,87.000000,82.000000,13.000000,0.000000,0.000000,0.000000,0.000000;
#CREDIT:;
#NOTES:
0000
0000
0000
0000
,
0000
0000
0000
0000
,
0000
0000
0000
0000
,
0000
0000
0000
0000
,
0100
0000
0100
0000
,
0100
0000
0100
0000
,
2002
0000
3003
0000
,
0001
0000
0010
0000
0200
0000
1300
0001
1000
0001
0100
0000
0010
0000
0000
0000
,
2001
3000
0200
0300
0000
0001
0100
2000
,
3000
0020
0030
0001
0010
1000
1001
0000
,
0001
0000
0101
0000
1001
0000
0000
0001
1000
0001
0010
0000
0100
0000
0001
0000
,
0000
0000
0101
0000
0000
0000
0001
0100
0010
0100
1000
0000
0001
0000
1000
0000
,
1010
0000
0000
0000
0011
0000
0000
0001
0100
0001
0010
0000
0001
0000
1001
0000
,
0000
0000
1010
0000
0000
0000
0010
1000
0100
0010
0001
0000
0010
0000
0100
0000
,
1000
0000
1100
0000
1001
0000
0000
1000
0001
1000
0010
0000
0100
0000
1000
0000
,
0000
0000
1100
0000
0000
0000
1000
0100
0010
0100
0001
0000
1000
0000
0001
0000
,
0011
0000
0000
0000
1010
0000
0000
1000
0100
1000
0010
0000
1000
0000
1001
0000
,
0000
0000
0011
0000
0000
0000
0010
0100
1000
0001
0100
0000
0010
0000
1000
0000
,
0001
0000
0011
0000
1100
0000
0000
0001
1000
0001
0100
0000
0010
0000
0001
0000
,
0000
0000
0011
0000
0000
0000
0001
0010
0100
0010
1000
0000
0001
0000
1000
0000
,
1100
0000
0000
0000
0101
0000
0000
0001
0010
0001
0100
0000
0001
0000
1001
0000
,
0000
0000
1100
0000
0000
0000
0100
1000
0010
0100
0001
0000
0100
0000
0010
0000
,
1000
0000
1010
0000
0101
0000
0000
1000
0001
1000
0100
0000
0010
0000
1000
0000
,
1010
0000
0000
0110
0000
0000
0011
0000
0000
0011
0000
0000
1001
0000
0001
0000
,
0100
0201
2300
3002
,
0023
2030
3200
0302
,
1003
0000
0010
0000
0001
0000
1000
0001
0100
0010
1000
0000
1010
0000
0000
0000
,
0002
0000
0203
0000
0310
0000
1000
0001
1000
0100
00M0
0100
0001
0000
1000
0000
,
0100
1200
0302
2003
,
3020
0032
0203
2300
,
3001
0000
0010
0000
1000
0000
0001
1000
0100
0010
0001
0000
0011
0000
0000
0000
,
2000
0000
3020
0000
0130
0000
0001
1000
0100
0010
0100
0010
0002
0000
2000
0000
,
0000
0000
0000
3003
MMMM
0000
0000
0000
1020
0000
0000
0000
0000
0000
0000
0000
0032
0000
0000
0000
0000
0000
0000
0000
2003
0000
0000
0000
0000
0000
0000
0000
,
3200
0302
0023
2030
,
3001
0000
0100
0000
1000
0000
0001
0100
0010
1000
0001
0000
1001
0000
0000
0000
,
2000
0000
3200
0000
0310
0000
0001
1000
0001
0100
00M0
0100
1000
0000
0001
0000
,
0100
0000
0000
0010
0100
0000
0010
0000
1010
0000
0000
0011
0000
0000
0101
0000
,
1100
0000
0000
0000
1001
0000
0000
0000
1000
0010
0100
0001
1000
0100
1000
0100
,
0010
0000
0000
0000
0011
0000
0001
1000
0010
0000
1010
0000
1000
0001
0010
0000
,
0011
0000
0000
0110
0000
0000
1100
0000
0000
0000
1000
0010
0100
0001
0100
0001
,
0010
0000
0000
0000
,
0000
0000
0000
0000
,
0000
0000
0002
0000
0003
0020
0000
0030
2000
0000
3000
0002
0000
0003
0100
1000
,
0001
0000
0000
0000
2000
0000
0000
0000
3000
0000
0020
0000
0000
0000
0030
0000
0002
0000
0000
0000
0003
0000
2000
0000
0000
0000
3000
0000
0100
0001
0100
0001
,
1000
0100
0001
0100
1000
0001
0100
0010
,
0001
1000
0100
0001
0010
0100
1000
1000
,
0001
0100
1000
0100
0001
1000
0100
0010
,
1000
0000
0001
0000
0100
0000
1000
0000
0010
0000
0100
0000
0001
0000
1000
0001
,
1000
0000
2010
0010
3000
0012
0010
0003
,
2100
0100
3000
0102
0100
0003
1001
1000
,
0200
0300
1000
0001
0200
0300
0001
1000
,
0200
0310
0001
0200
0310
1000
0200
0310
0001
0200
0310
1000
,
0100
1001
0000
0000
,
0000
0000
0000
0000
0000
0000
1000
0000
0010
0M00
0010
0000
0001
0000
0100
0000
,
0100
0000
0000
0000
1001
0000
0001
1000
0010
1000
0100
0000
0010
0000
0001
0000
,
0002
0000
0000
0000
1003
0000
0001
0000
0100
00M0
0100
1000
0010
0M00
0010
0000
,
0001
0000
0000
0000
1001
0000
1000
0001
0010
0001
0100
0000
0001
0100
0010
0100
,
2000
0000
3100
0000
0110
0000
0000
0101
0000
0000
1001
0000
1000
0100
0010
0100
,
0002
0000
0003
0000
0110
0000
0010
0001
1000
0001
0100
0000
0010
0000
1000
0000
,
2000
0000
0000
0000
3001
0000
1000
0000
0100
00M0
0100
0001
0010
0M00
0010
0000
,
1000
1010
0000
0011
0000
0101
0000
1100
,
1001
0000
0000
0000
1000
0010
1000
0010
0100
0000
0001
0010
0001
0010
0100
1000
,
0001
0000
0000
0000
1001
0000
1000
0001
0100
0001
0010
0000
0100
0000
1000
0000
,
2000
0000
0000
0000
3001
0000
1000
0000
0010
0M00
0010
0001
0100
00M0
0100
0000
,
1000
0000
0000
0000
1001
0000
0001
1000
0100
1000
0010
0000
1000
0010
0100
0010
,
0002
0000
0013
0000
0110
0000
0000
1010
0000
0000
1001
0000
0001
0010
0100
0010
,
2000
0000
3000
0010
0100
0000
0010
0000
0011
0000
0000
1001
0000
0000
1010
0000
,
0110
0000
0000
0000
0101
0000
1001
0000
0001
0010
0100
1000
0001
0100
0001
0100
,
0010
0000
0000
0000
1010
0000
1000
0100
0010
0000
0011
0000
0001
0100
0010
0000
,
1010
0000
0000
1001
0000
0000
0011
0000
0000
0000
0001
0010
0100
1000
0010
0100
,
0001
0000
2000
3100
0020
0130
0002
0103
,
0020
1030
0002
1003
0020
0130
2000
3001
,
0100
0000
0000
0000
0110
0000
0100
0010
1000
0010
0100
0000
0110
0000
0000
0000
,
0001
0000
0000
0000
1001
0000
0001
0010
0100
1000
0001
0000
1001
0000
0000
0000
,
0001
1000
0002
0103
0020
0130
2000
3100
,
0020
0031
2000
3001
0020
0130
0002
1003
,
0100
0000
0000
0000
0110
0000
0100
0010
0001
0010
0100
0000
0110
0000
0000
0000
,
1000
0000
0000
0000
1001
0000
1000
0010
0100
0001
1000
0000
0001
0010
0001
0010
,
0100
2000
3020
0032
,
2003
3200
0302
0023
,
0000
0000
0000
0000
,
0000
0000
0000
0000
,
0030
0000
0000
0000
;

//---------------dance-single - ----------------
#NOTEDATA:;
#CHARTNAME:;
#STEPSTYPE:dance-single;
#DESCRIPTION:;
#CHARTSTYLE:;
#DIFFICULTY:Hard;
#METER:12;
#RADARVALUES:0.534669,0.604398,0.515949,0.573277,0.045043,457.000000,394.000000,63.000000,70.000000,0.000000,0.000000,0.000000,0.000000,0.000000,0.534669,0.604398,0.515949,0.573277,0.045043,457.000000,394.000000,63.000000,70.000000,0.000000,0.000000,0.000000,0.000000,0.000000;
#CREDIT:;
#NOTES:
0000
0000
0000
0000
,
0000
0000
0000
0000
,
0000
0000
0000
0000
,
0000
0000
0000
0000
,
0100
0000
0100
0000
,
0100
0000
0100
0000
,
2002
0000
3003
0000
,
0001
0010
0100
1000
0010
0100
0001
0000
,
2001
3000
0200
0300
0000
1000
0001
0200
,
0300
0200
0300
0001
1000
0100
0100
0000
,
0010
0001
1001
0000
0000
0001
0100
1000
,
0000
1100
0000
0100
0001
1000
0010
0100
,
0001
0000
1001
0000
0000
0001
0010
0100
,
0000
0110
0000
0010
0100
1000
0010
0100
,
0001
1000
1001
0000
0000
1000
0100
0001
,
0000
0101
0000
0100
1000
0001
0010
0100
,
1000
0000
1001
0000
0000
1000
0010
0100
,
0000
0110
0000
0010
0100
0001
0010
0100
,
1000
0001
1001
0000
0000
1000
0010
0001
,
0000
0011
0000
0010
1000
0001
0100
0010
,
1000
0000
1001
0000
0000
0001
0010
1000
,
0000
1010
0000
0010
0001
1000
0100
0010
,
0001
1000
1001
0000
0001
0100
0010
1000
,
1010
0000
0000
0001
0000
0000
0011
0000
0000
1000
0000
0000
1001
0000
0000
0000
,
0010
1002
0203
2300
,
3002
0023
2030
3200
,
0301
0000
0100
0001
0100
1000
0001
0100
,
0010
0000
1000
0100
0010
0001
0100
0010
,
1000
1002
0023
2030
,
3002
0203
2300
3020
,
0031
0000
0010
0100
0001
1000
0100
0010
,
0002
0000
1003
0010
0100
0001
2000
0002
,
0000
3003
2001
0000
3200
0000
0302
0000
,
2003
3020
0032
0203
,
1300
0000
0100
1000
0100
0001
1000
0100
,
0010
0000
0001
1000
0010
0100
0001
1000
,
1100
0000
0000
0000
0101
0000
0000
0000
1000
0000
0000
1000
0000
0000
1000
0000
,
1010
0000
0011
0000
0001
0010
1000
0010
,
0100
0000
0011
0010
0000
1010
0010
0000
,
0011
0000
0000
1001
0000
0000
0101
0000
0000
0000
0100
0000
1000
0000
0100
0000
,
0001
0000
0000
0000
,
0000
0000
0000
0000
,
0000
0000
0002
0000
0003
0020
0000
0030
2000
0000
3000
0020
0000
0030
0002
0000
,
0003
0000
2000
0000
3000
0020
0000
0030
0002
0000
0003
0020
0000
0030
1000
0001
,
1000
0000
0010
1000
0100
1000
0010
0000
,
1001
0000
0001
0100
1000
0100
0001
0000
,
1001
0000
0010
0001
0100
0001
0010
0000
,
1001
0000
1000
0100
0001
0100
1000
0000
,
0001
0000
0101
0100
0000
1100
0100
0000
,
0101
0100
0000
1100
0100
0000
1000
0001
,
0200
0300
0001
1000
0200
0300
1000
0001
,
0200
2300
3020
0032
,
0103
1001
0000
0000
,
0000
0000
0000
1000
0010
0001
1000
0100
,
0001
0000
1001
0000
1000
0100
0010
0100
,
0001
0000
1000
0010
0001
0100
1000
0100
,
0001
0000
0101
0000
0001
1000
0010
1000
,
0200
0001
0010
1300
,
1100
0000
0101
0000
1000
0010
0100
0010
,
0001
0000
1000
0100
0001
0010
1000
0010
,
0001
0011
0000
0101
0000
1100
0000
1010
,
1010
0000
0001
0010
0001
1000
0010
1000
,
0100
0000
1001
0000
0001
0100
0010
0100
,
1000
0000
0001
0010
1000
0100
0001
0100
,
1000
0000
1100
0000
1000
0001
0010
0001
,
0200
1000
0010
0301
,
0101
0000
0000
0000
1100
0000
0000
0000
0001
0000
0000
0001
0000
0000
0001
0000
,
0011
0000
1010
0000
1000
0010
0001
0010
,
0100
0000
1010
0010
0000
0011
0010
0000
,
1010
0000
0000
1001
0000
0000
1100
0000
0000
0000
0220
0000
0000
0000
0330
0000
,
1001
0002
0203
2300
,
3002
0023
2030
3200
,
0301
0000
0100
0010
0001
1000
0100
0000
,
1001
0000
0001
0100
0010
1000
0001
0000
,
1001
2000
3200
0302
,
2003
3020
0032
0203
,
1300
0000
0100
0010
1000
0001
0100
0000
,
1001
0000
1000
0100
0010
0001
1000
0001
,
0100
0020
2030
3002
,
0023
0230
2300
3002
,
0000
0000
0000
0000
,
0000
0000
0000
0000
,
0003
0000
0000
0000
;

//---------------dance-single - ----------------
#NOTEDATA:;
#CHARTNAME:;
#STEPSTYPE:dance-single;
#DESCRIPTION:;
#CHARTSTYLE:;
#DIFFICULTY:Medium;
#METER:10;
#RADARVALUES:0.407144,0.447156,0.360346,0.687932,0.004095,348.000000,304.000000,44.000000,84.000000,0.000000,0.000000,0.000000,0.000000,0.000000,0.407144,0.447156,0.360346,0.687932,0.004095,348.000000,304.000000,44.000000,84.000000,0.000000,0.000000,0.000000,0.000000,0.000000;
#CREDIT:;
#NOTES:
0000
0000
0000
0000
,
0000
0000
0000
0000
,
0000
0000
0000
0000
,
0000
0000
0000
0000
,
0100
0000
0100
0000
,
0100
0000
0100
0000
,
2002
0000
3003
0000
,
0001
0000
1000
0000
0001
1000
0001
0000
,
2001
3000
0200
0300
0000
2000
3000
0002
,
0003
0200
0300
0000
0020
2030
3001
0000
,
1000
0001
0020
0000
0030
0100
0000
0001
,
0000
0100
0000
0010
0001
0000
0011
0000
,
1000
0000
2020
0000
3030
0001
0000
0100
,
0000
0001
0000
0010
0100
0000
1100
0000
,
0001
0100
0020
0000
0030
0100
0000
1000
,
0000
0100
0000
0010
1000
0000
1010
0000
,
0001
0000
0022
0000
0033
1000
0000
0100
,
0000
1000
0000
0010
0100
0000
0101
0000
,
1000
0100
0020
0000
0030
1000
0000
0010
,
0000
0001
0000
0100
1000
0000
0101
0000
,
1000
0000
2002
0000
3003
0001
0000
0010
,
0000
0100
0000
1000
0001
0000
1001
0000
,
0001
0100
0020
0000
0030
0001
0000
0010
,
2000
0000
0000
3200
0000
0000
0301
0000
,
0110
2001
3020
0230
,
2300
3200
0320
2030
,
3100
0000
0001
0000
0100
1000
0010
0000
,
0001
0000
0010
0000
1000
0100
0001
0000
,
0110
1002
0203
0320
,
2030
3200
0320
0032
,
1003
0000
0010
0000
0001
0010
1000
0000
,
0002
0023
0230
2300
,
3000
1002
0023
0230
,
0302
0203
0320
0032
,
0103
0000
1000
0000
0100
0001
0010
0000
,
1000
0000
0010
0000
0001
0100
1000
0000
,
0100
0001
0101
1010
,
0001
0000
0001
0000
0010
0100
1000
0000
,
0001
0000
0011
0000
0000
1010
0000
0000
,
2100
0000
0000
3002
0000
0103
0010
0100
,
0001
0000
0000
0000
,
0000
0000
0000
0000
,
0002
0023
0230
2300
,
3020
0000
0000
0000
0230
0000
0000
0000
0302
0000
0000
0000
2003
0000
3001
1000
,
0001
0000
1001
0000
0001
0010
0000
0100
,
0010
0000
1000
0010
0000
0100
0010
0000
,
0001
0000
1001
0000
1000
0010
0000
0100
,
0010
0000
0001
0010
0000
0100
0010
0000
,
2000
0010
3001
0000
,
0002
0010
1003
0000
,
0002
0003
2000
3000
,
0002
0203
2300
3020
,
0031
1001
0000
0000
,
0000
0000
0001
1000
,
0001
0000
0011
0000
0010
0001
0100
0000
,
0100
0000
0000
0100
1000
0100
0001
0000
,
1000
0000
1010
0000
0010
1000
0100
0000
,
0020
0000
0000
0000
0031
0010
0100
1000
,
0001
0000
1001
0000
0001
0100
0010
0000
,
0010
0000
0000
0010
0001
0010
1000
0000
,
0000
1001
0000
0110
0000
1001
0000
1000
,
0200
0000
0320
0000
0031
0100
0010
0000
,
1000
0000
1010
0000
0010
1000
0100
0000
,
0100
0000
0000
0100
0001
0100
1000
0000
,
0001
0000
0011
0000
0010
0001
0100
0000
,
0020
0000
0000
0000
1030
0010
0100
0001
,
1000
1000
1100
0011
,
1000
0000
1000
0000
0010
0100
0001
0000
,
1000
0000
1010
0000
0000
0011
0000
0000
,
0102
0000
0000
2003
0000
0000
3100
0000
,
0110
0002
0023
2030
,
3020
0032
0203
2300
,
3100
0000
0101
0000
1000
0100
0010
0000
,
0001
0000
1001
0000
0010
0001
0100
0000
,
0110
2000
3020
0032
,
0023
2030
3200
0302
,
0103
0000
1100
0000
0001
0100
0010
0000
,
1000
0000
1001
0000
0010
1000
0100
0000
,
0110
0000
0000
0000
;

//---------------dance-single - ----------------
#NOTEDATA:;
#CHARTNAME:;
#STEPSTYPE:dance-single;
#DESCRIPTION:;
#CHARTSTYLE:;
#DIFFICULTY:Easy;
#METER:7;
#RADARVALUES:0.317057,0.415216,0.245690,0.712502,0.000000,271.000000,241.000000,30.000000,87.000000,0.000000,0.000000,0.000000,0.000000,0.000000,0.317057,0.415216,0.245690,0.712502,0.000000,271.000000,241.000000,30.000000,87.000000,0.000000,0.000000,0.000000,0.000000,0.000000;
#CREDIT:;
#NOTES:
0000
0000
0000
0000
,
0000
0000
0000
0000
,
0000
0000
0000
0000
,
0000
0000
0000
0000
,
0100
0000
0100
0000
,
0100
0000
0100
0000
,
2002
0000
3003
0000
,
0001
1000
0001
0000
,
1001
0100
0000
0100
,
0000
0100
0000
1001
,
0000
0001
0200
0000
0300
1000
0000
0100
,
0000
0001
0000
0000
0010
0000
0001
0000
,
0100
0000
0220
0000
0330
0001
0000
1000
,
0000
0010
0000
0000
0100
0000
0001
0000
,
0000
1000
0200
0000
0300
0001
0000
0100
,
0000
1000
0000
0000
0010
0000
1000
0000
,
0100
0000
0220
0000
0330
1000
0000
0001
,
0000
0010
0000
0000
0100
0000
1000
0000
,
0000
1000
0020
0000
0030
0001
0000
0010
,
0000
1000
0000
0000
0100
0000
1000
0000
,
0010
0000
0220
0000
0330
1000
0000
0010
,
0000
0100
0000
0000
0001
0000
1000
0000
,
0000
0001
0020
0000
0030
1000
0000
0000
,
0010
0000
0000
0001
0000
0000
1001
0000
,
0000
0002
0203
0320
,
0230
0302
0023
0230
,
0300
1100
0001
1000
,
0000
0101
1000
0001
,
0000
2000
3200
0320
,
0032
0203
0320
2030
,
3000
1001
1000
0100
,
0010
0001
1000
0010
,
0000
2000
3200
0320
,
0230
2300
3020
0230
,
0300
1010
0001
1000
,
0000
0011
1000
0001
,
0100
0010
1010
1001
,
1000
0100
0020
0032
,
1003
0000
0001
0100
0000
1000
0100
0000
,
0002
0000
0000
1003
,
1001
0000
0000
0000
,
0000
0000
0000
0000
,
2000
3200
0320
0032
,
2003
0000
3020
0000
0230
0000
0302
1003
,
0001
0010
0001
0010
,
0100
1000
0100
1000
,
0001
0100
0001
0100
,
0010
1000
0010
1000
,
0002
0100
0103
0000
,
2000
0100
3100
0000
,
0002
0003
2000
3000
,
0002
0203
0320
2030
,
3001
1001
0000
0000
,
0000
0000
0001
1000
,
0001
2002
3003
0001
,
0000
0000
0001
0000
0010
0100
0010
0000
,
1000
2020
3030
0010
,
0022
0030
1000
1000
,
0103
0220
0330
0100
,
0000
0000
0001
0000
0100
0010
1000
0000
,
0000
0110
0000
1001
0000
0110
0000
0000
,
2001
3200
0320
0032
,
1003
2002
3003
1000
,
0000
0000
1000
0000
0010
0100
0010
0000
,
0001
0022
0033
0010
,
2020
0030
0001
0001
,
3100
0010
0011
1001
,
0001
0100
0020
2030
,
3001
0000
1000
0100
0000
0001
0100
0000
,
2000
0000
0000
3000
,
0001
0020
0230
2300
,
3002
0203
0320
2030
,
3000
0001
0010
0100
,
0000
1000
0010
0100
,
0000
0020
0230
0302
,
2003
3200
0320
0032
,
0003
1000
0010
0100
,
0001
1000
0100
0010
,
0110
0000
0000
0000
;

//---------------dance-single - ----------------
#NOTEDATA:;
#CHARTNAME:;
#STEPSTYPE:dance-single;
#DESCRIPTION:;
#CHARTSTYLE:;
#DIFFICULTY:Beginner;
#METER:4;
#RADARVALUES:0.184853,0.235044,0.122845,0.155604,0.000000,158.000000,143.000000,15.000000,19.000000,0.000000,0.000000,0.000000,0.000000,0.000000,0.184853,0.235044,0.122845,0.155604,0.000000,158.000000,143.000000,15.000000,19.000000,0.000000,0.000000,0.000000,0.000000,0.000000;
#CREDIT:;
#OFFSET:-0.341380;
#BPMS:0.000000=170.000000
;
#STOPS:;
#DELAYS:;
#WARPS:;
#TIMESIGNATURES:0.000000=4=4
;
#TICKCOUNTS:0.000000=4
;
#COMBOS:0.000000=1
;
#SPEEDS:0.000000=1.000000=0.000000=0
;
#SCROLLS:0.000000=1.000000
;
#FAKES:;
#LABELS:0.000000=Song Start
;
#DISPLAYBPM:85.000000:170.000000;
#NOTES:
// measure 0
0000
0000
0000
0000
,  // measure 1
0000
0000
0000
0000
,  // measure 2
0000
0000
0000
0000
,  // measure 3
0000
0000
0000
0000
,  // measure 4
0100
0000
0100
0000
,  // measure 5
0100
0000
0100
0000
,  // measure 6
2002
0000
3003
0000
,  // measure 7
0010
0000
0000
0000
,  // measure 8
1001
0000
0000
0000
,  // measure 9
0000
0000
0000
1001
,  // measure 10
0000
0001
0000
0010
,  // measure 11
0010
0010
0000
0001
,  // measure 12
0000
0100
0000
0001
,  // measure 13
0001
0001
0000
0010
,  // measure 14
0000
1000
0000
0010
,  // measure 15
0010
0010
0000
1000
,  // measure 16
0000
0100
0000
1000
,  // measure 17
1000
1000
0000
0010
,  // measure 18
0000
0001
0000
0010
,  // measure 19
0010
0010
0000
0001
,  // measure 20
0000
0100
0000
0001
,  // measure 21
0001
0001
0000
0010
,  // measure 22
0000
1000
0000
0010
,  // measure 23
0020
0000
0000
0030
,  // measure 24
1000
0000
0010
0000
,  // measure 25
0001
0000
0100
0000
,  // measure 26
1000
1000
0000
1000
,  // measure 27
0000
0001
0000
0001
,  // measure 28
0001
0000
0010
0000
,  // measure 29
1000
0000
0100
0000
,  // measure 30
0001
0001
0000
0001
,  // measure 31
0000
1000
0000
2000
,  // measure 32
3000
0100
0100
0000
,  // measure 33
0010
0000
0001
0000
,  // measure 34
0100
0100
0000
0010
,  // measure 35
0000
1000
0000
0001
,  // measure 36
0001
0000
1001
0000
,  // measure 37
1000
0000
1001
0000
,  // measure 38
0100
0000
0200
0000
0000
0300
0000
0000
,  // measure 39
0110
0000
1000
0001
,  // measure 40
1000
0000
0000
0000
,  // measure 41
0000
0000
0000
0000
,  // measure 42
0000
0000
0000
0000
,  // measure 43
0000
0000
0000
0000
,  // measure 44
0002
0000
0000
0000
,  // measure 45
0003
0000
0000
0000
,  // measure 46
2000
0000
0000
0000
,  // measure 47
3000
0000
0000
0000
,  // measure 48
0001
0000
0100
0000
,  // measure 49
1000
0000
0010
0000
,  // measure 50
1000
0000
0100
0000
,  // measure 51
0001
0000
0010
0000
,  // measure 52
0002
0000
0003
0000
,  // measure 53
2000
0000
3000
0000
,  // measure 54
0010
0000
0010
0000
,  // measure 55
0010
0010
0010
0010
,  // measure 56
0010
0000
0000
0000
,  // measure 57
0000
0000
0000
0000
,  // measure 58
1001
0000
0001
0000
,  // measure 59
0010
0000
0001
1000
,  // measure 60
0001
0000
0100
0000
,  // measure 61
0220
0000
0000
0330
,  // measure 62
1001
0000
0001
0000
,  // measure 63
0010
0000
0100
0010
,  // measure 64
0100
0000
1000
0000
,  // measure 65
0002
0000
0000
0003
,  // measure 66
1001
0000
1000
0000
,  // measure 67
0010
0000
1000
0001
,  // measure 68
1000
0000
0100
0000
,  // measure 69
0220
0000
0000
0330
,  // measure 70
1000
0000
1001
0000
,  // measure 71
0001
0000
1001
0000
,  // measure 72
0100
0000
0200
0000
0000
0300
0000
0000
,  // measure 73
0110
0000
0001
1000
,  // measure 74
0001
0000
0010
0000
,  // measure 75
1000
0000
0100
0000
,  // measure 76
0002
0000
0003
0000
,  // measure 77
2000
0000
3000
0000
,  // measure 78
1000
0000
0010
0000
,  // measure 79
0001
0000
0100
0000
,  // measure 80
2000
0000
3000
0000
,  // measure 81
0002
0000
0003
0000
,  // measure 82
0110
0000
0000
0000
;
