#VERSION:0.83;
#TITLE:TOXIC (feat. Shabel Tonya);
#SUBTITLE:;
#ARTIST:INFX & MIIM;
#TITLETRANSLIT:;
#SUBTITLETRANSLIT:;
#ARTISTTRANSLIT:;
#GENRE:K-Pop;
#ORIGIN:;
#CREDIT:;
#BANNER:TOXIC.png;
#BACKGROUND:TOXIC-bg.png;
#PREVIEWVID:;
#JACKET:TOXIC-jacket.png;
#CDIMAGE:;
#DISCIMAGE:;
#LYRICSPATH:;
#CDTITLE:cdtitle.png;
#MUSIC:TOXIC (feat. Shabel Tonya).ogg;
#OFFSET:-1.416000;
#SAMPLESTART:50.430088;
#SAMPLELENGTH:13.521126;
#SELECTABLE:YES;
#BPMS:0.000=142.000;
#STOPS:;
#DELAYS:;
#WARPS:;
#TIMESIGNATURES:0.000=4=4;
#TICKCOUNTS:0.000=4;
#COMBOS:0.000=1;
#SPEEDS:0.000=1.000=0.000=0;
#SCROLLS:0.000=1.000;
#FAKES:;
#LABELS:0.000=Song Start;
#BGCHANGES:-5.500=TOXIC (feat. Shabel Tonya).mp4=1.000=1=0=1===CrossFade==,
99999=-nosongbg-=1.000=0=0=0 // don't automatically add -songbackground-
;
#KEYSOUNDS:;
#ATTACKS:
;

//---------------dance-single - ----------------
#NOTEDATA:;
#CHARTNAME:;
#STEPSTYPE:dance-single;
#DESCRIPTION:;
#CHARTSTYLE:;
#DIFFICULTY:Hard;
#METER:11;
#RADARVALUES:0.469169,0.521557,0.286539,0.528996,0.172658,447.000000,408.000000,39.000000,72.000000,0.000000,0.000000,0.000000,0.000000,0.000000,0.469169,0.521557,0.286539,0.528996,0.172658,447.000000,408.000000,39.000000,72.000000,0.000000,0.000000,0.000000,0.000000,0.000000;
#CREDIT:;
#NOTES:
0000
0000
0000
0000
,
0000
0000
0000
0000
,
0000
0000
0000
0000
,
0000
0000
0000
0000
,
0001
0010
0000
0001
0100
0000
0010
0000
,
0100
0001
1000
0001
0010
0000
0100
0000
,
1000
0000
0000
0010
0000
0000
1010
0000
0000
0000
1010
0000
0000
0000
1000
0000
,
0001
0000
0000
0010
0000
0000
0011
0000
0000
0000
0011
0000
0000
0000
0001
0000
,
1000
0010
0000
1000
0100
0000
0010
0000
,
0100
1000
0001
1000
0010
0000
0100
0000
,
1001
0110
2002
3003
,
1000
0000
0100
0010
0000
0100
0010
0000
0001
0000
0100
0000
0010
0000
0000
0000
,
1000
0002
0023
0230
,
2300
0000
3000
0000
0001
1000
0010
0100
,
0002
0000
0100
0000
1003
0000
1000
0001
,
2000
0100
3001
1001
,
1000
0000
0000
0010
0000
0000
0100
0000
0001
0000
0000
0000
0101
0000
0000
0000
,
0001
0000
0000
0010
0000
0000
0100
0000
1000
0000
0000
0000
1100
0000
0000
0000
,
0001
0010
0001
1000
0010
1000
0002
0000
,
2000
0000
0000
0000
,
3003
0000
0000
0001
0010
0100
1000
0000
,
1100
0101
1100
0101
,
1100
0000
0101
0000
1100
0000
0001
1000
,
0010
0101
0011
1100
,
1010
0000
0000
0000
0101
0000
0000
0000
0001
0000
0000
0010
0000
0000
0100
0000
,
2000
0000
0000
3010
0000
0000
1000
0000
0002
0000
0000
0013
0000
0000
0001
0000
,
1000
0000
1000
0000
0010
0000
0100
0000
0002
0000
0000
0103
0000
0000
0001
0000
,
1000
0100
0010
0001
1000
0010
0100
0100
,
0100
0000
0000
0000
0000
0000
0000
0000
2002
3003
0000
0000
0000
0000
0000
0000
0001
0000
0000
0000
1000
0000
0010
0000
0000
0000
0100
0000
0001
0000
0000
0000
,
1000
0100
0001
0100
2000
0000
3001
0000
,
0001
0100
1000
0100
0002
0000
1003
0000
,
2001
0000
0000
3100
0010
0000
0100
0000
0010
0000
0001
0000
1000
0000
0001
0000
,
0100
0000
0000
0000
0000
0000
0000
0000
2002
3003
0000
0000
0000
0000
0000
0000
0001
0000
0000
0000
1000
0000
0100
0000
0000
0000
0010
0000
0001
0000
0000
0000
,
1000
0010
0001
0010
2000
0000
3001
0000
,
0001
0010
1000
0010
0002
0000
1003
0000
,
1002
0000
0000
0103
0010
0000
1000
0000
0001
0000
1000
0000
0100
0000
0100
0000
,
0100
0000
0000
0000
0000
0000
0000
0000
2002
3003
0000
0000
0000
0000
0000
0000
1000
0000
0000
0000
0001
0000
0010
0000
0000
0000
0001
0000
0100
0000
0000
0000
,
0020
0000
0000
0000
0000
0000
0000
0030
,
1000
0010
2000
0010
,
3002
0100
2003
0100
,
3001
0010
0002
0010
,
2003
0000
0100
0000
3001
0000
1000
0001
,
1000
1000
0001
0001
,
2000
3020
0230
0302
,
0023
0000
0000
0000
,
0031
0000
0000
0100
0000
0000
0010
0000
1000
0000
0000
0000
1001
0000
0000
0000
,
0001
0000
0001
1000
0100
1000
0001
0000
,
1000
0000
0010
0100
0001
1000
0100
0000
,
1000
0000
1000
0001
0100
0001
1000
0000
,
0001
0000
0010
0100
1000
0001
0001
1000
,
0010
0000
0000
0100
0000
0000
0001
0000
0010
0000
0000
0000
0011
0000
0000
0000
,
0010
0000
0000
0100
0000
0000
1000
0000
0010
0000
0000
0000
1010
0000
0000
0000
,
0001
0010
0001
1000
0010
1000
0200
0000
,
0000
0000
0000
0300
,
2001
0000
0000
0000
3001
0000
0100
0000
0010
0000
0000
0010
0000
0000
0100
0000
,
0001
0000
0000
0001
0000
0000
1000
0000
0100
0000
1000
0000
0001
0000
0100
0000
,
0002
0000
0000
0000
1003
0000
0100
0000
0010
0000
0000
0010
0000
0000
0100
0000
,
1000
0000
0000
1000
0000
0000
0001
0000
0200
0000
0000
0000
0300
0000
0000
0000
,
1001
0000
0000
0000
0001
0000
0100
0000
0020
0000
0000
2030
0000
0000
3002
0000
,
0023
0000
0000
0032
0000
0000
2003
0000
3020
0000
0000
0230
0000
0000
0302
0000
,
2003
0000
0000
0100
0000
0000
0001
0000
3002
0000
0000
0100
0000
0000
1000
0000
,
1003
0000
0000
0100
0000
0000
0010
0000
0001
0000
0000
0000
1001
0000
0000
0000
,
0001
0100
1000
0100
0002
0000
1003
0000
,
1000
0100
0001
0100
2000
0000
3001
0000
,
1002
0000
0000
0103
0010
0000
0100
0000
0010
0000
1000
0000
0001
0000
1000
0000
,
0100
0000
0000
0000
0000
0000
0000
0000
2002
3003
0000
0000
0000
0000
0000
0000
1000
0000
0000
0000
0001
0000
0100
0000
0000
0000
0010
0000
1000
0000
0000
0000
,
0001
0010
1000
0010
0002
0000
1003
0000
,
1000
0010
0001
0010
2000
0000
3001
0000
,
2001
0000
0000
3100
0010
0000
0001
0000
1000
0000
0001
0000
0100
0000
0100
0000
,
0100
0000
0000
0000
0000
0000
0000
0000
2002
3003
0000
0000
0000
0000
0000
0000
0001
0000
0000
0000
1000
0000
0010
0000
0000
0000
1000
0000
0100
0000
0000
0000
,
0020
0000
0000
0000
0100
0000
0000
0000
0031
0000
0000
1000
0000
0000
0001
0000
,
0200
0000
0000
0000
0010
0000
0000
0000
0301
0000
0000
0100
0000
0000
0010
0000
,
2000
0000
0000
3100
0010
0000
0100
0000
0010
0000
0001
0000
1000
0000
0001
0000
,
0100
0000
0000
0000
0000
0000
0000
0000
2002
3003
0000
0000
0000
0000
0000
0000
1000
0000
0000
0000
0001
0000
0010
0000
0000
0000
0001
0000
0100
0000
0000
0000
,
0020
0000
0000
0000
0100
0000
0000
0000
1030
0000
0000
0001
0000
0000
1000
0000
,
0200
0000
0000
0000
0010
0000
0000
0000
1300
0000
0000
0100
0000
0000
0010
0000
,
0002
0000
0000
0103
0010
0000
1000
0000
0001
0000
1000
0000
0100
0000
0100
0000
,
0100
0000
0000
0000
0000
0000
0000
0000
2002
3003
0000
0000
0000
0000
0000
0000
0001
0000
0000
0000
1000
0000
0100
0000
0000
0000
1000
0000
0010
0000
0000
0000
,
0200
0000
0000
0000
0000
0000
0000
0300
;

//---------------dance-single - ----------------
#NOTEDATA:;
#CHARTNAME:;
#STEPSTYPE:dance-single;
#DESCRIPTION:;
#CHARTSTYLE:;
#DIFFICULTY:Medium;
#METER:7;
#RADARVALUES:0.345317,0.434630,0.279192,0.337969,0.000000,329.000000,291.000000,38.000000,46.000000,0.000000,0.000000,0.000000,0.000000,0.000000,0.345317,0.434630,0.279192,0.337969,0.000000,329.000000,291.000000,38.000000,46.000000,0.000000,0.000000,0.000000,0.000000,0.000000;
#CREDIT:;
#NOTES:
0000
0000
0000
0000
,
0000
0000
0000
0000
,
0000
0000
0000
0000
,
0000
0000
0000
0000
,
0001
0100
0010
0100
,
0001
1000
0100
0010
,
0001
0000
0000
0011
0000
0011
0000
0000
,
1000
0000
0000
1010
0000
1010
0000
0000
,
1000
0100
0010
0100
,
1000
0001
0100
0010
,
0110
0110
2002
3003
,
0001
0010
0100
1000
,
0001
2000
3020
0230
,
0302
0003
1000
0100
,
0010
0010
0001
0100
,
0010
0010
1000
0001
,
1000
0000
0100
0000
0010
0000
0001
1000
,
0001
0000
0100
0000
0010
0000
1000
0001
,
1000
0001
2000
0002
,
0000
0000
0000
0000
,
3003
0000
0000
0000
1000
0001
1000
0000
,
0100
0100
0010
0010
,
0100
0000
0100
0000
0010
0000
0001
1000
,
0010
0010
0100
0100
,
0010
0010
2000
3000
,
0001
0010
0100
1000
,
0001
1000
0010
0000
0100
0000
0001
0000
,
1000
0000
1000
0000
0001
1000
0001
1000
,
0001
0000
0000
0000
0000
0000
0000
0000
0020
0030
0000
0000
0000
0000
0000
0000
0100
0000
0000
0000
0000
0000
0000
0000
0000
0000
0000
0000
0000
0000
0000
0000
,
0011
0011
1100
0001
,
0101
0101
1010
0001
,
0020
0000
0130
0000
1000
0001
1000
0000
,
0001
0000
0000
0000
0000
0000
0000
0000
0200
0300
0000
0000
0000
0000
0000
0000
0010
0000
0000
0000
0000
0000
0000
0000
0000
0000
0000
0000
0000
0000
0000
0000
,
1010
1010
0101
1000
,
1100
1100
0011
1000
,
0020
0000
0130
0000
0001
1000
0001
1000
,
0001
0000
0000
0000
0000
0000
0000
0000
0020
0030
0000
0000
0000
0000
0000
0000
0100
0000
0000
0000
1000
0000
0000
0000
0001
0000
0000
0000
0000
0000
0000
0000
,
0200
0000
0000
0000
0000
0000
0000
0300
,
0000
0000
0001
0100
,
0010
0100
0001
0001
,
0001
0000
1000
0100
,
0010
0100
1000
1000
,
1000
0000
0001
0100
,
0010
1000
0100
0010
,
0002
0000
0000
0000
,
1003
0001
1000
0000
,
0001
0000
0100
0000
0010
0000
0100
0010
,
0100
0010
1000
0001
,
1000
0000
0100
0000
0010
0000
0100
0010
,
0100
0010
0002
2003
,
3010
0000
0100
0000
0001
0000
0010
0001
,
0010
0000
0100
0000
1000
0000
0010
1000
,
0010
0100
0002
2000
,
0000
0000
0000
3003
,
2001
0000
3100
0010
0002
0000
0013
0000
,
0020
0000
0130
0000
1000
0001
1000
0000
,
1002
0000
0103
0010
2000
0000
3010
0000
,
0020
0130
0002
0003
,
2001
3100
2000
0010
,
3002
0010
2003
0010
,
3002
0100
2003
0100
,
3001
1000
0001
0000
,
1010
1010
0101
1000
,
1100
1100
0011
1000
,
0020
0000
0130
0000
0001
1000
0001
0000
,
1000
0000
0000
0000
0000
0000
0000
0000
0200
0300
0000
0000
0000
0000
0000
0000
0010
0000
0000
0000
0000
0000
0000
0000
0000
0000
0000
0000
0000
0000
0000
0000
,
0011
0011
1100
0001
,
0101
0101
1010
0001
,
0020
0000
0130
0000
1000
0001
1000
0001
,
1000
0000
0000
0000
0000
0000
0000
0000
0020
0030
0000
0000
0000
0000
0000
0000
0100
0000
0000
0000
0001
0000
0000
0000
1000
0000
0000
0000
0000
0000
0000
0000
,
2001
0001
3100
0010
,
0210
0010
1300
0001
,
0200
0000
0310
0000
1000
0001
1000
0000
,
0100
0000
0000
0000
0000
0000
0000
0000
0020
0030
0000
0000
0000
0000
0000
0000
0001
0000
0000
0000
0000
0000
0000
0000
0000
0000
0000
0000
0000
0000
0000
0000
,
1002
1000
0103
0010
,
0210
0010
0301
1000
,
0200
0000
0310
0000
0001
1000
0001
1000
,
0001
0000
0000
0000
0000
0000
0000
0000
0200
0300
0000
0000
0000
0000
0000
0000
0010
0000
0000
0000
1000
0000
0000
0000
0001
0000
0000
0000
0000
0000
0000
0000
,
0020
0000
0000
0000
0000
0000
0000
0030
;

//---------------dance-single - ----------------
#NOTEDATA:;
#CHARTNAME:;
#STEPSTYPE:dance-single;
#DESCRIPTION:;
#CHARTSTYLE:;
#DIFFICULTY:Easy;
#METER:4;
#RADARVALUES:0.185778,0.260778,0.029389,0.198373,0.000000,177.000000,173.000000,4.000000,27.000000,0.000000,0.000000,0.000000,0.000000,0.000000,0.185778,0.260778,0.029389,0.198373,0.000000,177.000000,173.000000,4.000000,27.000000,0.000000,0.000000,0.000000,0.000000,0.000000;
#CREDIT:;
#NOTES:
0000
0000
0000
0000
,
0000
0000
0000
0000
,
0000
0000
0000
0000
,
0000
0000
0000
0000
,
0001
0000
0001
0000
,
0100
0000
0010
0000
,
1000
0001
0020
0030
,
0001
1000
0020
0030
,
1000
0000
1000
0000
,
0100
0000
0010
0000
,
0002
0003
2000
3000
,
0010
0010
0100
0001
,
2000
0000
3000
0000
,
0200
0000
0300
0000
,
0020
0000
0030
0000
,
0002
0000
0003
0000
,
1000
1000
1000
0000
,
0001
0001
0001
0000
,
1000
0010
0100
0001
,
2000
0000
0000
0000
,
3000
0000
0000
0000
,
0100
0000
0100
0000
,
0100
0000
0100
0100
,
0010
0000
0010
0000
,
0010
0000
1001
0000
,
1000
0000
0001
0000
,
1000
0001
1000
0000
,
0001
0100
0010
1000
,
0001
0000
1000
0000
,
0001
0001
0010
0000
,
0001
0001
0010
0000
,
0100
1000
0001
1000
,
0010
0000
1000
0000
,
0001
0001
0100
0000
,
0001
0001
0100
0000
,
0010
1000
0001
1000
,
0100
0000
0010
0010
,
0001
0000
0000
0000
,
0002
0000
0003
0000
,
0200
0000
0300
0000
,
0020
0000
0030
0000
,
2000
0000
3000
0000
,
0200
0000
0300
0000
,
0020
0000
0030
0000
,
0002
0000
0000
0000
,
0003
0000
0000
0000
,
0001
0000
0001
0000
,
0100
0000
0010
0000
,
1000
0000
1000
0000
,
0100
0000
0010
0000
,
0001
0001
0001
0000
,
1000
1000
1000
0000
,
0001
0100
0010
2000
,
0000
0000
0000
3000
,
1001
0000
0001
0001
,
0010
0010
0100
0000
,
1001
0000
1000
1000
,
0010
0010
0100
0000
,
1001
0000
0002
0000
,
0023
0000
0032
0000
,
0203
0000
0320
0000
,
1030
0000
0000
0000
,
1000
1000
0010
0000
,
1000
1000
0010
0000
,
0100
0001
1000
0001
,
0010
0000
0001
0000
,
1000
1000
0100
0000
,
1000
1000
0100
0000
,
0010
0001
1000
0001
,
0100
0000
0010
0010
,
2000
0000
3001
0000
,
0002
0000
1003
0000
,
0100
1000
0010
1000
,
0100
0000
0010
0010
,
0002
0000
1003
0000
,
2000
0000
3001
0000
,
0100
0001
0010
0001
,
0100
0000
0010
0010
,
2000
0000
0000
0000
0000
0000
0000
3000
;

//---------------dance-single - ----------------
#NOTEDATA:;
#CHARTNAME:;
#STEPSTYPE:dance-single;
#DESCRIPTION:;
#CHARTSTYLE:;
#DIFFICULTY:Beginner;
#METER:2;
#RADARVALUES:0.113356,0.202828,0.022041,0.139596,0.000000,108.000000,105.000000,3.000000,19.000000,0.000000,0.000000,0.000000,0.000000,0.000000,0.113356,0.202828,0.022041,0.139596,0.000000,108.000000,105.000000,3.000000,19.000000,0.000000,0.000000,0.000000,0.000000,0.000000;
#CREDIT:;
#NOTES:
0000
0000
0000
0000
,
0000
0000
0000
0000
,
0000
0000
0000
0000
,
0000
0000
0000
0000
,
0001
0000
0000
0000
,
1000
0000
0000
0000
,
0100
0000
0000
0000
,
0100
0000
0000
0000
,
1000
0000
0000
0000
,
0001
0000
0000
0000
,
0200
0000
0300
0000
,
0010
0000
0010
0000
,
1000
0000
0000
0000
,
0100
0000
0000
0000
,
0010
0000
0000
0000
,
0001
0000
0000
0000
,
2000
0000
3000
0000
,
0002
0000
0003
0000
,
0100
0000
0010
0000
,
0200
0000
0000
0000
,
0300
0000
0000
0000
,
0001
0000
0001
0000
,
0001
0000
0001
0000
,
1000
0000
1000
0000
,
1000
0000
0000
0000
,
0001
0000
0001
0000
,
1000
0000
1000
0000
,
0010
0000
0100
0000
,
0001
0000
0000
0000
,
0001
0000
1000
0000
,
0001
0000
1000
0000
,
0001
0000
0100
0000
,
0100
0000
0000
0000
,
0001
0000
1000
0000
,
0001
0000
1000
0000
,
0001
0000
0010
0000
,
0010
0000
0100
0000
,
1000
0000
0000
0000
,
0002
0000
0003
0000
,
0200
0000
0300
0000
,
0020
0000
0030
0000
,
2000
0000
3000
0000
,
0200
0000
0300
0000
,
0020
0000
0030
0000
,
0002
0000
0000
0000
,
0003
0000
0000
0000
,
0001
0000
0000
0000
,
0100
0000
0000
0000
,
0001
0000
0000
0000
,
0010
0000
0000
0000
,
0002
0000
0003
0000
,
2000
0000
3000
0000
,
0010
0000
0010
0020
,
0000
0000
0030
0000
,
1001
0000
0100
0000
,
0100
0000
0100
0000
,
1001
0000
0010
0000
,
0010
0000
0010
0000
,
1001
0000
0000
0000
,
0010
0000
0000
0000
,
0100
0000
0010
0000
,
0010
0000
0000
0000
,
1000
0000
0001
0000
,
1000
0000
0001
0000
,
1000
0000
0100
0000
,
0100
0000
0000
0000
,
1000
0000
0001
0000
,
1000
0000
0001
0000
,
1000
0000
0010
0000
,
0010
0000
0100
0000
,
0002
0000
0003
0000
,
2000
0000
3000
0000
,
0001
0000
0001
0000
,
0010
0000
0100
0000
,
2000
0000
3000
0000
,
0002
0000
0003
0000
,
1000
0000
1000
0000
,
0010
0000
0100
0000
,
0002
0000
0000
0000
0000
0000
0000
0003
;

//---------------dance-single - ----------------
#NOTEDATA:;
#CHARTNAME:;
#STEPSTYPE:dance-single;
#DESCRIPTION:;
#CHARTSTYLE:;
#DIFFICULTY:Challenge;
#METER:14;
#RADARVALUES:0.616112,0.666433,0.176332,0.712675,0.558384,587.000000,563.000000,24.000000,97.000000,10.000000,0.000000,0.000000,0.000000,0.000000,0.616112,0.666433,0.176332,0.712675,0.558384,587.000000,563.000000,24.000000,97.000000,10.000000,0.000000,0.000000,0.000000,0.000000;
#CREDIT:;
#NOTES:
// measure 0
0000
0000
0000
0000
,  // measure 1
0000
0000
0000
0000
,  // measure 2
0000
0000
0000
0000
,  // measure 3
0000
0000
0000
0000
,  // measure 4
0001
0000
0100
0000
0000
0000
0100
0000
0010
0000
0000
0100
0001
0000
1000
0000
,  // measure 5
0001
0000
0010
0000
0100
0000
1000
0000
0001
0000
1000
0010
1000
0000
0010
0000
,  // measure 6
0200
0000
0000
0010
0000
0000
0302
0000
0013
0000
0002
0000
0013
0000
0100
0000
,  // measure 7
0200
0000
0000
0010
0000
0000
2300
0000
3010
0000
2000
0000
3010
0000
1000
0000
,  // measure 8
1000
0000
0100
0000
0000
0000
1000
0100
0010
0000
0000
0100
1000
0000
0001
0000
,  // measure 9
1000
0000
0010
0000
0100
0000
0001
0000
1000
0000
0001
0010
0001
0000
0010
0000
,  // measure 10
0200
0000
0000
1300
0001
0000
1000
0000
0020
0000
0000
0000
1030
0001
1000
0001
,  // measure 11
0010
0000
0100
1000
0000
0001
0100
0000
0010
0000
1000
0000
0001
0000
0000
0000
,  // measure 12
1001
0002
0023
0230
,  // measure 13
2300
0000
3000
0000
1000
0001
0010
0001
,  // measure 14
0200
0000
0000
0001
0000
0000
0010
0000
0310
0000
0000
0000
0010
0000
1000
0000
,  // measure 15
0200
0000
0000
1000
0000
0000
0310
0000
0020
0000
0000
0130
1000
0000
0001
0000
,  // measure 16
1000
0000
0000
1000
0000
0000
0010
0000
0100
0000
0000
0000
0010
1000
0010
1000
,  // measure 17
0001
0000
0000
0001
0000
0000
0010
0000
0100
0000
0000
0000
0010
0001
0010
0001
,  // measure 18
1000
0000
0010
0000
0100
0000
0001
0010
0001
0010
0100
1000
0002
0000
0000
0000
,  // measure 19
2000
0000
0000
0000
,  // measure 20
3003
0000
0000
0000
0000
0000
0001
1000
0001
0000
1000
0000
0001
0000
0000
0000
,  // measure 21
0101
1100
0101
1100
,  // measure 22
0101
0000
0000
0000
1100
0000
0000
0000
0101
0000
0000
0000
0001
1000
0100
0010
,  // measure 23
0001
1100
1010
0101
,  // measure 24
0011
0000
0000
0000
1100
0000
0000
0000
0001
0000
0000
0100
0000
0000
0002
0000
,  // measure 25
1000
0000
0000
0013
0100
0000
2000
0000
0001
0000
0000
3010
0100
0000
0001
0000
,  // measure 26
0100
0000
0100
0000
0010
0000
2000
0000
0001
0000
0000
3100
0010
0000
0001
1000
,  // measure 27
0010
0000
0100
0000
0001
0000
1000
0100
0010
0001
0010
0001
1000
0010
1000
0010
,  // measure 28
0100
0000
0000
0000
0000
0000
0000
0000
0220
0330
0000
0000
0000
0000
0000
0000
1000
0000
0000
0000
0001
0000
0100
0000
0000
0000
0010
0000
1000
0000
0000
0000
,  // measure 29
0002
0000
0010
0000
2003
0000
0100
0000
3002
0000
0000
0000
1003
0001
0100
0010
,  // measure 30
2000
0000
0010
0000
3002
0000
0100
0000
2003
0000
0000
0000
3001
1000
0100
0020
,  // measure 31
0001
0000
0000
0000
0030
000M
0010
0000
1000
0000
0000
0000
0010
0000
0000
0000
0100
0000
0000
0000
0001
0000
1000
0000
0001
0000
0000
0000
1000
0000
0000
0000
,  // measure 32
0100
0000
0000
0000
0010
0000
0000
0000
0220
0330
0000
0000
0000
0000
0000
0000
1000
0000
0000
0000
0001
0000
0010
0000
0000
0000
0100
0000
1000
0000
0000
0000
,  // measure 33
0002
0000
0100
0000
2003
0000
0010
0000
3002
0000
0000
0000
1003
0001
0010
0100
,  // measure 34
2000
0000
0100
0000
3002
0000
0010
0000
2003
0000
0000
0000
3001
1000
0010
0200
,  // measure 35
0001
0000
0000
0000
0300
000M
0100
0000
1000
0000
0000
0000
0001
0000
0100
0000
0010
0000
1000
0000
0010
0000
1000
0000
0001
0000
0010
0000
0001
0000
0010
0000
,  // measure 36
0100
0000
0000
0000
0000
0000
0000
0000
0220
0330
0000
0000
0000
0000
0000
0000
0001
0000
0000
0000
1000
0000
0100
0000
0000
0000
1000
0000
0010
0000
0000
0000
,  // measure 37
0200
0000
0000
0000
0000
0000
0000
0300
,  // measure 38
0001
0000
0000
0000
0000
0000
1000
0000
0020
0000
0000
0230
0000
0000
0301
0000
,  // measure 39
2000
0000
0000
3200
0000
0000
1300
0000
0002
0000
0000
0203
0000
0000
0320
0000
,  // measure 40
1030
0000
0000
0000
0000
0000
0001
0000
0020
0000
0000
0230
0000
0000
1300
0000
,  // measure 41
0002
0000
0000
0203
0000
0000
0301
0000
2000
0000
0000
0000
3100
0000
0010
0000
,  // measure 42
0002
0000
0000
0000
0003
0000
1000
0001
1000
0000
0010
0000
0100
0000
0001
0000
,  // measure 43
2000
3200
0320
0032
,  // measure 44
0203
0000
0000
0000
,  // measure 45
0301
0000
0000
0001
0010
0000
0100
0000
1000
0000
0001
0000
1001
0000
0000
0000
,  // measure 46
1000
0000
0010
0100
0000
0100
0001
0000
1000
0000
0100
0000
0010
0000
0000
0000
,  // measure 47
0001
0000
0010
0100
0000
0100
1000
0000
0002
0000
0100
0000
2003
0000
0100
0000
,  // measure 48
3001
0000
0100
0010
0000
0100
0001
0000
1000
0000
0100
0010
0000
0100
1000
0000
,  // measure 49
0001
0000
1000
0010
0000
0100
0001
0000
1000
0000
2000
0000
0001
0000
3100
0010
,  // measure 50
0001
0000
0000
0001
0000
0000
0100
0000
0010
0000
0000
0000
0100
0001
0100
0001
,  // measure 51
1000
0000
0000
1000
0000
0000
0100
0000
0010
0000
0000
0000
0100
1000
0100
1000
,  // measure 52
0001
0000
0100
0000
0010
0000
1000
0010
1000
0010
0100
0002
0020
0000
0000
0000
,  // measure 53
0000
0000
0000
0033
,  // measure 54
2001
0000
0000
0000
3100
0000
1000
0000
0010
0000
1000
0100
00M0
0100
0001
0000
,  // measure 55
1000
0001
1000
0010
0M00
0010
0001
0000
1000
0000
0001
0100
0001
1000
0100
1000
,  // measure 56
0002
0000
0000
0000
0103
0000
0001
0000
0010
0000
0001
0100
00M0
0100
1000
0000
,  // measure 57
0001
1000
0001
0010
0M00
0010
1000
0000
0200
0000
0000
0000
0300
0000
0000
0000
,  // measure 58
1002
0000
0000
0000
0103
0000
0010
0000
1000
0000
0001
0010
0000
0001
0010
0000
,  // measure 59
0100
0000
1000
0010
0000
1000
0010
0000
0100
0000
0001
0010
0000
0100
1000
0000
,  // measure 60
0001
0000
1000
0010
0000
0001
0010
0000
1000
0000
0001
0010
0000
1000
0010
0000
,  // measure 61
0001
0000
0000
0001
0010
0000
0100
0000
1000
0000
0001
0000
1001
0000
0000
0000
,  // measure 62
2000
0000
0010
0000
3002
0000
0100
0000
2003
0000
0000
0000
3001
1000
0100
0010
,  // measure 63
0002
0000
0010
0000
2003
0000
0100
0000
3002
0000
0000
0000
1003
0001
0100
0020
,  // measure 64
1000
0000
0000
0000
0030
M000
0010
0000
0001
0000
0000
0000
0010
0000
0000
0000
0100
0000
0000
0000
1000
0000
0001
0000
1000
0000
0000
0000
0001
0000
0000
0000
,  // measure 65
0100
0000
0000
0000
0010
0000
0000
0000
0220
0330
0000
0000
0000
0000
0000
0000
0001
0000
0000
0000
1000
0000
0010
0000
0000
0000
0100
0000
0001
0000
0000
0000
,  // measure 66
2000
0000
0100
0000
3002
0000
0010
0000
2003
0000
0000
0000
3001
1000
0010
0100
,  // measure 67
0002
0000
0100
0000
2003
0000
0010
0000
3002
0000
0000
0000
1003
0001
0010
0200
,  // measure 68
1000
0000
0000
0000
0300
M000
0100
0000
0001
0000
0000
0000
1000
0000
0100
0000
0010
0000
0001
0000
0010
0000
0001
0000
1000
0000
0010
0000
1000
0000
0010
0000
,  // measure 69
0100
0000
0000
0000
0000
0000
0000
0000
0220
0330
0000
0000
0000
0000
0000
0000
1000
0000
0000
0000
0001
0000
0100
0000
0000
0000
0001
0000
0010
0000
0000
0000
,  // measure 70
0200
0000
0000
0000
0001
0000
0000
0000
0310
0000
0001
1000
0001
0000
0100
0000
,  // measure 71
0020
0000
0000
0000
0001
0000
0000
0000
0130
0000
0001
1000
0100
0000
0020
0000
,  // measure 72
0001
0000
0000
0000
0030
000M
0010
0000
1000
0000
0000
0000
0010
0000
0000
0000
0100
0000
0000
0000
0001
0000
0010
0000
0001
0000
0000
0000
0100
0000
0000
0000
,  // measure 73
0010
0000
0000
0000
1000
0000
0000
0000
2002
3003
0000
0000
0000
0000
0000
0000
0001
0000
0000
0000
1000
0000
0100
0000
0000
0000
1000
0000
0010
0000
0000
0000
,  // measure 74
0200
0000
0000
0000
1000
0000
0000
0000
0310
0000
1000
0001
1000
0000
0100
0000
,  // measure 75
0020
0000
0000
0000
1000
0000
0000
0000
0130
0000
1000
0001
0100
0000
0020
0000
,  // measure 76
1000
0000
0000
0000
0030
M000
0010
0000
0001
0000
0000
0000
1000
0000
0010
0000
0100
0000
0001
0000
1000
0000
0001
0000
0010
0000
0001
0000
1000
0000
0001
0000
,  // measure 77
0100
0000
0000
0000
0000
0000
0000
0000
2002
3003
0000
0000
0000
0000
0000
0000
1000
0000
0000
0000
0001
0000
0100
0000
0000
0000
0001
0000
0010
0000
0000
0000
,  // measure 78
0200
0000
0000
0000
0000
0000
0000
0300
;
