#VERSION:0.83;
#TITLE:T+ VS SHARK;
#SUBTITLE:;
#ARTIST:t+pazolite;
#TITLETRANSLIT:;
#SUBTITLETRANSLIT:;
#ARTISTTRANSLIT:;
#GENRE:Sharkcore;
#ORIGIN:;
#CREDIT:;
#BANNER:T+ VS SHARK.png;
#BACKGROUND:T+ VS SHARK-bg.png;
#PREVIEWVID:;
#JACKET:T+ VS SHARK-jacket.png;
#CDIMAGE:;
#DISCIMAGE:;
#LYRICSPATH:;
#CDTITLE:cdtitle.png;
#MUSIC:T+ VS SHARK.ogg;
#OFFSET:-0.000045;
#SAMPLESTART:75.600044;
#SAMPLELENGTH:19.200005;
#SELECTABLE:YES;
#BPMS:0.000=200.000;
#STOPS:;
#DELAYS:;
#WARPS:;
#TIMESIGNATURES:0.000=4=4;
#TICKCOUNTS:0.000=4;
#COMBOS:0.000=1;
#SPEEDS:0.000=1.000=0.000=0;
#SCROLLS:0.000=1.000;
#FAKES:;
#LABELS:0.000=Song Start,
255.000=DANCE BATTLE T+ VS SHARK;
#LASTSECONDHINT:134.399994;
#BGCHANGES:0.125=T+ VS SHARK.mp4=1.000=1=0=1===CrossFade==,
99999=-nosongbg-=1.000=0=0=0 // don't automatically add -songbackground-
;
#KEYSOUNDS:;
#ATTACKS:
;

//---------------dance-single - ----------------
#NOTEDATA:;
#CHARTNAME:;
#STEPSTYPE:dance-single;
#DESCRIPTION:;
#CHARTSTYLE:;
#DIFFICULTY:Challenge;
#METER:18;
#RADARVALUES:0.864087,1.047222,0.513889,0.708333,0.652778,871.000000,797.000000,74.000000,102.000000,1.000000,0.000000,0.000000,0.000000,0.000000,0.864087,1.047222,0.513889,0.708333,0.652778,871.000000,797.000000,74.000000,102.000000,1.000000,0.000000,0.000000,0.000000,0.000000;
#CREDIT:;
#NOTES:
0000
0000
0000
0000
,
0000
0000
0000
0000
,
0000
0000
0000
0000
,
0000
0000
0000
0000
,
0000
0000
0000
0000
,
0000
0000
0000
0000
,
0000
0000
0000
0000
,
0000
0000
0000
0000
,
2001
0010
3002
0100
,
2003
0000
0010
0000
3002
0000
0103
0001
,
1002
0010
2003
0100
,
3002
0000
0000
0000
0010
0000
0000
0000
2003
0000
0000
0000
3100
0010
0001
0000
,
2000
0010
3002
0100
2003
0010
3002
0100
,
2003
0100
3002
0010
2003
0100
3002
0010
,
1003
0001
0100
0001
1000
0001
0100
0001
1000
0001
0010
0001
1000
0001
0010
0001
,
2000
0000
0000
0000
0000
0000
0000
0000
0020
0000
0000
0000
0000
0000
0000
3030
2020
0000
0000
0000
0000
0000
0000
0000
3030
0000
0000
0000
0000
0000
0000
0000
0002
0000
0000
0000
0000
0000
0000
0000
0020
0000
0000
0000
0000
0000
0000
0033
0001
0000
0000
0000
0010
0000
0000
0000
0100
0000
0000
0000
2000
0000
0000
0000
,
0001
0000
000M
0000
3020
0000
1000
0001
0000
0000
0001
1000
0000
0000
1000
0001
,
0000
0000
0000
0000
0000
0000
0000
0000
0001
0000
0000
0000
1000
0000
0000
0000
0000
0000
0000
0000
0000
0000
0000
0000
1000
0000
0000
0000
0001
0000
0000
0000
0000
0000
0000
0000
0000
0000
0000
0000
0001
0000
0000
0000
1000
0000
0000
0000
0000
0000
0000
0000
0000
0000
0000
0000
1000
0000
0000
0000
0001
0000
0000
0030
,
0010
0000
0100
0010
0100
0000
1000
0100
1000
0000
0001
1000
0001
0000
1000
0010
,
1000
0000
0010
0100
0010
0000
0100
0001
0100
0000
0001
0000
1002
0000
0000
0000
,
0013
0000
0100
0010
0100
0000
1000
0100
1000
0000
0001
1000
0001
0000
1000
0010
,
1000
0000
0010
0100
0010
0000
0100
0001
0100
0000
0001
1000
0001
0000
0010
0001
,
0010
0000
0001
0100
0001
0000
1000
0010
1000
0000
0100
1000
0100
0000
0010
0001
,
2000
0100
0001
0000
3020
0032
0023
2030
,
3200
0000
0010
0001
0000
0000
0010
1000
0000
0000
0010
0001
0000
0000
0010
1000
,
0000
0000
0000
0000
0000
0000
0000
0000
0010
0000
0000
0000
0001
0000
0000
0000
0000
0000
0000
0000
0000
0000
0000
0000
0010
0000
0000
0000
1000
0000
0000
0000
0000
0000
0000
0000
0000
0000
0000
0000
0010
0000
0000
0000
0001
0000
0000
0000
0000
0000
0000
0000
0000
0000
0000
0000
0010
0000
0000
0000
1000
0000
0000
0300
,
0100
0000
0010
0001
1000
0000
0001
1000
0010
0000
0100
0001
1000
0000
0001
1000
,
0100
0000
0010
0100
1000
0000
0010
0100
0001
0000
1000
0000
2001
0000
0000
0000
,
3100
0000
0001
0100
0010
0000
0001
0010
0100
0000
0001
0100
0010
0000
0001
1000
,
0001
0000
1000
0010
0100
0000
1000
0100
0010
0000
1000
0010
0100
0000
1000
0100
,
0010
0000
1000
0001
0010
0000
0100
1000
0010
0000
0100
0001
0010
0000
0100
0000
,
2000
3002
0203
0320
0230
0300
0120
2030
,
3001
0000
0001
0010
0100
1000
0001
0000
,
0001
0010
0010
0000
0011
0000
0011
0001
,
1000
0000
1000
0010
0100
0001
1000
0000
,
1000
0010
0010
0000
1010
0000
1010
0000
,
1002
0013
0001
0001
2001
3010
1000
1000
,
2001
3100
1000
1000
1002
0103
0001
0001
,
1000
0001
0010
0001
1000
0001
0010
0001
1000
0001
0100
0001
1000
0001
0100
0001
,
1000
0000
0002
0000
2000
0000
0000
3003
,
0001
0000
0001
0000
0010
0000
0001
0000
0100
0000
0000
0100
0000
0000
0100
0000
,
0000
0000
0001
0000
0010
0000
0001
0000
0100
0000
0000
0100
0000
0000
0001
0000
,
1000
0000
1000
0000
0010
0000
1000
0000
0100
0000
0000
0100
0000
0000
0100
0000
,
0000
0000
1000
0000
0010
0000
1000
0000
0100
0000
0010
0001
0000
1000
0010
0000
,
0100
0000
0100
0000
0010
0000
0100
0000
1000
0000
0000
1000
0000
0000
1000
0000
,
0000
0000
0100
0000
1000
0000
0100
0000
0001
0000
0000
0001
0000
0000
1000
0000
,
0100
0000
0100
0000
0010
0000
0100
0000
0001
0000
0000
0001
0000
0000
0001
0000
,
0000
0000
0100
0000
0001
0000
0100
0000
1000
0000
0001
0100
0000
0100
0010
0000
,
1000
0000
1000
0000
0100
0000
0020
0000
0100
0000
0000
1030
0000
0000
1010
0000
,
0000
0000
1000
0000
0010
0000
0100
0000
0110
0000
0000
0011
0000
0000
1001
0000
,
0001
0000
0001
0000
0100
0000
0020
0000
0100
0000
0000
0031
0000
0000
0011
0000
,
0000
0000
0001
0000
0010
0000
0100
0000
0110
0000
0010
1000
0000
0010
1000
0000
,
0001
0000
0001
0000
0010
0000
0200
0000
0010
0000
0000
0301
0000
0000
0101
0000
,
0000
0000
0001
0000
0100
0000
1000
0000
1100
0000
0000
1001
0000
0000
1010
0000
,
1000
0000
1000
0000
0010
0000
0200
0000
0010
0000
0000
1300
0000
0000
1100
0000
,
0000
0100
0010
0100
0001
0000
0001
0001
,
1002
0000
0010
0000
0100
0000
1000
1003
,
2001
0000
0010
0000
0100
0000
0001
3001
,
1000
0000
0010
0000
0110
0000
0010
1000
0002
0000
0000
1000
0000
0000
1003
0000
,
0001
0000
0010
0000
0110
0000
0010
0001
2000
0000
0000
0001
0000
0000
3001
0000
,
1000
0100
0011
1000
0001
0100
1010
0001
,
1000
0100
0011
1000
0001
0100
1010
0001
,
1000
0001
0010
0001
1000
0001
0100
0001
1000
0001
0010
0001
1000
0001
0100
0010
,
0200
0000
0000
0000
0000
0000
0000
0000
0000
0000
0000
0000
0000
0000
0000
0000
0020
0000
0000
0000
0000
0000
0000
0030
0020
0000
0000
0000
0000
0000
0000
0030
0020
0000
0000
0000
0000
0000
0000
0000
0330
0000
0000
0000
0000
0000
0000
0000
1001
0000
0000
0000
0000
0000
0000
0000
0000
0000
0000
0000
0000
0000
0000
0000
,
2000
3010
0002
1003
0200
0301
1001
1001
,
0002
0000
0013
0000
2000
0000
3001
0000
0200
0000
1300
0000
0001
0010
0100
1000
,
0002
0103
2000
3001
0020
1030
1010
1001
,
1100
0000
0000
0011
0000
0000
1001
0000
0201
0000
0000
0000
0000
0000
1300
0100
,
0002
1000
1000
1000
1000
1000
1000
1000
,
1000
0000
0000
0000
0000
0000
0000
0000
1000
0000
0000
0000
0000
0000
0000
0000
1000
0000
0000
0003
0002
0000
0000
0000
0010
0000
0000
0000
0000
0000
0000
0000
0010
0000
0000
0000
0000
0000
0000
0000
0010
0000
0000
0003
0002
0000
0000
0000
1000
0000
0000
0000
0000
0000
0000
0000
1000
0000
0000
0000
0000
0000
0000
0000
,
1000
0000
0000
0003
0002
0000
0000
0000
0100
0000
0000
0000
0000
0000
0000
0000
1000
0000
0000
0000
0000
0000
0000
0000
0010
0000
0000
0003
0002
0000
0000
0000
1000
0000
0000
0003
0002
0000
0000
0000
0010
0000
0000
0000
0000
0000
0000
0000
1000
0000
0000
0000
0000
0000
0000
0000
0100
0000
0000
0003
0002
0000
0000
0000
,
2003
0000
0000
0000
0000
0000
0000
0000
0000
0000
0000
0000
0000
0000
0000
0000
3002
0000
0000
0000
0000
0000
0000
0000
0000
0000
0000
0000
0000
0000
0000
0000
2000
0000
0000
0000
0000
0000
0000
0000
0000
0000
0000
0000
0000
0000
0000
3003
1001
0000
0000
0000
0000
0000
0000
0000
0000
0000
0000
0000
0000
0000
0000
0000
,
1001
1001
0021
0130
0002
0103
0011
1001
,
1020
0000
0130
0000
2000
0000
3100
0000
0020
0000
1030
0000
0001
0010
0100
1000
,
0002
0013
2000
3010
0002
0103
0101
1001
,
0101
0000
0000
1100
0000
0000
1001
0000
1200
0000
0000
0000
0000
0000
0301
0100
,
1000
0000
0000
0000
0100
0000
0000
0000
2000
0000
0000
0000
0000
0000
0000
0000
0001
0000
0000
0000
0000
0000
0000
0000
0001
0000
0000
0000
0000
0000
0000
0000
0001
0000
0000
0000
0000
0000
0000
0000
0001
0000
0000
3000
2000
0000
0000
0000
0010
0000
0000
0000
0000
0000
0000
3000
1010
0000
0000
0000
0000
0000
0000
0000
,
1000
0010
0100
0001
1000
0001
0010
0100
1000
0001
1000
0010
0100
0001
1000
0001
,
0020
0000
0000
0000
,
0000
0000
0000
0000
,
0031
0010
0100
0000
0001
0100
0010
0000
0011
0000
0010
0001
0000
0010
0001
0000
,
1000
0010
0100
0000
1000
0100
0010
0000
1010
0000
0010
1000
0000
0010
1000
0000
,
0001
0010
0100
0000
0001
0100
0010
0000
0011
0000
0010
0001
0000
0010
0001
0000
,
1000
0010
0100
0000
0001
1000
0001
0000
1002
0000
0013
0100
1000
0100
0010
0000
,
0001
0100
0010
0000
0001
0010
0100
0000
0101
0000
0100
0001
0000
0100
0001
0000
,
1000
0100
0010
0000
1000
0010
0100
0000
1100
0000
0100
1000
0000
0100
1000
0000
,
0001
0100
0010
0000
0001
0010
0100
0000
0101
0000
0100
0001
0000
1000
0100
0000
,
0110
0000
0000
0000
0110
0000
0000
0000
0001
0010
0001
0010
0100
0000
1000
0001
,
1000
0010
0100
0000
1000
0100
0010
0000
1010
0000
1000
0010
0100
0001
1000
0000
,
0001
0010
0100
0000
0001
0100
0010
0000
0011
0000
0001
0010
0100
1000
0001
0000
,
1000
0010
0100
0000
1000
0100
0010
0000
1010
0000
1000
0001
0100
0010
1000
0000
,
0001
0010
0100
0000
1000
0001
1000
0000
2001
0000
3001
0100
0010
0100
0001
0000
,
0010
0100
1000
0000
0010
0100
0001
0000
1000
0000
0002
0010
0000
2003
0010
0000
,
3002
0100
0000
2003
0100
0000
3002
0010
0000
2003
0010
0000
3002
1000
0000
1003
,
0001
0101
1000
1100
0001
0011
1000
1010
,
0001
0100
0010
1000
0100
0010
0001
0100
0010
1000
0100
0010
0001
0100
0010
1000
,
0200
0010
1000
0010
,
0000
0001
0000
0001
0301
0100
1000
0001
,
0200
0010
0001
0010
,
0000
1000
0000
1000
1300
0100
0001
1000
,
0020
1000
0100
0001
,
0000
0100
0000
0100
0130
0001
1000
0100
,
0020
0001
0100
1000
,
0000
0100
0000
0000
0130
0010
0100
0010
,
1001
0000
0000
0000
;

//---------------dance-single - ----------------
#NOTEDATA:;
#CHARTNAME:;
#STEPSTYPE:dance-single;
#DESCRIPTION:;
#CHARTSTYLE:;
#DIFFICULTY:Hard;
#METER:15;
#RADARVALUES:0.708333,0.866667,0.451389,0.756944,0.267361,714.000000,649.000000,65.000000,109.000000,0.000000,0.000000,0.000000,0.000000,0.000000,0.708333,0.866667,0.451389,0.756944,0.267361,714.000000,649.000000,65.000000,109.000000,0.000000,0.000000,0.000000,0.000000,0.000000;
#CREDIT:;
#NOTES:
0000
0000
0000
0000
,
0000
0000
0000
0000
,
0000
0000
0000
0000
,
0000
0000
0000
0000
,
0000
0000
0000
0000
,
0000
0000
0000
0000
,
0000
0000
0000
0000
,
0000
0000
0000
0000
,
1002
0010
2003
0100
,
3002
0000
0010
0000
2003
0000
3100
1000
,
2001
0010
3002
0100
,
2003
0000
0010
0000
3002
0000
0103
0001
,
2002
3003
0022
0033
2002
3003
0022
0033
,
2002
3003
2020
3030
2002
3003
2020
3030
,
0001
0010
0001
0000
1000
0010
1000
0000
0001
0010
0001
0000
1000
0010
1000
0000
,
0002
0000
0000
0000
0000
0000
0000
0000
0020
0000
0000
0000
0000
0000
0000
0033
0011
0000
0000
0000
0000
0000
0000
0000
0000
0000
0000
0000
0000
0000
0000
0000
2000
0000
0000
0000
0000
0000
0000
0000
0020
0000
0000
0000
0000
0000
0000
3030
1010
0000
0000
0000
0000
0000
0000
0000
0000
0000
0000
0000
0000
0000
0000
0000
,
0002
0000
0023
2030
3020
0032
0203
2300
,
3200
0302
0023
2030
3020
0032
0203
2300
,
3100
0001
1000
0001
0010
0100
1000
0001
,
1000
0010
0100
0001
1000
0100
0110
0000
,
0001
0010
0001
0010
1000
0010
1000
0010
,
0001
0100
0001
0100
1000
0100
1000
0100
,
0001
0010
0100
1000
0010
0100
0001
1000
,
0200
0000
0000
0000
0001
0000
0000
0000
0310
0000
0001
0010
0001
0000
1000
0010
,
2000
3020
0032
0023
2030
3200
0302
0203
,
2300
3020
0032
0023
2030
3200
0302
0203
,
0310
0001
1000
0001
0100
0010
1000
0001
,
1000
0100
0010
0001
1000
0010
0110
0000
,
0001
0100
0010
0001
0010
0100
0001
1000
,
0100
0010
1000
0010
0100
1000
0001
0100
,
0010
0001
1000
0100
0001
0010
1000
0001
,
0200
0320
0230
2300
3002
0003
0220
0330
,
1001
0000
1000
0010
1000
0010
0100
0000
,
0100
0010
1000
0000
1010
0000
1010
0000
,
0001
0000
0001
0010
0001
0010
0100
0000
,
0100
0010
0001
0000
0011
0000
0011
0000
,
1001
0000
1000
0100
0011
0000
0001
0100
,
1010
0000
1000
0100
0011
0000
0001
1000
,
0001
0100
0001
0000
1000
0100
1000
0000
0001
0100
0001
0000
1000
0100
1000
0000
,
0002
1000
2000
3003
,
1000
0000
0010
0000
1000
0000
0010
0000
0100
0000
0000
0100
0000
0000
0100
0000
,
0000
0000
0010
0000
1000
0000
0010
0000
0100
0000
0000
0100
0000
0000
0100
0000
,
0001
0000
0010
0000
0001
0000
0010
0000
0100
0000
0000
0100
0000
0000
0100
0000
,
0000
0000
0010
0000
0001
0000
0010
0000
0100
0000
0000
1000
0000
0000
0001
0000
,
0100
0000
0010
0000
0100
0000
0001
0000
1000
0000
0000
1000
0000
0000
1000
0000
,
0000
0000
0100
0000
0010
0000
0100
0000
1000
0000
0000
1000
0000
0000
1000
0000
,
0100
0000
0010
0000
0100
0000
1000
0000
0001
0000
0000
0001
0000
0000
0001
0000
,
0000
0000
0100
0000
0010
0000
0100
0000
0001
0000
0000
1000
0000
0000
0001
0000
,
1000
0000
0100
0000
1000
0000
0200
0000
0010
0000
0000
0001
0000
0000
0301
0000
,
0000
0000
0001
0000
0100
0000
0010
0000
0100
0000
0000
1000
0000
0000
1000
0000
,
0001
0000
0100
0000
0001
0000
0200
0000
0010
0000
0000
1000
0000
0000
1300
0000
,
0000
0000
1000
0000
0100
0000
0010
0000
0100
0000
0000
0001
0000
0000
1000
0000
,
0001
0000
0010
0000
0001
0000
0020
0000
0100
0000
0000
1000
0000
0000
1030
0000
,
0000
0000
1000
0000
0010
0000
0100
0000
0010
0000
0000
0001
0000
0000
0001
0000
,
1000
0000
0010
0000
1000
0000
0020
0000
0100
0000
0000
0001
0000
0000
0031
0000
,
0000
0010
0100
0010
1000
0000
1000
0000
,
1002
0000
0010
0000
1000
0000
0100
0003
,
2001
0000
0010
0000
0001
0000
0100
3000
,
1000
0000
0100
0000
0001
0000
0100
0000
2000
0000
0000
0001
0000
0000
3001
0000
,
0001
0000
0100
0000
1000
0000
0100
0000
0002
0000
0000
1000
0000
0000
1003
0000
,
1000
0100
0001
0100
1000
0010
0001
0010
,
1000
0100
0001
0100
1000
0010
0001
0010
,
1000
0010
1000
0000
0001
0100
0001
0000
1000
0100
1000
0000
0001
0010
0001
0000
,
2000
0000
0001
0001
0002
3003
1001
0000
,
1010
0000
0110
0000
0101
0000
1001
0001
,
0011
0000
0000
0000
0110
0000
0000
0000
1100
0000
0000
0000
0001
1000
0001
1000
,
0001
0000
1010
0000
0101
0000
1001
1001
,
1001
0000
0000
1100
0000
0000
0110
0000
0022
0000
0000
0000
0030
0000
1003
0010
,
1000
0010
1000
0010
0001
0010
0001
0010
,
1000
0000
0100
0000
1000
0100
1000
0000
0001
0000
0100
0001
0100
0000
0001
0000
,
1000
0100
0010
0000
0001
0000
0010
0100
1000
0000
0001
0000
1000
0000
0100
0010
,
0002
0000
0000
0000
0000
0000
0000
0000
2003
0000
0000
0000
0000
0000
0000
0000
0002
0000
0000
0000
0000
0000
0000
3003
1001
0000
0000
0000
0000
0000
0000
0000
,
1010
0010
0001
0000
1010
0000
0011
0010
,
1000
0000
0000
0000
0011
0000
0000
0000
1001
0000
0000
0000
1000
0001
1000
0001
,
1000
0010
0101
0000
1010
0000
1001
1001
,
1001
0000
0000
0011
0000
0000
0110
0000
2200
0000
0000
0000
0300
0000
3001
0100
,
0001
0000
0100
0000
1000
0000
0100
0000
0001
0000
1000
0001
1000
0000
0002
0000
,
0013
1000
0001
0100
1000
0010
0001
1000
,
0200
0000
0000
0000
,
0000
0000
0000
0000
,
0301
0000
0100
0000
1000
0000
0100
0000
0010
0000
0100
0001
0000
0100
0001
0000
,
1000
0000
0100
0000
0001
0000
0100
0000
0010
0000
0100
1000
0000
0100
1000
0000
,
0001
0000
0100
0000
1000
0000
0100
0000
0010
0000
0100
0001
0000
0100
0001
0000
,
1000
0000
0100
0000
0001
0000
0100
0000
0020
0000
0031
0100
0001
0100
0010
0000
,
1000
0000
0010
0000
0001
0000
0010
0000
1000
0000
0001
0010
0000
0100
1000
0000
,
0001
0000
0010
0000
1000
0000
0010
0000
0001
0000
1000
0010
0000
0100
0001
0000
,
1000
0000
0010
0000
0001
0000
0010
0000
1000
0000
0100
0010
0000
0100
0010
0000
,
0110
0000
0000
0000
1001
0000
0000
0000
1000
0010
0100
0001
1000
0000
0001
0000
,
1000
0000
0100
0000
0001
0000
1000
0000
0010
0000
0001
0010
0000
0001
1000
0000
,
0001
0000
0100
0000
1000
0000
0001
0000
0010
0000
1000
0010
0000
1000
0001
0000
,
1000
0000
0100
0000
0001
0000
1000
0000
0010
0000
0001
0010
0000
0001
1000
0000
,
0001
0000
0100
0000
1000
0000
0100
0000
0020
0000
1030
0100
1000
0100
0010
0000
,
0001
0000
1000
0000
0010
0000
0100
0000
0001
0000
0000
0101
0000
0000
1000
0000
,
0000
1100
0000
0000
0001
0000
0000
0011
0000
0000
1000
0000
0000
1010
0000
0000
,
0001
0010
0100
1000
0001
0010
0100
1000
,
0001
0100
0010
0000
0100
0010
1000
0000
0100
0010
0001
0000
1000
0100
0010
0000
,
0200
0320
0032
0203
,
0000
2300
0000
0000
3100
0010
0100
0010
,
0200
0320
2030
3200
,
0000
0302
0000
0000
0103
0010
0100
0010
,
0200
2300
3020
0032
,
0000
2003
0000
0000
3100
0001
1000
0001
,
0200
0302
0023
2030
,
0000
3001
0000
0000
0101
0000
1100
0000
,
1001
0000
0000
0000
;

//---------------dance-single - ----------------
#NOTEDATA:;
#CHARTNAME:;
#STEPSTYPE:dance-single;
#DESCRIPTION:;
#CHARTSTYLE:;
#DIFFICULTY:Medium;
#METER:13;
#RADARVALUES:0.521825,0.613889,0.166667,0.597222,0.111111,526.000000,502.000000,24.000000,86.000000,0.000000,0.000000,0.000000,0.000000,0.000000,0.521825,0.613889,0.166667,0.597222,0.111111,526.000000,502.000000,24.000000,86.000000,0.000000,0.000000,0.000000,0.000000,0.000000;
#CREDIT:;
#NOTES:
0000
0000
0000
0000
,
0000
0000
0000
0000
,
0000
0000
0000
0000
,
0000
0000
0000
0000
,
0000
0000
0000
0000
,
0000
0000
0000
0000
,
0000
0000
0000
0000
,
0000
0000
0000
0000
,
0002
0010
2003
0010
,
3002
0010
2003
0010
,
3002
0100
2003
0100
,
3002
0100
2003
0100
,
3002
0203
0320
2030
,
3200
0320
0032
2003
,
3010
0100
0010
0100
0001
1000
0100
0010
,
0002
2003
3020
0000
2030
3002
0023
0000
,
0030
0021
1000
0001
,
1000
0001
1000
0001
,
1030
0010
0001
0000
0010
0001
0100
0000
,
0001
0100
1000
0000
0100
0001
1001
0000
,
0001
0010
0001
0000
1000
0010
1000
0000
,
0001
0100
0001
0000
1000
0100
1000
0000
,
0001
0010
0100
1000
0010
0100
0001
0000
,
2002
0000
3003
0000
0001
0010
0100
1000
,
0020
1000
0001
1000
,
0001
1000
0001
1000
,
0031
0010
1000
0000
0010
1000
0100
0000
,
1000
0100
0001
0000
0100
1000
1001
0000
,
1000
0010
0100
0000
1000
0100
0001
0000
,
0001
0010
0100
0000
0001
0100
1000
0000
,
0001
0100
0010
0100
0010
1000
0100
0010
,
0200
0000
0000
0300
,
1000
0000
0100
1000
0010
0000
1000
0000
,
0010
1000
0100
0000
1001
0000
1001
0000
,
0001
0000
0100
0001
0010
0000
0001
0000
,
0010
0001
0100
0000
1001
0000
1001
0000
,
0001
0000
0100
0100
0001
0000
1000
1000
,
0100
0000
0010
0010
0001
0000
1000
1000
,
0010
0100
0001
1000
0100
0010
0001
0100
,
0020
0000
0000
0030
,
2010
0000
0000
0000
0001
0000
0000
0000
3100
0000
0000
0100
0000
0000
0100
0000
,
0000
0000
0100
0000
0010
0000
0000
0000
0100
0000
0000
0100
0000
0000
0100
0000
,
2000
0000
0000
0000
0001
0000
0000
0000
3010
0000
0000
0010
0000
0000
0010
0000
,
0000
0000
0010
0000
1000
0000
0000
0000
1000
0000
0000
0100
0000
0000
0010
0000
,
0002
0000
0000
0000
1000
0000
0000
0000
0103
0000
0000
0100
0000
0000
0100
0000
,
0000
0000
0100
0000
0010
0000
0000
0000
0100
0000
0000
0100
0000
0000
0100
0000
,
0002
0000
0000
0000
1000
0000
0000
0000
0013
0000
0000
0010
0000
0000
0010
0000
,
0000
0000
0010
0000
0100
0000
0000
0000
1000
0000
0000
0001
0000
0000
1000
0000
,
2000
0000
0000
0000
3020
0000
0000
0000
0230
0000
0000
1000
0000
0000
1000
0000
,
0000
0000
0310
0000
0200
0000
0000
0000
0302
0000
0000
1000
0000
0000
1003
0000
,
0002
0000
0000
0000
0023
0000
0000
0000
0230
0000
0000
0001
0000
0000
0001
0000
,
0000
0000
0310
0000
0200
0000
0000
0000
2300
0000
0000
0001
0000
0000
3001
0000
,
0002
0000
0000
0000
0203
0000
0000
0000
0320
0000
0000
0001
0000
0000
0001
0000
,
0000
0000
0130
0000
0020
0000
0000
0000
1000
0000
0000
1000
0000
0000
1030
0000
,
2000
0000
0000
0000
3200
0000
0000
0000
0320
0000
0000
1000
0000
0000
1030
0000
,
0000
0010
0100
0010
0001
0000
1000
0000
,
1002
0100
1000
1003
,
2001
0100
0001
3001
,
1000
0000
0010
0000
2000
0000
0000
0000
0010
0000
0000
0010
0000
0000
0001
0000
,
3001
0000
0010
0000
0002
0000
0000
0000
0010
0000
0000
0010
0000
0000
1000
0000
,
1003
0001
0100
0000
0001
1000
0100
0000
,
0010
0001
0100
0000
0010
1000
0100
0000
,
0010
0100
0010
0100
1000
0001
0100
0010
,
0200
0000
0000
0310
,
0210
0001
0001
0010
,
1000
1000
0010
0301
,
1002
0100
0010
0103
,
0201
0000
0000
0010
0000
0000
0010
0000
0301
0000
0000
0000
0000
0000
0000
0000
,
0001
0010
0001
0010
0100
1000
0100
1000
,
0001
0100
0001
0100
0010
1000
0010
1000
,
0001
0010
0001
1000
0010
1000
0001
0010
,
0200
0000
0300
0110
,
1000
0001
2000
0000
0010
0000
0001
0000
,
3001
1000
0002
0000
0010
0000
1000
0000
,
1003
0001
0100
0000
0001
1000
0100
0000
,
1200
0000
0000
0010
0000
0000
0010
0000
1300
0000
0000
0000
0000
0000
0000
0000
,
1000
0010
0100
0001
1000
0010
0100
0001
,
0010
0100
1000
0010
0100
0001
1000
0100
,
0020
0000
0000
0000
,
0000
0000
0000
0000
,
0031
0000
0010
0000
0001
0000
0010
0000
0100
0000
0000
0100
0000
0000
0100
0000
,
0010
0000
0001
0000
0010
0000
0001
0000
1000
0000
0000
1000
0000
0000
1000
0000
,
0001
0000
0100
0000
0001
0000
0100
0000
0010
0000
0000
0010
0000
0000
0010
0000
,
0100
0001
1000
0000
1100
0000
0011
0000
,
1000
0000
0010
0000
1000
0000
0010
0000
0100
0000
0000
0100
0000
0000
0100
0000
,
0010
0000
1000
0000
0010
0000
1000
0000
0001
0000
0000
0001
0000
0000
0001
0000
,
1000
0000
0100
0000
1000
0000
0100
0000
0010
0000
0000
0010
0000
0000
0010
0000
,
0011
0000
1100
0000
1000
0001
1000
0000
,
0001
0000
0100
0000
0001
0000
0100
0000
1000
0000
0000
0100
0000
0000
0001
0000
,
1000
0000
0100
0000
1000
0000
0100
0000
0001
0000
0000
0100
0000
0000
1000
0000
,
0001
0000
0100
0000
0001
0000
0100
0000
1000
0000
0000
0100
0000
0000
0001
0000
,
1000
0100
0010
0000
0110
0000
1001
0000
,
1000
0000
0010
0000
0100
0000
0001
0000
2000
0000
0000
3020
0000
0000
0230
0000
,
0000
0302
0000
0000
2003
0000
0000
3200
0000
0000
0320
0000
0000
0032
0000
0000
,
0103
0010
0100
0010
1000
0001
1000
0001
,
0100
0010
1000
0100
0001
0100
1000
0000
,
2001
3020
0230
0302
,
0000
1000
0000
0000
0013
0000
0001
0010
,
0002
0023
0230
2300
,
0000
0001
0000
0000
3010
0000
1000
0010
,
2000
3002
2003
3200
,
0000
0001
0000
0000
0310
0000
0001
1000
,
0002
2003
3002
0203
,
0000
1000
0000
0000
0310
0100
0010
0000
,
1001
0000
0000
0000
;

//---------------dance-single - ----------------
#NOTEDATA:;
#CHARTNAME:;
#STEPSTYPE:dance-single;
#DESCRIPTION:;
#CHARTSTYLE:;
#DIFFICULTY:Easy;
#METER:9;
#RADARVALUES:0.358135,0.613889,0.208333,0.583333,0.000000,361.000000,331.000000,30.000000,84.000000,0.000000,0.000000,0.000000,0.000000,0.000000,0.358135,0.613889,0.208333,0.583333,0.000000,361.000000,331.000000,30.000000,84.000000,0.000000,0.000000,0.000000,0.000000,0.000000;
#CREDIT:;
#NOTES:
// measure 0
0000
0000
0000
0000
,  // measure 1
0000
0000
0000
0000
,  // measure 2
0000
0000
0000
0000
,  // measure 3
0000
0000
0000
0000
,  // measure 4
0000
0000
0000
0000
,  // measure 5
0000
0000
0000
0000
,  // measure 6
0000
0000
0000
0000
,  // measure 7
0000
0000
0000
0000
,  // measure 8
0002
0000
2003
0000
,  // measure 9
3002
0000
2003
0000
,  // measure 10
3020
0000
0230
0000
,  // measure 11
0320
0000
0230
0000
,  // measure 12
0302
2003
3002
2003
,  // measure 13
3200
0320
0230
0320
,  // measure 14
0032
1000
1000
1000
,  // measure 15
1003
0000
0000
0000
,  // measure 16
0000
1000
0001
1000
,  // measure 17
0001
1000
0001
1000
,  // measure 18
0001
0010
0100
1000
,  // measure 19
0001
0010
0200
0010
,  // measure 20
1300
0010
0100
0001
,  // measure 21
1000
0010
0100
0001
,  // measure 22
1000
0010
0100
0001
,  // measure 23
1000
0000
2002
3003
,  // measure 24
1000
0001
1000
0001
,  // measure 25
1000
0001
1000
0001
,  // measure 26
1000
0010
0100
0001
,  // measure 27
1000
0010
0200
0010
,  // measure 28
0301
0010
0100
1000
,  // measure 29
0001
0100
0010
1000
,  // measure 30
0001
0010
0100
1000
,  // measure 31
0002
0000
0000
0000
,  // measure 32
1003
1000
0010
0000
,  // measure 33
1000
0010
0100
0000
,  // measure 34
0001
0001
0010
0000
,  // measure 35
0001
0010
0100
0000
,  // measure 36
1000
1000
0001
0001
,  // measure 37
1000
1000
0001
0001
,  // measure 38
1000
0010
0100
0001
,  // measure 39
0020
0000
0000
0030
,  // measure 40
0012
1000
0103
0000
,  // measure 41
0000
0100
0010
0000
0100
0000
0000
0000
,  // measure 42
0002
1000
0013
0000
,  // measure 43
0000
0010
0001
0000
0100
0000
0010
0000
,  // measure 44
2000
0001
3100
0000
,  // measure 45
0000
0100
0010
0000
0100
0000
0000
0000
,  // measure 46
2000
0001
3010
0000
,  // measure 47
0000
0010
0100
0000
0001
0000
1000
0000
,  // measure 48
0002
0023
0230
0000
,  // measure 49
0300
0001
0200
0000
0320
0000
0031
0000
,  // measure 50
2000
3020
0230
0000
,  // measure 51
0300
1000
0200
0000
0320
0000
1030
0000
,  // measure 52
0002
0023
2030
0000
,  // measure 53
3000
0010
0200
0000
2300
0000
3001
0000
,  // measure 54
2000
3020
0032
0000
,  // measure 55
0003
0010
0100
0000
0010
0000
1000
0000
,  // measure 56
1002
0000
0103
0000
,  // measure 57
2001
0000
3100
0000
,  // measure 58
1001
1000
0010
0000
,  // measure 59
1001
0001
0010
0000
,  // measure 60
0001
0001
1000
1000
,  // measure 61
0001
0001
1000
1000
,  // measure 62
0100
0010
0001
0100
,  // measure 63
0020
0000
0000
0130
,  // measure 64
0002
0100
0100
0100
,  // measure 65
2003
0100
0100
0100
,  // measure 66
3002
0100
2003
0100
,  // measure 67
3001
1000
0001
0000
,  // measure 68
0011
0011
1100
1100
,  // measure 69
1010
1010
0101
0101
,  // measure 70
2000
3020
0230
0302
,  // measure 71
0023
0000
0000
0130
,  // measure 72
2000
0010
0010
0010
,  // measure 73
3002
0010
0010
0010
,  // measure 74
2003
0010
3002
0010
,  // measure 75
1003
0001
1000
0000
,  // measure 76
0101
1010
1100
0011
,  // measure 77
0002
0203
0320
2030
,  // measure 78
3200
0000
0000
0000
,  // measure 79
0000
0000
0000
0000
,  // measure 80
0310
0100
0010
0000
0001
0000
0001
0000
,  // measure 81
0100
0010
0100
0000
0001
0000
0001
0000
,  // measure 82
0010
0100
0010
0000
0001
0000
0001
0000
,  // measure 83
0100
0010
0100
0000
0101
0000
1010
0000
,  // measure 84
0010
0100
0010
0000
1000
0000
1000
0000
,  // measure 85
0100
0010
0100
0000
1000
0000
1000
0000
,  // measure 86
0010
0100
0010
0000
1000
0000
1000
0000
,  // measure 87
0002
0023
0230
2300
,  // measure 88
3001
0100
0010
0000
1000
0000
1000
0000
,  // measure 89
0010
0100
0001
0000
1000
0000
1000
0000
,  // measure 90
0001
0010
0100
0000
1000
0000
1000
0000
,  // measure 91
0100
0010
0001
0000
1001
0000
1001
0000
,  // measure 92
1000
0010
0100
0000
0002
0000
0023
0000
,  // measure 93
0230
2300
3020
0230
,  // measure 94
0301
0001
1000
1000
,  // measure 95
0001
1000
0001
1000
0001
1000
0001
0000
,  // measure 96
2001
0000
0020
0000
,  // measure 97
3030
1000
1010
0000
,  // measure 98
1002
0000
0020
0000
,  // measure 99
0033
0001
0011
0000
,  // measure 100
1002
0000
0200
0000
,  // measure 101
0303
0001
0101
0000
,  // measure 102
2001
0000
0200
0000
,  // measure 103
3300
0000
0100
0100
,  // measure 104
1001
0000
0000
0000
;

//---------------dance-single - ----------------
#NOTEDATA:;
#CHARTNAME:;
#STEPSTYPE:dance-single;
#DESCRIPTION:;
#CHARTSTYLE:;
#DIFFICULTY:Beginner;
#METER:6;
#RADARVALUES:0.227183,0.325000,0.131944,0.118056,0.000000,229.000000,210.000000,19.000000,17.000000,0.000000,0.000000,0.000000,0.000000,0.000000,0.227183,0.325000,0.131944,0.118056,0.000000,229.000000,210.000000,19.000000,17.000000,0.000000,0.000000,0.000000,0.000000,0.000000;
#CREDIT:;
#NOTES:
0000
0000
0000
0000
,
0000
0000
0000
0000
,
0000
0000
0000
0000
,
0000
0000
0000
0000
,
0000
0000
0000
0000
,
0000
0000
0000
0000
,
0000
0000
0000
0000
,
0000
0000
0000
0000
,
0001
0000
0000
0000
,
1000
0000
0000
0000
,
0001
0000
0000
0000
,
1000
0000
0000
0000
,
0001
0000
1000
0000
,
0001
0000
1000
0000
,
0001
1000
0001
1000
,
0001
0000
0000
0000
,
2001
0000
0001
0000
,
0001
0000
0001
0000
,
3001
0000
0010
0000
,
0001
0000
0010
0001
,
1000
0000
0010
0000
,
1000
0000
0010
0000
,
1000
0000
0010
0000
,
0100
0000
0001
1000
,
1002
0000
1000
0000
,
1000
0000
1000
0000
,
1003
0000
0010
0000
,
1000
0000
0010
1000
,
0001
0000
0010
0000
,
0100
0000
1000
0000
,
0010
0000
0100
0000
,
0002
0000
0000
0000
,
1003
0000
1000
0000
,
0000
1000
1000
0000
,
0001
0000
0001
0000
,
0000
0001
0001
0000
,
1000
0000
0001
0000
,
1000
0000
0001
0000
,
1000
0001
1000
0001
,
1000
0000
0000
0000
,
1002
0000
0013
0000
,
0000
0001
0010
0000
,
2001
0000
3010
0000
,
0000
1000
0010
0000
,
2001
0000
3100
0000
,
0000
1000
0100
0000
,
1002
0000
0103
0000
,
0000
0001
0100
0000
,
0010
0000
0110
0000
,
0010
1000
0001
0000
,
0010
0000
0110
0000
,
0010
0001
1000
0000
,
0001
0000
1001
0000
,
1000
0001
0100
0000
,
0001
0000
1000
0000
,
0100
0010
0001
0000
,
2000
0000
3010
0000
,
0002
0000
0013
0000
,
1000
1000
0010
0000
,
0001
0001
0010
0000
,
1000
0000
0001
0000
,
1000
0000
0001
0000
,
1000
0001
1000
0001
,
1000
0000
0000
0000
,
1000
0000
0100
0000
,
0010
0000
0001
0000
,
0100
0000
0010
0000
,
1000
0000
0001
0000
,
0011
0000
1100
0000
,
1010
0000
0101
0000
,
1000
0100
0010
0001
,
1000
0000
0000
0000
,
0001
0000
0100
0000
,
0010
0000
1000
0000
,
0100
0000
0010
0000
,
0001
0000
1000
0000
,
1001
0000
0110
0000
,
0001
0100
0010
1000
,
0002
0000
0000
0000
,
0003
0000
0000
0000
,
0001
0001
1000
0000
,
1000
1000
0001
0000
,
0001
0001
1000
0000
,
0001
0000
1000
0000
,
0010
0010
0100
0000
,
0100
0100
0010
0000
,
0010
0010
0100
0000
,
0001
0000
1000
0000
,
0100
0100
0010
0000
,
0001
0001
1000
0000
,
0010
0010
0100
0000
,
0001
0000
1000
0000
,
0100
0010
0200
0000
,
2300
0000
3002
0000
,
0103
0100
0100
0100
,
0100
0100
0100
0000
,
1002
0000
0013
0000
,
0000
0000
0010
0000
,
2001
0000
3010
0000
,
0000
0000
0010
0000
,
2001
0000
3100
0000
,
0000
0000
0100
0000
,
1002
0000
0103
0000
,
0000
0000
0100
0010
,
0100
0000
0000
0000
;
