#VERSION:0.83;
#TITLE:Soaring the Space Garden;
#SUBTITLE:;
#ARTIST:GaMetal Ft. String Player Gamer;
#TITLETRANSLIT:;
#SUBTITLETRANSLIT:;
#ARTISTTRANSLIT:;
#GENRE:Gusty Garden Metal;
#ORIGIN:;
#CREDIT:;
#BANNER:Soaring the Space Garden.png;
#BACKGROUND:Soaring the Space Garden-bg.png;
#PREVIEWVID:;
#JACKET:Soaring the Space Garden-jacket.png;
#CDIMAGE:;
#DISCIMAGE:;
#LYRICSPATH:;
#CDTITLE:cdtitle.png;
#MUSIC:Soaring the Space Garden.ogg;
#OFFSET:-0.082000;
#SAMPLESTART:9.372323;
#SAMPLELENGTH:12.387096;
#SELECTABLE:YES;
#BPMS:0.000=155.000;
#STOPS:;
#DELAYS:;
#WARPS:;
#TIMESIGNATURES:0.000=4=4;
#TICKCOUNTS:0.000=4;
#COMBOS:0.000=1;
#SPEEDS:0.000=1.000=0.000=0;
#SCROLLS:0.000=1.000;
#FAKES:;
#LABELS:0.000=Song Start;
#BGCHANGES:;
#KEYSOUNDS:;
#ATTACKS:
;

//---------------dance-single - ----------------
#NOTEDATA:;
#CHARTNAME:;
#STEPSTYPE:dance-single;
#DESCRIPTION:;
#CHARTSTYLE:;
#DIFFICULTY:Challenge;
#METER:15;
#RADARVALUES:0.673121,0.943050,0.241035,0.202158,0.478182,606.000000,575.000000,31.000000,26.000000,0.000000,0.000000,0.000000,0.000000,0.000000,0.673121,0.943050,0.241035,0.202158,0.478182,606.000000,575.000000,31.000000,26.000000,0.000000,0.000000,0.000000,0.000000,0.000000;
#CREDIT:;
#NOTES:
// measure 0
0000
0000
0000
0000
,  // measure 1
0000
0000
0000
0000
,  // measure 2
0000
0000
0000
0000
,  // measure 3
0000
0000
0000
0000
,  // measure 4
0000
0000
0000
0000
,  // measure 5
0000
0000
0000
0000
,  // measure 6
1000
0000
0010
0100
0010
0000
1000
0000
0000
0000
1000
0000
0010
0000
1000
0000
,  // measure 7
0100
0000
0010
0100
0010
0000
0100
0000
0000
0000
0010
0000
0100
0000
1000
0000
,  // measure 8
0001
0000
0100
0010
1000
0000
0001
0000
0000
0000
1000
0000
0100
0010
0100
0010
,  // measure 9
0001
0000
1000
0010
0100
0000
0001
0000
0000
0000
0001
0000
1000
0000
1000
0000
,  // measure 10
0001
0000
0010
0100
0010
0000
0001
0000
0000
0000
0001
0000
0010
0000
0001
0000
,  // measure 11
0100
0000
0010
0100
0010
0000
0100
0000
0000
0000
0010
0000
0100
0000
0001
0000
,  // measure 12
1000
0000
0100
0010
0001
0000
1000
0000
0000
0000
0001
0000
0100
0010
0100
0010
,  // measure 13
1000
0000
0001
0010
0100
0000
1000
0000
0000
0000
0001
0100
0010
1000
0100
0010
,  // measure 14
0002
0000
0000
0000
1000
0000
1000
0000
0000
0000
0103
0000
0100
0000
0010
0100
,  // measure 15
1000
0000
0100
0001
0000
0001
0100
0010
,  // measure 16
2000
0000
0000
0000
0001
0000
0001
0000
0000
0000
3100
0000
0100
0000
0010
0100
,  // measure 17
0001
0000
0100
1000
0000
1000
0100
0010
,  // measure 18
0002
0000
0000
0000
1000
0000
1000
0000
0000
0000
0103
0000
0010
0000
1000
0001
,  // measure 19
1000
0000
0100
0010
0000
0001
1000
0001
,  // measure 20
0200
0000
0000
0000
0010
0000
0010
0000
0000
0000
0301
0000
0010
0000
0100
1000
,  // measure 21
0001
0000
0000
0000
1001
0000
1001
0000
0000
0000
1000
0010
1000
0001
0010
0001
,  // measure 22
0200
0000
0301
0100
0010
0001
0010
0100
,  // measure 23
0001
1000
0001
0000
1000
0000
0001
1000
0001
0000
0010
0000
0100
0000
0001
0000
,  // measure 24
0101
0000
0100
0110
0000
0010
0100
1000
,  // measure 25
0001
0100
0010
0000
0100
0000
0010
0100
0001
0000
1000
0001
1000
0000
1000
0000
,  // measure 26
0200
0000
1300
0100
0010
1000
0010
0100
,  // measure 27
1000
0001
1000
0000
0001
0000
1000
0001
1000
0000
0010
0000
0100
0000
1000
0000
,  // measure 28
1100
0000
0100
0110
0000
0010
0100
0001
,  // measure 29
1001
0000
0000
0001
0010
0000
0100
0000
1000
0010
1000
0010
0100
0001
0010
0100
,  // measure 30
2000
0000
0001
0001
0000
3010
0001
0010
,  // measure 31
1010
0000
0000
1000
0100
0000
1100
0000
0000
0000
0001
1000
0001
0000
0100
0000
,  // measure 32
0102
0000
1000
1000
0000
0013
1000
0010
,  // measure 33
0011
0000
0000
0001
0100
0000
0101
0000
1000
0010
1000
0010
0100
0001
0100
0001
,  // measure 34
2000
0000
0001
0001
0000
3100
0010
0001
,  // measure 35
1001
0000
0001
0100
0010
0000
0110
0000
0000
0000
1010
0000
0000
0000
1200
0000
,  // measure 36
0000
0000
0310
0000
0001
0000
0010
0000
0001
0000
0100
0000
0100
0010
1000
0000
,  // measure 37
0001
0000
0010
0100
0010
0100
0000
1000
0010
1000
0000
0010
0100
0010
0100
0000
,  // measure 38
0002
0000
0000
0000
,  // measure 39
0003
0000
1000
0000
0000
0000
0100
0000
0001
0000
0000
0100
0000
0000
1000
0000
,  // measure 40
0001
1000
0002
0000
0000
0000
0103
0000
0010
0000
0000
0000
0000
0000
0000
0000
,  // measure 41
2000
0000
0000
0000
0000
0000
3100
0000
0010
0000
0000
0000
0001
0000
1000
0001
,  // measure 42
2000
0000
0000
0000
0000
0000
0000
0000
0001
0000
0000
0001
0000
0000
3001
0000
,  // measure 43
0000
0000
0001
0000
0000
0000
0100
0000
1000
0000
0000
0100
0000
0000
0001
0000
,  // measure 44
1000
0001
0010
0000
0000
0000
0220
0000
0000
0000
0000
0000
0000
0000
0000
0000
,  // measure 45
0000
0000
0000
0000
0330
0000
0000
0000
1000
0100
0010
0001
0010
0100
1000
0001
,  // measure 46
1000
0010
0100
0001
1000
0100
0010
0010
,  // measure 47
0110
0000
0000
0000
1000
0000
1001
0000
0000
0000
1000
0000
0010
1000
0010
0100
,  // measure 48
0001
0010
0100
1000
0001
0100
0010
0010
,  // measure 49
0110
0000
0000
0000
0001
0000
1001
0000
1000
0100
0010
0001
1000
0000
1000
0001
,  // measure 50
0100
0001
1000
0100
1000
0001
0100
0001
,  // measure 51
1000
0000
0100
0000
0000
0010
0000
0000
0001
0000
0000
0100
0000
0000
0010
0000
,  // measure 52
1000
0000
0100
0000
0010
0000
0001
0000
0100
0000
0010
1000
0010
0000
1000
0000
,  // measure 53
1100
0000
0000
0110
0000
0000
0011
0000
0000
0001
0010
0100
1000
0000
0000
0000
,  // measure 54
1000
0010
0001
1000
0100
0001
1000
0001
,  // measure 55
0001
0000
0010
0000
1000
0000
0001
0000
0100
0000
1000
0000
0001
0000
1000
0001
,  // measure 56
1000
0000
0010
0000
1000
0000
0100
0000
0000
0000
0010
0000
0001
0000
0010
0001
,  // measure 57
0100
0000
0000
0000
0010
0000
0100
0000
0001
0000
1000
0100
0010
0000
0100
0000
,  // measure 58
0210
0000
0000
0000
0001
0000
0001
0000
0000
0000
0310
0000
0001
0000
0100
0010
,  // measure 59
0200
0000
0000
0000
1000
0000
1000
0000
0000
0000
0310
0100
0001
0000
0010
0100
,  // measure 60
2000
0000
0000
0000
0001
0000
0001
0000
0000
0000
3010
0000
0100
0000
0001
1000
,  // measure 61
0100
0000
1000
0001
0100
0000
0001
0000
1000
0001
0010
0001
1000
0010
0100
0001
,  // measure 62
1000
0000
0100
0010
0100
0000
0001
0000
0100
0000
0010
0000
1000
0000
0010
0000
,  // measure 63
0001
0000
0100
0010
0100
0000
1000
0000
0100
0000
0010
0000
0001
0000
0010
0000
,  // measure 64
1000
0000
0100
0010
0100
0000
0001
0000
0100
0000
0010
0000
0100
0000
1000
0001
,  // measure 65
1000
0000
0001
0100
0010
0000
1000
0100
0010
0001
0010
0100
1000
0010
0100
0001
,  // measure 66
1000
0000
0100
0010
0100
0000
0010
0000
1000
0000
0001
0000
0100
0000
0010
0000
,  // measure 67
0001
0000
0100
0010
0100
0000
0010
0000
0001
0000
1000
0000
0100
0000
0010
0000
,  // measure 68
1000
0000
0100
0010
0001
1000
0001
1000
0010
0100
0010
0100
0001
1000
0010
1000
,  // measure 69
0200
0000
0000
0310
0001
0000
0011
0000
0000
0000
0101
0000
0000
0000
2020
0000
,  // measure 70
0000
0000
0000
0000
,  // measure 71
0000
0000
0000
3030
,  // measure 72
1000
0000
0010
0000
0100
0000
0001
0000
0010
0000
0000
0000
0001
0000
0001
0010
,  // measure 73
0001
0010
0100
1000
0010
0200
0000
0301
,  // measure 74
1000
0100
1000
0100
0010
0000
0001
0100
0001
0100
0001
0100
0010
0000
1000
0001
,  // measure 75
0010
0001
0010
0100
1000
0000
0001
1000
0010
1000
0010
0100
0001
0000
1000
0100
,  // measure 76
0010
0001
0010
0001
1000
0001
1000
0001
0100
0001
0100
0001
1000
0001
0100
0001
,  // measure 77
0020
0000
0130
1100
0000
1010
0000
0202
,  // measure 78
0000
0303
0000
0000
;

//---------------dance-single - ----------------
#NOTEDATA:;
#CHARTNAME:;
#STEPSTYPE:dance-single;
#DESCRIPTION:;
#CHARTSTYLE:;
#DIFFICULTY:Hard;
#METER:11;
#RADARVALUES:0.472073,0.517156,0.163282,0.326564,0.023326,425.000000,404.000000,21.000000,42.000000,0.000000,0.000000,0.000000,0.000000,0.000000,0.472073,0.517156,0.163282,0.326564,0.023326,425.000000,404.000000,21.000000,42.000000,0.000000,0.000000,0.000000,0.000000,0.000000;
#CREDIT:;
#NOTES:
// measure 0
0000
0000
0000
0000
,  // measure 1
0000
0000
0000
0000
,  // measure 2
0000
0000
0000
0000
,  // measure 3
0000
0000
0000
0000
,  // measure 4
0000
0000
0000
0000
,  // measure 5
0000
0000
0000
0000
,  // measure 6
1000
0000
0010
1000
0000
1000
0010
1000
,  // measure 7
0100
0000
1000
0100
0000
0100
0010
0100
,  // measure 8
1000
0000
0001
0200
0000
0000
0010
0000
,  // measure 9
0010
0000
0001
0301
0000
1000
0100
0010
,  // measure 10
0001
0000
0010
0001
0000
0001
0010
0001
,  // measure 11
0100
0000
0001
0100
0000
0100
0010
0100
,  // measure 12
0001
0000
1000
0200
0000
0000
0010
0000
,  // measure 13
0010
0000
1000
1300
0000
1000
0001
0100
,  // measure 14
0020
0000
0100
0130
0000
0100
0010
0100
,  // measure 15
1000
0000
0100
0001
0000
0001
1000
0100
,  // measure 16
0020
0000
0100
0130
0000
0100
0010
0100
,  // measure 17
0001
0000
0100
1000
0000
1000
0010
0100
,  // measure 18
0002
0000
1000
1000
0000
0013
0100
1000
,  // measure 19
0001
0000
0100
0010
0000
0100
0000
0010
,  // measure 20
2000
0000
0001
0001
0000
3100
0010
0001
,  // measure 21
0011
0000
1000
1010
0000
0000
0001
1000
,  // measure 22
0200
0000
1300
0100
0010
1000
0010
0100
,  // measure 23
2000
0000
3001
1000
0001
1000
0010
0100
,  // measure 24
1000
0000
0100
0020
0000
0100
0130
0000
,  // measure 25
0101
0000
1000
0100
0000
0100
1000
0001
,  // measure 26
0200
0000
0301
0100
0010
0001
0010
0100
,  // measure 27
0002
0000
1003
0001
1000
0001
0010
0100
,  // measure 28
0001
0000
0100
0020
0000
0100
0130
0000
,  // measure 29
1100
0000
0001
0100
0010
1000
0100
0010
,  // measure 30
0002
0000
1000
1000
0000
0103
0100
0010
,  // measure 31
0001
0000
0010
1000
0000
0010
0100
0001
,  // measure 32
2000
0000
0001
0001
0000
3100
0100
0010
,  // measure 33
1000
0000
0010
0001
0000
0010
0100
1000
,  // measure 34
0002
0000
1000
1000
0000
0103
0010
0100
,  // measure 35
0110
0000
0000
0101
0000
1001
0000
0022
,  // measure 36
0000
0000
0000
0033
,  // measure 37
1000
0100
0010
0001
0100
0010
1000
0000
,  // measure 38
0002
0000
0000
0000
,  // measure 39
0003
0000
1000
0000
0000
0000
0100
0000
0010
0000
0000
0100
0000
0000
1000
0000
,  // measure 40
0001
2000
0000
0000
3010
0000
0000
0000
,  // measure 41
2000
0000
0000
0000
3100
0000
0010
0001
,  // measure 42
2000
0000
0000
0000
0000
0000
0000
0000
3001
0000
0000
1000
0000
0000
0001
0000
,  // measure 43
0000
0000
0001
0000
0000
0000
0100
0000
0010
0000
0000
0100
0000
0000
0001
0000
,  // measure 44
1000
0100
0000
0220
0000
0000
0000
0000
,  // measure 45
0000
0000
0330
0000
0001
0010
0100
1000
,  // measure 46
0001
0100
0001
0100
0001
0100
0010
1000
,  // measure 47
0100
0000
0010
0001
0000
1000
0010
0000
,  // measure 48
1000
0100
1000
0100
1000
0100
0010
0001
,  // measure 49
0100
0000
0010
1000
0100
0010
0001
0000
,  // measure 50
2002
0000
3003
0000
0001
0100
0010
1000
,  // measure 51
0001
0000
0010
0000
0000
0100
0000
0000
1000
0000
0000
0001
0000
0000
0100
0000
,  // measure 52
0220
0000
0000
0330
,  // measure 53
1010
0000
0000
1001
0000
0000
1100
0000
0000
0000
0001
0000
0010
0000
0100
0000
,  // measure 54
2000
0000
3001
0100
1000
0100
0001
0100
,  // measure 55
0002
0000
1003
0100
0001
0100
1000
0100
,  // measure 56
2000
0000
3010
0100
0001
1000
0100
0010
,  // measure 57
0100
0000
0010
0001
1000
0001
0010
0001
,  // measure 58
0200
0000
1000
1000
0000
0310
1000
1000
,  // measure 59
0200
0000
0001
0001
0000
0310
0001
0001
,  // measure 60
0200
0000
0010
0310
0000
1000
0010
0100
,  // measure 61
0001
0010
0100
1000
0000
0000
1001
0000
,  // measure 62
0001
1000
0010
0001
0010
1000
0001
0001
,  // measure 63
1000
0001
0010
1000
0010
0001
1000
1000
,  // measure 64
0001
0100
0010
0100
1000
0100
0010
0100
,  // measure 65
0001
1000
0200
0000
0320
0000
0032
0000
,  // measure 66
1003
0010
1000
0010
0001
1000
0100
0001
,  // measure 67
1000
0010
0100
0100
0010
1000
0010
1000
,  // measure 68
0001
0010
0001
0010
1000
0001
0100
1000
,  // measure 69
0002
0000
1003
1100
0000
0110
0000
0022
,  // measure 70
0000
0000
0000
0000
,  // measure 71
0000
0000
0000
0033
,  // measure 72
1000
0000
0001
0100
0000
0010
1000
0000
,  // measure 73
0001
0000
1000
0100
0000
0010
0001
0000
,  // measure 74
1000
0010
1000
0001
0001
0010
0001
1000
,  // measure 75
1000
0100
1000
0001
0001
0100
0001
1000
,  // measure 76
1000
0100
0001
0100
1000
0010
0001
0010
,  // measure 77
2000
0000
3001
0101
0000
0110
0000
2020
,  // measure 78
0000
3030
0000
0000
;

//---------------dance-single - ----------------
#NOTEDATA:;
#CHARTNAME:;
#STEPSTYPE:dance-single;
#DESCRIPTION:;
#CHARTSTYLE:;
#DIFFICULTY:Medium;
#METER:8;
#RADARVALUES:0.313235,0.425893,0.178832,0.404317,0.003888,282.000000,259.000000,23.000000,52.000000,0.000000,0.000000,0.000000,0.000000,0.000000,0.313235,0.425893,0.178832,0.404317,0.003888,282.000000,259.000000,23.000000,52.000000,0.000000,0.000000,0.000000,0.000000,0.000000;
#CREDIT:;
#NOTES:
// measure 0
0000
0000
0000
0000
,  // measure 1
0000
0000
0000
0000
,  // measure 2
0000
0000
0000
0000
,  // measure 3
0000
0000
0000
0000
,  // measure 4
0000
0000
0000
0000
,  // measure 5
0000
0000
0000
0000
,  // measure 6
2000
0000
0000
3010
0000
0000
1000
0001
,  // measure 7
2000
0000
0000
3001
0000
0000
1000
0100
,  // measure 8
0010
0000
0000
0200
0000
0000
0300
0000
,  // measure 9
1000
0000
0000
1000
0000
0010
0100
0000
,  // measure 10
0002
0000
0000
0013
0000
0000
0001
1000
,  // measure 11
0002
0000
0000
1003
0000
0001
0000
0100
,  // measure 12
0010
0000
0000
0200
0000
0000
0300
0000
,  // measure 13
0001
0000
0000
0001
0000
0010
0100
0000
,  // measure 14
0220
0000
0000
0330
0000
0001
0010
0100
,  // measure 15
1000
0000
0000
0020
0000
0000
0030
0000
,  // measure 16
0220
0000
0000
0330
0000
1000
0010
0100
,  // measure 17
0001
0000
0000
0020
0000
0000
0030
0000
,  // measure 18
2002
0000
0000
3003
0000
0001
1000
0001
,  // measure 19
0100
0000
0000
0100
0000
0001
0000
1000
,  // measure 20
0100
0000
0000
0200
0000
0000
0300
0000
,  // measure 21
0110
0000
0000
2002
0000
0000
3003
0000
,  // measure 22
0002
0000
0010
0000
0013
0000
0100
0010
,  // measure 23
0002
0000
1000
0000
1003
0000
0001
0100
,  // measure 24
0010
0000
0000
2020
0000
0000
3030
0000
,  // measure 25
0001
0010
0100
1000
,  // measure 26
2000
0000
0010
0000
3010
0000
0100
0010
,  // measure 27
2000
0000
3001
1000
0000
0100
0000
0010
,  // measure 28
0001
0000
0000
0022
0000
0000
0033
0000
,  // measure 29
0001
0100
0010
1000
,  // measure 30
2020
0000
0000
3030
0000
1000
0010
1000
,  // measure 31
0100
0000
0000
2200
0000
0000
3300
0000
,  // measure 32
0022
0000
0000
0033
0000
0001
0010
0001
,  // measure 33
0100
0000
0000
0202
0000
0000
0303
0000
,  // measure 34
2002
0000
0000
3003
0000
1000
0001
1000
,  // measure 35
0100
0000
0000
0100
0000
0010
0000
2002
,  // measure 36
0000
0000
0000
3003
,  // measure 37
1000
0010
0100
0001
,  // measure 38
2000
0000
0000
0000
,  // measure 39
3000
1000
0010
1000
,  // measure 40
0200
0000
0300
0000
,  // measure 41
0100
0000
0010
0000
,  // measure 42
0002
0003
0002
0003
,  // measure 43
0001
0001
0010
0001
,  // measure 44
0100
0000
0200
0000
,  // measure 45
0000
0300
0100
0010
,  // measure 46
1000
0000
0100
0000
1000
0000
0100
0010
,  // measure 47
0001
0000
0000
2000
0000
0000
3001
0000
,  // measure 48
0001
0000
0100
0000
0001
0000
0100
0010
,  // measure 49
1000
0000
0000
0002
0000
0000
1003
0000
,  // measure 50
1000
0100
0010
0001
,  // measure 51
1000
0010
0100
0001
,  // measure 52
0020
0000
0000
0030
,  // measure 53
0010
0000
0000
0010
0000
0000
0010
0000
0000
0000
0000
0000
1001
0000
0000
0000
,  // measure 54
0001
0000
0100
0010
0000
1000
0001
0000
,  // measure 55
1000
0000
0100
0010
0000
0001
1000
0000
,  // measure 56
0010
0000
0100
0001
0000
1000
0100
0000
,  // measure 57
0010
0001
1000
0001
,  // measure 58
0100
0000
0001
0100
0000
0001
0010
0000
,  // measure 59
0001
0000
1000
0100
0000
1000
0010
0000
,  // measure 60
1000
0000
0001
0100
0000
0010
1000
0000
,  // measure 61
0001
0010
0100
2000
0000
0000
3001
0000
,  // measure 62
0101
0000
0001
0100
0010
0000
1000
0000
,  // measure 63
1100
0000
1000
0100
0010
0000
0001
0000
,  // measure 64
0011
0000
0010
0001
0100
0000
0010
0000
,  // measure 65
1010
0010
1000
0100
,  // measure 66
0110
0000
0010
0000
0001
1000
0010
0000
,  // measure 67
0110
0000
0100
0000
0001
1000
0100
0000
,  // measure 68
0110
0000
0100
0000
1000
0010
0100
0002
,  // measure 69
0000
0000
0103
0001
0000
0010
0000
0022
,  // measure 70
0000
0000
0000
0000
,  // measure 71
0000
0000
0000
0033
,  // measure 72
1000
0000
1000
0000
,  // measure 73
0001
0000
0001
0000
,  // measure 74
1000
0010
1000
0000
0001
0010
0001
0000
,  // measure 75
1000
0100
1000
0000
0001
0100
0001
0000
,  // measure 76
1000
0100
0010
0000
0001
0100
0010
0000
,  // measure 77
2000
0000
3100
1000
0000
0010
0000
2020
,  // measure 78
0000
3030
0000
0000
;

//---------------dance-single - ----------------
#NOTEDATA:;
#CHARTNAME:;
#STEPSTYPE:dance-single;
#DESCRIPTION:;
#CHARTSTYLE:;
#DIFFICULTY:Easy;
#METER:6;
#RADARVALUES:0.227706,0.304210,0.069978,0.326564,0.000000,205.000000,196.000000,9.000000,42.000000,0.000000,0.000000,0.000000,0.000000,0.000000,0.227706,0.304210,0.069978,0.326564,0.000000,205.000000,196.000000,9.000000,42.000000,0.000000,0.000000,0.000000,0.000000,0.000000;
#CREDIT:;
#NOTES:
// measure 0
0000
0000
0000
0000
,  // measure 1
0000
0000
0000
0000
,  // measure 2
0000
0000
0000
0000
,  // measure 3
0000
0000
0000
0000
,  // measure 4
0000
0000
0000
0000
,  // measure 5
0000
0000
0000
0000
,  // measure 6
2000
0000
3000
0100
,  // measure 7
0020
0000
0030
0100
,  // measure 8
1000
0000
0000
2000
0000
0000
0000
0000
,  // measure 9
3000
0000
0000
0000
,  // measure 10
0002
0000
0003
0100
,  // measure 11
0020
0030
0010
0100
,  // measure 12
0001
0000
0000
0002
0000
0000
0000
0000
,  // measure 13
0003
0000
0000
0001
,  // measure 14
2002
0000
3003
0001
,  // measure 15
0010
0000
0000
0002
0000
0000
0003
0000
,  // measure 16
2002
0000
3003
1000
,  // measure 17
0010
0000
0000
2000
0000
0000
3000
0000
,  // measure 18
2002
0000
3003
0001
,  // measure 19
0001
0000
0000
0001
0000
0000
1000
0000
,  // measure 20
0100
0000
0000
0200
0000
0000
0300
0000
,  // measure 21
0010
0000
0000
0020
0000
0000
0030
0000
,  // measure 22
0001
0100
0001
0100
,  // measure 23
0010
1000
0010
0100
,  // measure 24
0001
0000
0000
0002
0000
0000
0000
0000
,  // measure 25
1003
1000
0001
0001
,  // measure 26
1000
0100
1000
0100
,  // measure 27
0010
0001
0010
0100
,  // measure 28
1000
0000
0000
2000
0000
0000
0000
0000
,  // measure 29
3001
0001
1000
1000
,  // measure 30
2020
3030
0010
1000
,  // measure 31
0100
0000
0000
0200
0000
0000
0300
0000
,  // measure 32
0022
0033
0010
0001
,  // measure 33
0100
0000
0000
0200
0000
0000
0300
0000
,  // measure 34
0220
0330
1000
0010
,  // measure 35
1000
0000
0000
0001
0000
0010
0000
0002
,  // measure 36
0000
0000
0000
0003
,  // measure 37
1000
0100
0010
0001
,  // measure 38
2000
0000
0000
0000
,  // measure 39
3001
0100
0010
0000
,  // measure 40
0200
0000
0000
0000
,  // measure 41
0300
0000
0000
0001
,  // measure 42
0002
0003
0002
0003
,  // measure 43
1000
0100
0010
0000
,  // measure 44
0100
0000
0000
0200
0000
0000
0000
0000
,  // measure 45
0000
0300
0100
0010
,  // measure 46
0002
0000
1003
0100
,  // measure 47
0010
0000
0000
0001
0000
0000
1000
0000
,  // measure 48
2000
0000
3001
0100
,  // measure 49
0010
0000
0000
1000
0000
0000
0001
0000
,  // measure 50
0001
0010
0100
1000
,  // measure 51
0100
0010
0001
1000
,  // measure 52
2002
0000
0000
3003
,  // measure 53
1001
0000
0000
0110
0000
0000
1000
0000
,  // measure 54
1000
0000
0000
0010
0000
0000
1000
0000
,  // measure 55
0001
0000
0000
0010
0000
0000
0001
0000
,  // measure 56
0100
0000
0000
0200
0000
0000
0300
0000
,  // measure 57
0001
0100
0001
0001
,  // measure 58
0020
0000
0130
1000
,  // measure 59
0020
0000
0130
0001
,  // measure 60
0020
0000
0130
0010
,  // measure 61
0001
1000
0001
0100
,  // measure 62
0010
0010
1000
0001
,  // measure 63
0010
0010
0001
1000
,  // measure 64
0100
0100
1000
0001
,  // measure 65
0100
0010
1000
0001
,  // measure 66
0010
0010
0100
1000
,  // measure 67
0001
0100
0010
1000
,  // measure 68
0001
0001
0010
0100
,  // measure 69
1000
0000
0000
0010
0000
0100
0000
0002
,  // measure 70
0000
0000
0000
0000
,  // measure 71
0000
0000
0000
0003
,  // measure 72
1000
0000
1000
0000
,  // measure 73
0001
0000
0001
0000
,  // measure 74
0010
0010
0100
0100
,  // measure 75
1000
1000
0001
0001
,  // measure 76
1000
0010
0100
0001
,  // measure 77
0010
0000
0000
0100
0000
1000
0000
0020
,  // measure 78
0000
0030
0000
0000
;

//---------------dance-single - ----------------
#NOTEDATA:;
#CHARTNAME:;
#STEPSTYPE:dance-single;
#DESCRIPTION:;
#CHARTSTYLE:;
#DIFFICULTY:Beginner;
#METER:2;
#RADARVALUES:0.107744,0.181943,0.015551,0.186608,0.000000,97.000000,95.000000,2.000000,24.000000,0.000000,0.000000,0.000000,0.000000,0.000000,0.107744,0.181943,0.015551,0.186608,0.000000,97.000000,95.000000,2.000000,24.000000,0.000000,0.000000,0.000000,0.000000,0.000000;
#CREDIT:;
#NOTES:
// measure 0
0000
0000
0000
0000
,  // measure 1
0000
0000
0000
0000
,  // measure 2
0000
0000
0000
0000
,  // measure 3
0000
0000
0000
0000
,  // measure 4
0000
0000
0000
0000
,  // measure 5
0000
0000
0000
0000
,  // measure 6
1000
0000
0000
0000
,  // measure 7
0010
0000
0000
0000
,  // measure 8
1000
0000
1000
0000
,  // measure 9
0000
0000
0000
0000
,  // measure 10
0001
0000
0000
0000
,  // measure 11
0010
0000
0000
0000
,  // measure 12
0001
0000
0001
0000
,  // measure 13
0000
0000
0000
0000
,  // measure 14
2000
0000
3000
0000
,  // measure 15
0010
0000
0000
0000
,  // measure 16
0200
0000
0300
0000
,  // measure 17
0001
0000
0000
0000
,  // measure 18
0020
0000
0030
0000
,  // measure 19
0100
0000
0000
0000
,  // measure 20
2000
0000
3000
0000
,  // measure 21
0002
0000
0003
0000
,  // measure 22
1000
0000
1000
0000
,  // measure 23
0010
0000
0010
0000
,  // measure 24
1000
0000
2000
0000
,  // measure 25
0000
0000
3000
0000
,  // measure 26
0001
0000
0001
0000
,  // measure 27
0010
0000
0010
0000
,  // measure 28
0001
0000
0002
0000
,  // measure 29
0000
0000
0003
0000
,  // measure 30
1000
0000
0010
0000
,  // measure 31
0200
0000
0300
0000
,  // measure 32
0001
0000
0010
0000
,  // measure 33
0200
0000
0300
0000
,  // measure 34
1000
0000
1000
0000
,  // measure 35
0001
0000
0001
0000
,  // measure 36
0200
0000
0000
0000
,  // measure 37
0300
0000
0000
0000
,  // measure 38
0020
0000
0000
0000
,  // measure 39
0030
0000
1000
0000
,  // measure 40
2000
0000
0000
0000
,  // measure 41
3000
0000
0000
0000
,  // measure 42
0200
0000
0000
0000
,  // measure 43
0300
0000
0010
0000
,  // measure 44
0002
0000
0000
0000
,  // measure 45
0003
0000
0000
0000
,  // measure 46
0001
0000
0100
0000
,  // measure 47
0001
0000
0000
0000
,  // measure 48
1000
0000
0100
0000
,  // measure 49
1000
0000
0000
0000
,  // measure 50
0020
0000
0030
0000
,  // measure 51
0100
0000
0010
0000
,  // measure 52
0200
0000
0300
0000
,  // measure 53
2002
0000
3003
0000
,  // measure 54
0002
0000
0003
0000
,  // measure 55
2000
0000
3000
0000
,  // measure 56
0002
0000
0003
0000
,  // measure 57
1000
0000
0010
0000
,  // measure 58
0200
0000
0300
0000
,  // measure 59
0001
0000
0010
0000
,  // measure 60
0200
0000
0300
0000
,  // measure 61
0010
0000
0010
0000
,  // measure 62
0001
0000
1000
0000
,  // measure 63
0001
0000
1000
0000
,  // measure 64
0010
0000
0100
0000
,  // measure 65
0010
0000
0100
0000
,  // measure 66
0001
0000
1000
0000
,  // measure 67
0100
0000
0010
0000
,  // measure 68
0001
0000
1000
0000
,  // measure 69
0100
0000
0010
0000
,  // measure 70
0002
0000
0000
0000
,  // measure 71
0003
0000
0000
0000
,  // measure 72
1000
0000
0000
0000
,  // measure 73
0001
0000
0000
0000
,  // measure 74
0100
0000
0100
0000
,  // measure 75
0010
0000
0010
0000
,  // measure 76
1000
0000
0001
0000
,  // measure 77
0010
0000
0100
0000
,  // measure 78
0110
0000
0000
0000
;
