#VERSION:0.83;
#TITLE:鎬;
#SUBTITLE:;
#ARTIST:RoughSkreamZ feat.らっぷびと;
#TITLETRANSLIT:Shinogi;
#SUBTITLETRANSLIT:;
#ARTISTTRANSLIT:RoughSkreamZ feat.Rapbit;
#GENRE:Hip-Rock;
#ORIGIN:;
#CREDIT:;
#BANNER:Shinogi.png;
#BACKGROUND:Shinogi-bg.png;
#PREVIEWVID:;
#JACKET:Shinogi-jacket.png;
#CDIMAGE:;
#DISCIMAGE:;
#LYRICSPATH:;
#CDTITLE:cdtitle.png;
#MUSIC:Shinogi.ogg;
#OFFSET:-0.722460;
#SAMPLESTART:43.707535;
#SAMPLELENGTH:14.328358;
#SELECTABLE:YES;
#BPMS:0.000=134.000,
192.000=185.000;
#STOPS:;
#DELAYS:;
#WARPS:;
#TIMESIGNATURES:0.000=4=4;
#TICKCOUNTS:0.000=4;
#COMBOS:0.000=1;
#SPEEDS:0.000=1.000=0.000=0;
#SCROLLS:0.000=1.000;
#FAKES:;
#LABELS:0.000=Song Start;
#BGCHANGES:;
#KEYSOUNDS:;
#ATTACKS:
;

//---------------dance-single - ----------------
#NOTEDATA:;
#CHARTNAME:;
#STEPSTYPE:dance-single;
#DESCRIPTION:;
#CHARTSTYLE:;
#DIFFICULTY:Challenge;
#METER:17;
#RADARVALUES:0.871643,0.824035,0.397924,0.389634,1.127452,736.000000,688.000000,48.000000,47.000000,12.000000,0.000000,0.000000,0.000000,0.000000,0.871643,0.824035,0.397924,0.389634,1.127452,736.000000,688.000000,48.000000,47.000000,12.000000,0.000000,0.000000,0.000000,0.000000;
#CREDIT:;
#NOTES:
0000
0000
0000
0000
,
0000
0000
0000
0000
,
0000
0000
0000
0000
,
1000
0100
1000
0100
0010
0000
0001
0100
0001
0100
0010
0000
1000
0100
0010
0001
,
1000
0001
0100
0001
1000
0100
2000
0010
0000
3001
0000
1000
0100
0010
0001
0000
,
1000
0001
0100
0000
0001
0100
0002
0010
0000
1003
0000
1000
0010
0100
0001
1000
,
0100
0000
0010
0001
1000
0010
2000
0100
0000
3001
0000
1000
0010
0100
0010
0100
,
0001
0000
0001
0000
0001
1000
0002
0010
0000
2003
0010
0000
3100
0000
1000
0100
,
0010
0100
0001
0000
0100
0010
0100
2000
0000
0001
0000
3010
0100
0000
0110
0000
,
0100
0010
0100
1000
0000
0100
0000
0002
0000
1000
0000
0013
0100
0000
1000
0002
,
0100
0000
2003
0100
0000
3001
0100
0010
0000
0100
0000
0010
1000
0000
0001
0010
,
0000
0100
1000
0010
0000
0100
0001
0010
0000
0100
0000
1000
0010
0100
0001
1000
,
0001
0000
0011
0000
1000
0000
1100
0000
0001
0000
0101
0000
1000
0010
0000
0000
,
1000
0000
0110
0000
0001
0000
0110
0000
1000
0001
1000
0000
0001
0010
0000
0000
,
0011
0000
0000
0000
0000
0000
0000
0000
1100
0000
0000
0000
0000
0000
0000
0000
0001
0000
0000
0000
0000
0100
0000
0000
0000
0000
0010
0000
0000
0000
0000
1000
0000
0000
0000
0000
0001
0000
0000
0000
0000
0000
0000
0000
2000
0000
0000
0000
0100
0000
0000
0000
0000
0000
0000
0000
3002
0000
0000
0000
0100
0000
0000
0000
,
0000
2003
0010
0000
3002
0100
0000
0023
0100
0000
0031
2000
0000
3010
0100
0010
,
0001
0000
0010
0000
0001
0010
1000
0000
0001
1000
0100
0010
0000
0000
0100
0010
,
1000
0000
1000
0010
0001
0000
0010
0001
1000
0001
0100
0010
0000
0000
1000
0001
,
1000
0200
0000
0001
0000
0310
0001
0000
1000
0001
0200
1000
0000
0310
1000
0000
,
0001
0010
0001
0010
0100
0000
1000
0010
1000
0010
0100
0000
0001
0010
0100
1000
,
0002
0100
0100
0100
,
0100
0000
0000
0000
0103
0000
0000
0000
1010
0000
0000
0011
0000
0000
1100
0000
,
2001
3010
1002
0013
,
0001
0100
0010
1000
0000
0000
1000
0100
0010
0001
0000
0000
1000
0010
0100
0001
,
2000
0000
3000
0100
0010
0000
0100
0010
0001
0000
0011
0000
1000
0010
0100
0001
,
2000
0000
3000
0010
0100
0000
0010
0100
0001
0000
0101
0000
1000
0001
0100
0001
,
0010
0000
0100
0010
0002
0000
0010
0000
2003
0000
0100
0000
3002
0000
0100
0000
,
1003
0010
1000
0000
1010
0000
0001
0010
0001
0000
0011
0000
0001
0010
0100
1000
,
0002
0000
0003
0100
0010
0000
0100
0010
1000
0000
1010
0000
0001
1000
0100
0010
,
0002
0000
0003
0010
0100
0000
0010
0100
1000
0000
1100
0000
0001
1000
0100
1000
,
0010
0000
1010
0000
0001
0020
0000
0100
0000
0100
0000
0031
1000
0000
1000
0020
,
0000
0100
0000
1030
0001
0000
1000
0100
0000
0110
0000
0100
1000
0001
0100
0010
,
2000
0000
3000
0010
0100
0000
0010
0100
0001
0000
0101
0000
1000
0001
0010
0100
,
2000
0000
3000
0100
0010
0000
0100
0010
0001
0000
0011
0000
1000
0001
0010
0001
,
0100
0000
0101
0000
1000
0001
2000
0100
0000
0001
0000
3010
1000
0000
1010
0000
,
0001
0000
0011
0000
0001
1000
0002
0100
0000
1000
0000
0013
0001
1000
0010
0100
,
0002
0000
0003
0010
0100
0000
0010
0100
1000
0000
1100
0000
0001
1000
0010
0100
,
0002
0000
0003
0100
0010
0000
0100
0010
1000
0000
1010
0000
0001
1000
0010
1000
,
0100
0000
0011
0000
1001
0000
0001
0100
0001
0100
0010
0100
1000
0000
0000
0000
,
0101
0000
1001
0000
0001
1000
0100
0010
0100
0000
0010
0100
0001
0100
0010
0100
,
1000
0000
0000
1001
0000
0000
1010
0000
1010
0000
0000
0000
1000
0010
1000
0010
,
0200
0000
0010
0000
0301
0010
0001
0010
0200
0000
1300
0010
0100
0002
0000
0000
,
0013
0000
0000
1100
0000
0000
1001
0000
1001
0000
0000
0000
1000
0001
1000
0001
,
2000
0000
3010
0100
0001
0010
0100
1000
0001
0100
0010
0100
1000
0100
0010
0100
,
0001
0000
0000
1001
0000
0000
0011
0000
0011
0000
0000
0000
0001
0010
0001
0010
,
0200
0000
0010
0000
1300
0010
1000
0010
0200
0000
0301
0010
0100
2000
0000
0000
,
3010
0000
0000
0101
0000
0000
1001
0000
1001
0000
0000
0000
0001
1000
0001
1000
,
0001
0010
0100
0010
0001
0000
1000
0010
0100
0010
1000
0000
0001
0010
0100
1000
,
0020
0000
0000
0000
,
0000
0000
0000
0000
0000
1000
1030
0000
,
0001
1000
0100
1000
0001
1000
0100
1000
0001
0000
0100
00M0
0100
0000
1000
0001
,
1000
0000
0010
0100
0001
0000
0010
0100
1000
0000
0100
00M0
0100
0000
0001
0000
,
1000
0001
0100
0001
1000
0001
0100
0001
1000
0000
0100
00M0
0100
0000
0001
0000
,
1000
0100
0010
0000
0001
0100
0010
1000
0001
0000
0100
00M0
0100
0000
2000
0000
,
3001
0010
1000
0010
0001
0100
1000
0100
,
0001
1000
0001
1000
0001
0000
1000
0000
0100
00M0
0100
0000
0001
0000
0000
0000
,
0001
0000
1000
0100
0000
0010
0100
0000
0001
0100
0000
0010
0100
0000
1000
0000
,
0001
0000
0100
00M0
0100
0000
1000
0001
1000
0000
0001
0000
2002
0000
3003
0000
,
1000
0000
0010
0M00
0010
0000
0001
1000
0100
0000
0010
0M00
0010
0000
1000
0001
,
0100
0000
0010
0M00
0010
0000
0001
1000
0100
0000
0010
0M00
0010
0000
1000
0001
,
1000
0000
0001
0100
0000
0010
0100
0000
1000
0100
0000
0010
0100
0000
0001
1000
,
0001
0010
0000
0100
0000
1000
0000
0001
0100
0000
0100
0000
0010
1000
0001
1000
,
0100
0000
1000
0010
1000
0000
0001
0010
0001
0000
0100
0001
0100
0000
0010
1000
,
0001
0000
0010
0001
1000
0000
0010
1000
0100
0000
0010
0001
0100
0000
0001
1000
,
0001
0000
0010
0M00
0010
0000
1000
0000
0001
0000
0100
00M0
0100
0000
1000
0000
,
0100
1000
0001
1000
0010
0000
0100
0000
0101
0000
0000
0000
1100
0000
0000
0000
,
1001
0000
0000
0000
1000
0001
1000
0001
0010
0000
0000
0000
0001
1000
0001
1000
,
0010
0000
0000
0000
1000
0001
1000
0001
0100
0000
0000
0000
0001
1000
0001
1000
,
0100
0000
0010
0100
1000
0000
0001
0000
0100
0000
0010
0100
0001
0000
1000
0000
,
0100
0000
0100
0000
0100
0000
0100
0000
0010
0001
1000
0010
1000
0001
0010
0001
,
0200
0000
0000
0000
,
0300
0000
0000
0000
;

//---------------dance-single - ----------------
#NOTEDATA:;
#CHARTNAME:;
#STEPSTYPE:dance-single;
#DESCRIPTION:;
#CHARTSTYLE:;
#DIFFICULTY:Hard;
#METER:13;
#RADARVALUES:0.638337,0.676886,0.290153,0.447665,0.393779,539.000000,504.000000,35.000000,54.000000,0.000000,0.000000,0.000000,0.000000,0.000000,0.638337,0.676886,0.290153,0.447665,0.393779,539.000000,504.000000,35.000000,54.000000,0.000000,0.000000,0.000000,0.000000,0.000000;
#CREDIT:;
#NOTES:
0000
0000
0000
0000
,
0000
0000
0000
0000
,
0000
0000
0000
0000
,
0102
0000
0000
1003
0000
0000
2100
0000
0000
3001
0000
0000
1001
0000
0001
0000
,
1000
0000
0010
0000
1000
0000
0020
0100
0000
1030
0000
0000
0001
0000
1000
0000
,
0001
0000
0010
0000
0001
0000
0020
0100
0000
0031
0000
0000
1000
0000
0010
0000
,
0100
0000
0001
0000
1000
0000
0200
0010
0000
1300
0000
0000
0001
0000
0010
0000
,
0100
0000
1000
0000
0001
0000
2000
0010
0000
3002
0010
0000
1003
0000
0000
0000
,
0001
0000
0100
0000
0010
0000
0200
1000
0000
0010
0000
0000
0301
0000
0001
0000
,
1000
0000
0100
0010
0000
0200
0000
0001
0000
0010
0000
0000
1300
0000
0001
0000
,
0100
0000
0010
2000
0000
3001
0000
1000
0000
0100
0000
0010
0001
0000
0000
0011
,
0000
1000
0000
1010
0000
0001
0000
0011
0000
1000
0000
0001
0100
0000
0000
0000
,
0002
0000
0100
0000
2003
0000
0010
0000
3002
0000
0100
0000
1003
0100
0000
0000
,
2000
0000
0100
0000
3002
0000
0010
0000
1003
0100
1000
0000
0001
0100
0000
0000
,
0001
0000
0100
0000
0100
0000
0010
0000
1000
0000
1000
0000
0001
0000
1000
0100
,
0000
0010
0001
0000
1000
0010
0000
0100
0001
0000
0010
0200
0000
0000
1300
0001
,
2000
0000
0010
0000
3002
0000
0010
0000
0103
0000
0010
1000
0000
0000
0001
1000
,
0002
0000
0010
0000
2003
0000
0010
0000
3100
0000
0010
0001
0000
0000
1001
0000
,
0001
0100
0000
1000
0000
0100
0001
0000
1000
0000
0100
0001
0000
0100
1000
0000
,
2001
0000
0000
3010
0000
0000
1002
0000
0000
0013
0000
0000
1001
0000
1000
0000
,
0020
0100
0100
0100
,
0100
0000
0000
0000
0130
0000
0000
0000
1010
0000
0000
1001
0000
0000
1100
0000
,
1200
0310
0012
1003
,
0001
0100
0001
0100
0000
0000
1000
0100
1000
0100
0000
0000
0001
1000
0001
1000
,
0001
0000
0000
0100
0000
0000
0010
0000
1000
0000
2010
0000
3001
0000
0010
0000
,
0100
0000
0000
0010
0000
0000
0001
0000
0010
0000
0012
0000
1003
0000
0010
0000
,
0100
1000
0100
1000
0100
0010
1000
0100
,
0010
0000
1000
0000
0010
0000
0100
0000
1000
0000
0010
0000
0100
0000
0001
0100
,
0001
0000
0000
0010
0000
0000
0100
0000
1000
0000
2100
0000
3001
0000
0100
0000
,
0010
0000
0000
0100
0000
0000
0001
0000
0100
0000
0102
0000
1003
0000
0100
0000
,
0010
1000
0010
0001
0100
1000
0100
0001
,
0010
0000
0100
0000
1000
0000
0010
0000
0100
0000
0001
0000
1000
0001
1000
0001
,
1000
0000
0000
0100
0000
0000
0010
0000
0001
0000
0012
0000
1003
0000
0010
0000
,
0100
0000
0000
0010
0000
0000
1000
0000
0010
0000
2010
0000
3001
0000
0010
0000
,
0100
0001
0100
0001
0100
0010
0001
0100
,
0010
0000
0001
0000
0010
0000
0100
0000
0001
0000
0010
0000
0100
0000
1000
0100
,
1000
0000
0000
0010
0000
0000
0100
0000
0001
0000
0102
0000
1003
0000
0100
0000
,
0010
0000
0000
0100
0000
0000
1000
0000
0100
0000
2100
0000
3001
0000
0100
0000
,
0010
0001
0010
1000
0100
0001
0100
1000
,
0020
0000
0000
0000
0000
0000
0000
0000
0000
0000
0000
0000
0130
0010
0100
0010
,
2000
0000
0000
0010
0000
0000
3100
0000
1100
0000
0000
0000
0001
0010
0000
0001
,
0100
0000
0010
0000
1000
0010
1000
0000
0001
0000
0010
0000
0100
1000
0000
0000
,
2100
0000
0000
0100
0000
0000
3010
0000
1010
0000
0000
0000
1000
0000
0001
0010
,
0001
0000
1000
0000
0010
0100
0000
0100
0001
0000
1000
0000
0100
0010
0100
0010
,
0002
0000
0000
0010
0000
0000
0103
0000
0101
0000
0000
0000
1000
0010
0000
1000
,
0100
0000
0010
0000
0001
0010
0001
0000
1000
0000
0010
0000
0100
0001
0000
0000
,
0102
0000
0000
0100
0000
0000
0013
0000
0011
0000
0000
0000
0010
0000
0100
0000
,
1000
0010
1000
0010
1000
0000
0001
0010
0001
0010
0001
0000
1000
0010
1000
0010
,
0200
0000
0000
0000
,
0000
0000
0000
0000
0000
0001
0301
0000
,
1000
0100
0010
0100
1000
0001
0001
1000
,
0001
0100
0010
0100
0001
1000
1000
0001
,
0010
0100
1000
0010
0100
0001
0001
1000
,
0010
0100
0001
0010
0100
1000
1000
0002
,
1003
0010
0100
1000
0100
0001
1000
0001
,
0010
0100
0001
0100
1000
0001
1000
0000
,
0002
0000
0000
0100
0000
0000
2003
0000
0000
0100
0000
0000
3001
0000
0100
0000
,
1000
0100
0001
1000
0001
0001
1001
0000
,
0001
0010
1000
0001
0100
1000
0001
1000
,
1000
0010
0001
1000
0100
0001
1000
0001
,
0002
0000
0000
0010
0000
0000
2003
0000
0000
0010
0000
0000
3001
0000
0010
0000
,
0100
1000
0010
0100
0001
1000
1001
0000
,
0001
0010
1000
0010
0001
0100
1000
0100
,
0001
0010
1000
0010
0001
0100
1000
0100
,
0001
0010
1000
0001
0100
1000
0010
0001
,
1000
0100
0001
0010
1000
0000
0110
0000
,
1001
0000
2000
3002
0103
0000
0002
2003
,
3100
0000
2000
3002
0013
0000
0002
2003
,
3001
0100
0010
0100
1000
0100
0010
0100
,
0001
0010
1000
0010
0001
0000
0110
0000
,
2002
0000
0000
0000
,
3003
0000
0000
0000
;

//---------------dance-single - ----------------
#NOTEDATA:;
#CHARTNAME:;
#STEPSTYPE:dance-single;
#DESCRIPTION:;
#CHARTSTYLE:;
#DIFFICULTY:Medium;
#METER:10;
#RADARVALUES:0.465429,0.470877,0.248703,0.348184,0.157512,393.000000,363.000000,30.000000,42.000000,0.000000,0.000000,0.000000,0.000000,0.000000,0.465429,0.470877,0.248703,0.348184,0.157512,393.000000,363.000000,30.000000,42.000000,0.000000,0.000000,0.000000,0.000000,0.000000;
#CREDIT:;
#NOTES:
0000
0000
0000
0000
,
0000
0000
0000
0000
,
0000
0000
0000
0000
,
0002
0000
0000
0010
0000
0000
2003
0000
0000
0010
0000
0000
3001
0000
0000
0000
,
1000
0000
0100
0000
0010
0000
0000
0100
0000
0100
0000
0000
1000
0000
0000
0000
,
0001
0000
0100
0000
0010
0000
0000
0100
0000
0100
0000
0000
0001
0000
0000
0000
,
1000
0000
0001
0000
0010
0000
0000
0100
0000
0100
0000
0000
1000
0000
0000
0000
,
0001
0000
1000
0000
0010
0000
0000
0100
0000
0000
0001
0000
1000
0000
0000
0000
,
0001
0000
0010
0000
0100
0000
0000
0110
0000
0000
0010
0000
0001
0000
0000
0000
,
1000
0000
0010
0000
0100
0000
0000
0110
0000
0000
0010
0000
1000
0000
0000
0000
,
0001
0000
0010
0000
0100
0000
0000
1000
0000
0000
0001
0000
1000
0000
0000
1001
,
0000
0000
0000
0110
0000
0000
0000
1001
0000
0000
0100
0000
0100
0000
0000
0000
,
0001
1000
0001
1000
0001
0100
1000
0000
,
0100
0001
1000
0001
1000
0100
0001
0000
,
0100
1000
0010
0000
0100
0001
0010
0000
,
0001
0010
0100
1000
0010
0100
0001
0000
,
1000
0000
0010
0000
0001
0000
0010
0000
1000
0000
0000
1000
0000
0000
0001
0000
,
0001
0000
0010
0000
1000
0000
0010
0000
0001
0000
0000
0001
0000
0000
1000
0000
,
1000
0000
0000
0010
0000
0000
0100
0000
0001
0000
0000
0010
0000
0000
0100
0000
,
2000
0000
0000
0010
0000
0000
3002
0000
0000
0010
0000
0000
1003
0000
0000
0000
,
1002
0100
0100
0100
,
0100
0000
0000
0000
0103
0000
0000
0000
0010
0000
0000
0010
0000
0000
1000
0000
,
2001
3100
1002
0103
,
0102
0000
0000
1003
0000
0000
2100
0000
0000
3001
0000
0000
1001
0000
0000
0000
,
1000
0000
0000
0010
0000
0000
0100
0000
0000
0000
0102
0000
0003
0000
1000
0000
,
1000
0000
0000
0100
0000
0000
0010
0000
0000
0000
0012
0000
0003
0000
1000
0000
,
0020
0000
0001
0000
0130
0001
1000
0100
,
0020
0000
1000
0000
0130
1000
0001
0100
,
0010
0000
0000
0100
0000
0000
0001
0000
0000
0000
1002
0000
0003
0000
0010
0000
,
0010
0000
0000
0100
0000
0000
1000
0000
0000
0000
2001
0000
3000
0000
0010
0000
,
0200
0000
1000
0000
0010
0000
0301
1000
,
0200
0000
0310
0001
1000
0010
0100
0001
,
0001
0000
0000
0010
0000
0000
0100
0000
0000
0000
2100
0000
3000
0000
0001
0000
,
0001
0000
0000
0100
0000
0000
0010
0000
0000
0000
2010
0000
3000
0000
0001
0000
,
0020
0000
1000
0000
0130
1000
0001
0100
,
0020
0000
0001
0000
0130
0001
1000
0100
,
0010
0000
0000
0100
0000
0000
1000
0000
0000
0000
2001
0000
3000
0000
0010
0000
,
0010
0000
0000
0100
0000
0000
0001
0000
0000
0000
1002
0000
0003
0000
0010
0000
,
0200
0000
0001
0000
0010
0000
1300
0001
,
0200
0000
0020
0330
,
1000
0000
0000
0010
0000
0000
1000
0000
0100
0000
0000
0000
0010
0000
0001
0000
,
2000
0000
3010
1000
0010
1000
0002
0000
,
1003
0000
0000
0100
0000
0000
1000
0000
0010
0000
0000
0000
0100
0000
0001
0000
,
2000
0000
3001
0010
0001
1000
0010
1000
,
0001
0000
0000
0010
0000
0000
0001
0000
0100
0000
0000
0000
0010
0000
1000
0000
,
0002
0000
0013
0001
0010
0001
2000
0000
,
3001
0000
0000
0100
0000
0000
0001
0000
0010
0000
0000
0000
0100
0000
1000
0000
,
2010
0000
0000
3001
0000
0000
0012
0000
0000
1003
0000
0000
1001
0000
0001
0000
,
0200
0000
0000
0000
,
0000
0000
0000
0000
0000
0001
0301
0000
,
1000
0000
0100
0000
0010
0001
1000
0000
,
0001
0000
0100
0000
0010
1000
0001
0000
,
0010
0000
0100
0000
1000
0001
0100
0000
,
0010
0000
0100
0000
0001
1000
0100
0020
,
0031
0000
0100
0000
1000
0100
0001
0000
,
1000
0000
0100
0000
0001
0100
1000
0000
,
1010
0001
0011
1000
,
0001
0100
0001
0100
0020
0000
1030
0000
,
0001
0000
0010
0000
1000
0010
0001
0000
,
1000
0000
0010
0000
0001
0010
1000
0000
,
1100
0001
0101
1000
,
0100
0000
0010
0001
1000
0010
0100
0000
,
0001
0010
0001
0000
0001
0010
0001
0000
,
1000
0010
1000
0000
1000
0010
1000
0000
,
0001
0010
0100
0000
1000
0010
0100
0000
,
0001
1000
0001
1000
0001
0000
0110
0000
,
1001
2000
3100
0200
,
0310
0020
0031
0002
,
1003
0010
1000
0000
0001
0010
0001
0000
,
0100
0010
0100
0010
0100
0000
0110
0000
,
2002
0000
0000
0000
,
3003
0000
0000
0000
;

//---------------dance-single - ----------------
#NOTEDATA:;
#CHARTNAME:;
#STEPSTYPE:dance-single;
#DESCRIPTION:;
#CHARTSTYLE:;
#DIFFICULTY:Easy;
#METER:7;
#RADARVALUES:0.354105,0.441447,0.331603,0.447665,0.000000,299.000000,259.000000,40.000000,54.000000,0.000000,0.000000,0.000000,0.000000,0.000000,0.354105,0.441447,0.331603,0.447665,0.000000,299.000000,259.000000,40.000000,54.000000,0.000000,0.000000,0.000000,0.000000,0.000000;
#CREDIT:;
#NOTES:
0000
0000
0000
0000
,
0000
0000
0000
0000
,
0000
0000
0000
0000
,
0002
0000
0000
0003
0000
0000
2000
0000
0000
3000
0000
0000
0001
0000
0000
0000
,
1000
0001
1000
0000
0100
0000
0010
0000
,
0001
1000
0001
0000
0100
0000
0010
0000
,
1000
0010
1000
0000
0100
0000
0010
0000
,
0001
0010
0001
0000
1000
0000
0001
0000
,
1000
0010
0100
0000
0010
0000
1010
0000
,
0001
0010
0100
0000
0010
0000
0011
0000
,
2000
0000
3002
0000
1003
0001
0100
0000
,
1010
1100
0011
0101
,
1000
0000
1000
0000
1000
0100
0010
0000
,
0001
0000
0001
0000
0001
0100
0010
0000
,
2000
0010
3002
0010
,
1003
1010
0001
0011
,
0010
0001
0100
0000
0010
0000
1001
0000
,
0010
1000
0100
0000
0010
0000
1001
0000
,
0002
0100
2003
0100
,
3002
0000
0000
0003
0000
0000
2000
0000
0000
3000
0000
0000
0001
0000
0000
0000
,
0202
0000
0000
0000
,
0000
0303
0001
0010
,
2200
0300
0020
3030
,
2002
0000
0000
3003
0000
0000
0220
0000
0000
0330
0000
0000
1001
0000
0000
0000
,
0002
0010
1000
0103
,
0002
0010
1000
0103
,
0220
0000
0330
0000
0100
0010
1000
0000
,
2002
0000
3003
0000
1000
0100
0010
0000
,
0002
0100
1000
0013
,
0002
0100
1000
0013
,
0220
0000
0330
0000
0010
0001
0100
0000
,
0220
0000
0330
0000
0010
0100
0001
0000
,
2000
0010
0001
3100
,
2000
0010
0001
3100
,
0220
0000
0330
0000
0100
0010
0001
0000
,
2002
0000
3003
0000
0001
0100
0010
0000
,
2000
0100
0001
3010
,
2000
0100
0001
3010
,
0220
0000
0330
0000
0010
1000
0100
0000
,
0220
0000
0000
0330
,
0001
0010
0011
0000
,
1000
0100
1000
0000
0001
0100
0001
0000
,
1000
0010
1010
0000
,
0001
0000
0010
0000
0100
1000
0010
0000
,
0100
0001
1001
0000
,
0001
0010
0001
0000
1000
0010
1000
0000
,
0100
1000
1001
0000
,
2020
0000
0000
3030
0000
0000
0202
0000
0000
0303
0000
0000
1100
0000
0000
0000
,
0012
0000
0000
0000
,
0000
0000
0000
1003
,
0001
0100
0001
0001
,
1000
0100
1000
1000
,
0001
0010
0001
0001
,
1000
0000
0010
0000
1000
0000
1000
0001
,
1000
0100
0010
0001
,
0010
0100
1000
0001
,
0200
0010
0302
1000
,
0013
0100
1100
0000
,
0001
0010
0100
0110
,
1000
0010
0100
0110
,
0020
0100
2030
0001
,
3100
0010
0001
0001
,
1000
0010
0001
0010
,
1000
0100
0001
0100
,
1000
1000
0001
0001
,
0100
0010
0100
0000
0010
0000
0010
0000
,
1001
0000
0011
0000
,
1001
0000
1010
0000
,
0001
0010
0100
1000
,
0001
1000
0001
0000
0100
0000
1010
0000
,
2002
0000
0000
0000
,
3003
0000
0000
0000
;

//---------------dance-single - ----------------
#NOTEDATA:;
#CHARTNAME:;
#STEPSTYPE:dance-single;
#DESCRIPTION:;
#CHARTSTYLE:;
#DIFFICULTY:Beginner;
#METER:4;
#RADARVALUES:0.197778,0.264868,0.116061,0.174092,0.000000,167.000000,153.000000,14.000000,21.000000,0.000000,0.000000,0.000000,0.000000,0.000000,0.197778,0.264868,0.116061,0.174092,0.000000,167.000000,153.000000,14.000000,21.000000,0.000000,0.000000,0.000000,0.000000,0.000000;
#CREDIT:;
#OFFSET:-0.722460;
#BPMS:0.000000=134.000000
,192.000000=185.000000
;
#STOPS:;
#DELAYS:;
#WARPS:;
#TIMESIGNATURES:0.000000=4=4
;
#TICKCOUNTS:0.000000=4
;
#COMBOS:0.000000=1
;
#SPEEDS:0.000000=1.000000=0.000000=0
;
#SCROLLS:0.000000=1.380597
,192.000000=1.000000
;
#FAKES:;
#LABELS:0.000000=Song Start
;
#NOTES:
// measure 0
0000
0000
0000
0000
,  // measure 1
0000
0000
0000
0000
,  // measure 2
0000
0000
0000
0000
,  // measure 3
2002
0000
0000
3003
,  // measure 4
1000
1000
1000
0000
,  // measure 5
0100
0100
0100
0000
,  // measure 6
0010
0010
0010
0000
,  // measure 7
0001
0000
1000
0000
,  // measure 8
0001
0001
0001
0000
,  // measure 9
0100
0100
0100
0000
,  // measure 10
0010
0000
1000
0000
,  // measure 11
2002
0000
0000
3003
,  // measure 12
0001
1000
0001
0000
,  // measure 13
1000
0001
1000
0000
,  // measure 14
0100
0100
0100
0000
,  // measure 15
0010
0000
0001
0000
,  // measure 16
1000
0010
1000
0000
,  // measure 17
0001
0010
0001
0000
,  // measure 18
0100
0000
0010
0000
,  // measure 19
2002
0000
0000
3003
,  // measure 20
2000
0000
0000
0000
,  // measure 21
3000
0000
0001
0001
,  // measure 22
0002
0000
0003
0000
,  // measure 23
2002
0000
0000
3003
,  // measure 24
0001
0001
0010
0000
,  // measure 25
0001
0001
0010
0000
,  // measure 26
0200
0000
0300
1000
,  // measure 27
2000
0000
0000
3000
,  // measure 28
0001
0001
0100
0000
,  // measure 29
0001
0001
0100
0000
,  // measure 30
0020
0000
0030
1000
,  // measure 31
0002
0003
1001
0000
,  // measure 32
1000
1000
0100
0000
,  // measure 33
1000
1000
0100
0000
,  // measure 34
0020
0000
0030
0001
,  // measure 35
0002
0000
0000
0003
,  // measure 36
1000
1000
0010
0000
,  // measure 37
1000
1000
0010
0000
,  // measure 38
0200
0000
0300
0001
,  // measure 39
2000
3000
1001
0000
,  // measure 40
0001
0010
0001
0000
,  // measure 41
0010
0000
0100
0000
,  // measure 42
1000
0010
1000
0000
,  // measure 43
0010
0000
0100
0000
,  // measure 44
0001
1000
0001
0000
,  // measure 45
0010
0000
0100
0000
,  // measure 46
1000
0001
1000
0000
,  // measure 47
0010
0000
0100
0000
,  // measure 48
0002
0000
0000
0000
,  // measure 49
0000
0000
0000
0003
,  // measure 50
1000
0000
0100
0000
,  // measure 51
0010
0000
0001
0000
,  // measure 52
0010
0000
0100
0000
,  // measure 53
1000
0000
0001
1000
,  // measure 54
0001
0000
0100
0000
,  // measure 55
0010
0000
1000
0000
,  // measure 56
0010
0000
0100
0000
,  // measure 57
0001
0000
0001
0001
,  // measure 58
0010
0000
1001
0000
,  // measure 59
0010
0000
1001
0000
,  // measure 60
0100
0000
1001
0000
,  // measure 61
0100
0000
1001
0000
,  // measure 62
1000
1000
1000
0000
,  // measure 63
0001
0001
0001
0000
,  // measure 64
1000
1000
1000
0000
,  // measure 65
0010
0010
0100
0000
,  // measure 66
1001
0000
0100
0000
,  // measure 67
0100
0000
0100
0000
,  // measure 68
1001
0000
0110
0000
,  // measure 69
0001
1000
0001
0000
,  // measure 70
2002
0000
0000
0000
,  // measure 71
3003
0000
0000
0000
;
