#VERSION:0.83;
#TITLE:Shanti Shanti Shanti;
#SUBTITLE:;
#ARTIST:BABYMETAL;
#TITLETRANSLIT:;
#SUBTITLETRANSLIT:;
#ARTISTTRANSLIT:;
#GENRE:Kawaii Metal;
#ORIGIN:;
#CREDIT:;
#BANNER:Shanti Shanti Shanti.png;
#BACKGROUND:Shanti Shanti Shanti-bg.png;
#PREVIEWVID:;
#JACKET:Shanti Shanti Shanti-jacket.png;
#CDIMAGE:;
#DISCIMAGE:;
#LYRICSPATH:;
#CDTITLE:cdtitle.png;
#MUSIC:Shanti Shanti Shanti.ogg;
#OFFSET:-0.631130;
#SAMPLESTART:29.722038;
#SAMPLELENGTH:14.545452;
#SELECTABLE:YES;
#BPMS:0.000=132.000;
#STOPS:;
#DELAYS:;
#WARPS:;
#TIMESIGNATURES:0.000=4=4;
#TICKCOUNTS:0.000=4;
#COMBOS:0.000=1;
#SPEEDS:0.000=1.000=0.000=0;
#SCROLLS:0.000=1.000;
#FAKES:;
#LABELS:0.000=Song Start;
#BGCHANGES:-1.375=Shanti Shanti Shanti.mp4=1.000=1=0=1===CrossFade==,
99999=-nosongbg-=1.000=0=0=0 // don't automatically add -songbackground-
;
#KEYSOUNDS:;
#ATTACKS:
;

//---------------dance-single - ----------------
#NOTEDATA:;
#CHARTNAME:;
#STEPSTYPE:dance-single;
#DESCRIPTION:;
#CHARTSTYLE:;
#DIFFICULTY:Challenge;
#METER:15;
#RADARVALUES:0.710926,0.803495,0.164060,0.574210,0.811185,546.000000,528.000000,18.000000,63.000000,19.000000,0.000000,0.000000,0.000000,0.000000,0.710926,0.803495,0.164060,0.574210,0.811185,546.000000,528.000000,18.000000,63.000000,19.000000,0.000000,0.000000,0.000000,0.000000;
#CREDIT:;
#OFFSET:-0.631130;
#BPMS:0.000000=132.000000
;
#STOPS:;
#DELAYS:;
#WARPS:;
#TIMESIGNATURES:0.000000=4=4
;
#TICKCOUNTS:0.000000=4
;
#COMBOS:0.000000=1
;
#SPEEDS:0.000000=1.000000=0.000000=0
;
#SCROLLS:0.000000=1.000000
,60.000000=0.000000
,61.500000=1.000000
,156.000000=0.500000
,158.000000=1.000000
,194.000000=0.000000
,195.000000=1.000000
;
#FAKES:;
#LABELS:0.000000=Song Start
;
#NOTES:
// measure 0
0000
0000
0000
0000
,  // measure 1
0000
0000
0000
0000
,  // measure 2
0000
0000
0000
0000
,  // measure 3
0000
0000
0000
0000
,  // measure 4
2000
0000
0000
0100
0000
0000
0100
0000
3100
0000
0000
0000
0010
0000
0100
0010
,  // measure 5
0002
0000
0000
0100
0000
0000
0100
0000
0103
0000
0000
0000
0010
0000
0100
0010
,  // measure 6
2000
0000
0000
3002
0000
0000
2003
0000
3200
0000
0000
0000
0310
0000
2000
0000
,  // measure 7
3020
0000
0000
0032
0000
0000
0203
0000
2300
0000
0000
3200
0000
0000
0301
0000
,  // measure 8
0001
0000
1000
0000
0100
0010
0000
0200
0000
0000
0010
0000
0310
0000
0100
0010
,  // measure 9
0001
0000
1000
0100
00M0
0100
0001
0100
0020
0000
0100
0000
2030
0000
0000
0000
,  // measure 10
3001
0000
1000
0000
0100
0010
0000
0200
0000
0000
0010
0000
0310
0000
0100
1000
,  // measure 11
0010
0000
1000
0100
00M0
0100
0001
0000
2000
0000
0001
0000
3200
0000
0000
0000
,  // measure 12
0310
0000
0001
0000
0100
0010
0000
0200
0000
0000
0010
0000
0310
0000
0100
0010
,  // measure 13
1000
0000
0001
0100
00M0
0100
1000
0100
0020
0000
0100
0000
0032
0000
0000
0000
,  // measure 14
1003
0000
0001
0000
0100
0010
0000
0200
0000
0000
0010
0000
0310
0000
0100
0010
,  // measure 15
0100
0000
0000
0000
0000
0000
0000
0000
1001
0000
1000
0010
1000
0100
0010
0000
,  // measure 16
0001
0000
0010
0001
0010
0000
0010
0001
1000
0000
1000
0001
0100
0000
0101
0000
,  // measure 17
1000
0000
0010
1000
0010
0000
0010
1000
0001
0000
0001
1000
0100
0000
1100
0000
,  // measure 18
0001
0000
0010
0100
1000
0000
0010
0100
0001
0000
1000
0001
1000
0000
1001
0000
,  // measure 19
0001
0000
0100
0001
0010
0M00
0010
1000
0100
00M0
0100
0001
0010
0M00
0010
1000
,  // measure 20
0100
0000
0010
0001
1000
0000
1000
0001
0100
0000
0100
0001
0010
0000
0011
0000
,  // measure 21
1000
0000
0010
1000
0001
0000
0001
1000
0100
0000
0100
1000
0010
0000
1010
0000
,  // measure 22
0001
0000
1000
0100
0010
0000
0001
0100
0010
0000
1000
0001
1000
0000
0200
0000
,  // measure 23
0010
0000
0000
0010
0000
0000
0301
0000
0100
0000
1000
0000
1001
0000
1000
0001
,  // measure 24
0200
0000
0000
0310
0100
0000
1000
0000
0100
0010
1000
0001
0010
0000
0100
0010
,  // measure 25
2000
0000
0000
3010
0100
0000
0010
0000
0011
0000
0000
0000
1001
0000
0001
0100
,  // measure 26
2000
0000
0000
3001
0010
0000
0100
0000
0010
1000
0001
1000
0100
0000
0010
0001
,  // measure 27
2000
0000
0100
0000
3002
0000
0100
0000
1003
0010
1000
0010
0100
0000
0001
0010
,  // measure 28
0200
0000
0000
0310
0100
0000
0001
0000
0100
0010
0001
1000
0010
0000
0100
0010
,  // measure 29
0002
0000
0000
0013
0100
0000
0010
0000
1010
0000
0000
0000
1001
0000
1000
0100
,  // measure 30
0002
0000
0000
1003
0010
0000
0100
0000
0010
0001
1000
0001
0100
0000
0010
0100
,  // measure 31
0001
1000
0000
1000
0000
1000
0001
0000
1001
0000
0001
0010
0001
0100
0010
0000
,  // measure 32
1000
0010
0M00
0010
0001
0000
0001
0100
00M0
0100
1000
0000
0001
0100
0010
1000
,  // measure 33
0001
0000
0001
0010
0M00
0010
1000
0010
2000
0000
0001
0000
3200
0000
0000
0000
,  // measure 34
1300
0100
00M0
0100
0001
0000
0001
0010
0M00
0010
1000
0000
0001
0100
0010
0100
,  // measure 35
1000
0000
0100
0010
0000
0010
0100
0000
0002
0000
1000
0000
0023
0000
0000
0000
,  // measure 36
0031
0010
0M00
0010
1000
0000
1000
0100
00M0
0100
0001
0000
1000
0100
0010
0001
,  // measure 37
1000
0000
1000
0010
0M00
0010
0001
0010
0002
0000
1000
0000
0203
0000
0000
0000
,  // measure 38
0301
0100
00M0
0100
1000
0000
1000
0010
0M00
0010
0001
0000
1000
0100
1000
0100
,  // measure 39
0002
0000
0000
0000
0003
0000
0000
0000
0101
0000
0100
0010
0100
1000
0001
0000
,  // measure 40
1000
0000
0001
0100
0010
0000
0010
0100
1000
0000
1000
0100
0010
0000
1010
0000
,  // measure 41
0001
0000
1000
0100
0010
0000
0010
0100
0001
0000
0001
0100
0010
0000
0011
0000
,  // measure 42
1000
0000
0001
0100
0010
0000
1000
0100
0010
0000
0001
1000
0001
0000
1001
0000
,  // measure 43
1000
0000
0100
1000
0010
0M00
0010
0001
0100
00M0
0100
1000
0010
0M00
0010
0001
,  // measure 44
0100
0000
0010
0001
0010
0000
0010
0100
0001
0000
0001
1000
0100
0000
0110
0000
,  // measure 45
0100
0000
0010
1000
0010
0000
0010
0100
1000
0000
1000
0001
0100
0000
0110
0000
,  // measure 46
0100
0000
0001
1000
0100
0000
0010
0001
1000
0000
0001
0100
0010
0000
0100
0010
,  // measure 47
1000
0001
1000
0001
1000
0001
0010
0001
1000
0001
1000
0001
0100
0010
0100
0001
,  // measure 48
1000
0001
1000
0001
1000
0001
0010
0001
1000
0000
0000
0000
0000
0000
0001
1000
,  // measure 49
0020
0000
0000
0130
0010
0000
0001
0000
0010
0100
0001
1000
0100
0000
0010
0100
,  // measure 50
0002
0000
0000
1003
0010
0000
0200
0000
2300
0000
3002
0000
0203
0000
0320
0000
,  // measure 51
0032
0000
0000
1003
0100
0000
0010
0000
0100
0001
1000
0001
0010
0000
0100
0010
,  // measure 52
0002
0000
0100
0000
2003
0000
0100
0000
3001
0100
0001
0100
0010
0000
1000
0100
,  // measure 53
0020
0000
0000
0130
0010
0000
1000
0000
0010
0100
1000
0001
0100
0000
0010
0100
,  // measure 54
2000
0000
0000
3001
0010
0000
0200
0000
0302
0000
2003
0000
3200
0000
0320
0000
,  // measure 55
2030
0000
0000
3001
0100
0000
0010
0000
0100
1000
0001
1000
0010
0000
0100
0010
,  // measure 56
0002
0023
0230
0302
2003
3200
0302
0003
;

//---------------dance-single - ----------------
#NOTEDATA:;
#CHARTNAME:;
#STEPSTYPE:dance-single;
#DESCRIPTION:;
#CHARTSTYLE:;
#DIFFICULTY:Hard;
#METER:12;
#RADARVALUES:0.513013,0.570222,0.091144,0.792956,0.391921,394.000000,384.000000,10.000000,87.000000,0.000000,0.000000,0.000000,0.000000,0.000000,0.513013,0.570222,0.091144,0.792956,0.391921,394.000000,384.000000,10.000000,87.000000,0.000000,0.000000,0.000000,0.000000,0.000000;
#CREDIT:;
#OFFSET:-0.631130;
#BPMS:0.000000=132.000000
;
#STOPS:;
#DELAYS:;
#WARPS:;
#TIMESIGNATURES:0.000000=4=4
;
#TICKCOUNTS:0.000000=4
;
#COMBOS:0.000000=1
;
#SPEEDS:0.000000=1.000000=0.000000=0
;
#SCROLLS:0.000000=1.000000
,60.000000=0.000000
,61.500000=1.000000
,156.000000=0.500000
,158.000000=1.000000
,194.000000=0.000000
,195.000000=1.000000
;
#FAKES:;
#LABELS:0.000000=Song Start
;
#NOTES:
// measure 0
0000
0000
0000
0000
,  // measure 1
0000
0000
0000
0000
,  // measure 2
0000
0000
0000
0000
,  // measure 3
0000
0000
0000
0000
,  // measure 4
2000
0000
0000
0000
0000
0000
0000
0000
0100
0000
0000
0000
0000
0000
3001
0010
,  // measure 5
0002
0000
0000
0000
0000
0000
0000
0000
0100
0000
0000
0000
0000
0000
1003
0010
,  // measure 6
2000
0000
0000
3002
0000
0000
0023
0000
0230
0000
0000
0000
0300
0000
0020
0000
,  // measure 7
0032
0000
0000
0203
0000
0000
0320
0000
2030
0000
0000
3002
0000
0000
0000
0000
,  // measure 8
0003
0000
1000
0000
0100
1000
0000
0200
0000
0000
0000
0000
0300
0000
0010
0100
,  // measure 9
0020
0000
0000
0001
0000
0000
0130
0000
1000
0000
0001
0000
0002
0000
0000
0000
,  // measure 10
0003
0000
1000
0000
0010
1000
0000
0020
0000
0000
0000
0000
0030
0000
1000
0001
,  // measure 11
2000
0000
0000
0100
0000
0000
3001
0000
0010
0000
0001
0000
2000
0000
0000
0000
,  // measure 12
3000
0000
0001
0000
0100
0001
0000
0200
0000
0000
0000
0000
0300
0000
0010
0100
,  // measure 13
0020
0000
0000
1000
0000
0000
0130
0000
0001
0000
1000
0000
2000
0000
0000
0000
,  // measure 14
3000
0000
0001
0000
0010
0001
0000
0020
0000
0000
0000
0000
0030
0000
0000
0000
,  // measure 15
0110
0000
0000
0000
0000
0000
0000
0000
1001
0000
1000
0001
1000
0000
2001
0000
,  // measure 16
3010
0000
1000
0000
0001
0000
1000
0000
0100
0000
1000
0100
1000
0000
0100
0000
,  // measure 17
0010
0000
0001
0000
1000
0000
0001
0000
0100
0000
0001
0100
0001
0000
0100
0000
,  // measure 18
0010
0000
1000
0000
0001
0000
1000
0000
0100
0000
0010
0001
1000
0000
0001
0000
,  // measure 19
0100
0000
0010
0100
0010
0000
1000
0010
1000
0000
0001
0010
0001
0000
0010
0100
,  // measure 20
0010
0000
0100
0000
1000
0000
0001
0000
0100
0000
0010
1000
0010
0000
1000
0000
,  // measure 21
0010
0000
0100
0000
0001
0000
1000
0000
0100
0000
0010
0001
0010
0000
0001
0000
,  // measure 22
1000
0000
0010
0000
0100
0000
0001
0000
1000
0000
0001
1000
0100
0000
0010
0000
,  // measure 23
0200
0000
0000
0000
0000
0000
0301
0000
0100
0000
1000
0000
0001
0000
1000
0001
,  // measure 24
2000
0000
0000
3020
0000
0000
0032
0000
0023
0000
0000
0000
1030
0000
0001
1000
,  // measure 25
0002
0000
0000
2003
0000
0000
3200
0000
0302
0000
0103
0000
0101
0000
0000
0000
,  // measure 26
0200
0320
0032
1003
,  // measure 27
0002
0000
0100
0000
2003
0000
0010
0000
3002
0000
0100
0000
1003
0000
0001
1000
,  // measure 28
0002
0000
0000
0023
0000
0000
2030
0000
3020
0000
0000
0000
0031
0000
1000
0001
,  // measure 29
2000
0000
0000
3002
0000
0000
0203
0000
2300
0000
3100
0000
1100
0000
0000
0000
,  // measure 30
0200
0000
0320
0000
2030
0000
3001
1000
,  // measure 31
0200
0000
0000
0000
0300
0000
0000
0000
1001
0000
0001
1000
0001
0000
1001
0000
,  // measure 32
1000
0010
0000
1000
0010
0000
1000
0010
0000
1000
0010
0000
0000
0000
0100
0010
,  // measure 33
2000
0000
0000
0010
0000
0000
3100
0010
0100
0000
0010
0000
0002
0000
0000
0000
,  // measure 34
1003
0100
0000
1000
0100
0000
1000
0100
0000
1000
0100
0000
0000
0000
0010
0001
,  // measure 35
2000
0000
0000
0001
0000
0000
3010
0000
0100
0000
0010
0000
2000
0000
0000
0000
,  // measure 36
3001
0010
0000
0001
0010
0000
0001
0010
0000
0001
0010
0000
0000
0000
0100
0010
,  // measure 37
0002
0000
0000
0010
0000
0000
0103
0010
0100
0000
0010
0000
2000
0000
0000
0000
,  // measure 38
3001
0100
0000
0001
0100
0000
0001
0100
0000
0001
0100
0000
0000
0000
0000
0000
,  // measure 39
2002
0000
0000
0000
3003
0000
0000
0000
1001
0000
0001
1000
0001
0000
1002
0000
,  // measure 40
0013
0000
0100
0000
0001
0000
0100
0000
0010
0000
0001
1000
0001
0000
1000
0000
,  // measure 41
0010
0000
0100
0000
1000
0000
0100
0000
0010
0000
1000
0001
1000
0000
0001
0000
,  // measure 42
0010
0000
0100
0000
1000
0000
0001
0000
0100
0000
0010
1000
0001
0000
1000
0000
,  // measure 43
0100
0000
0010
0100
0010
0000
0001
0010
0001
0000
1000
0010
1000
0000
0010
0100
,  // measure 44
0010
0000
0001
0000
0010
0000
0100
0000
0001
0000
1000
0001
1000
0000
0001
0000
,  // measure 45
0010
0000
1000
0000
0010
0000
0100
0000
1000
0000
0001
1000
0001
0000
1000
0000
,  // measure 46
0010
0000
0100
0000
0001
0000
1000
0000
0100
0000
0010
0001
1000
0000
0001
0000
,  // measure 47
0100
0000
0000
0100
0000
0000
0001
0000
0010
0000
0000
0010
0000
0000
0001
0000
,  // measure 48
0100
0000
0000
0010
0000
0000
1000
0001
1000
0000
0000
0000
0000
0000
0001
1000
,  // measure 49
0002
0000
0000
0023
0000
0000
2030
0000
3020
0000
0000
0000
0031
0000
1000
0001
,  // measure 50
2000
0000
0000
3002
0000
0000
0103
0000
1000
0000
0001
0000
0010
0000
1000
0000
,  // measure 51
0002
0000
0203
0000
0320
0000
1030
0001
,  // measure 52
2000
0000
0100
0000
3002
0000
0010
0000
2003
0000
0100
0000
3001
0000
1000
0001
,  // measure 53
2000
0000
0000
3020
0000
0000
0032
0000
0023
0000
0000
0000
1030
0000
0001
1000
,  // measure 54
0002
0000
0000
2003
0000
0000
3100
0000
0001
0000
1000
0000
0010
0000
0001
0000
,  // measure 55
2000
0000
3200
0000
0320
0000
0031
1000
,  // measure 56
0020
0230
0302
2003
3200
0320
0032
0003
;

//---------------dance-single - ----------------
#NOTEDATA:;
#CHARTNAME:;
#STEPSTYPE:dance-single;
#DESCRIPTION:;
#CHARTSTYLE:;
#DIFFICULTY:Medium;
#METER:10;
#RADARVALUES:0.386713,0.408327,0.109373,0.319005,0.127602,297.000000,285.000000,12.000000,35.000000,0.000000,0.000000,0.000000,0.000000,0.000000,0.386713,0.408327,0.109373,0.319005,0.127602,297.000000,285.000000,12.000000,35.000000,0.000000,0.000000,0.000000,0.000000,0.000000;
#CREDIT:;
#OFFSET:-0.631130;
#BPMS:0.000000=132.000000
;
#STOPS:;
#DELAYS:;
#WARPS:;
#TIMESIGNATURES:0.000000=4=4
;
#TICKCOUNTS:0.000000=4
;
#COMBOS:0.000000=1
;
#SPEEDS:0.000000=1.000000=0.000000=0
;
#SCROLLS:0.000000=1.000000
,60.000000=0.000000
,61.000000=1.000000
,156.000000=0.500000
,158.000000=1.000000
,194.000000=0.000000
,195.000000=1.000000
;
#FAKES:;
#LABELS:0.000000=Song Start
;
#NOTES:
// measure 0
0000
0000
0000
0000
,  // measure 1
0000
0000
0000
0000
,  // measure 2
0000
0000
0000
0000
,  // measure 3
0000
0000
0000
0000
,  // measure 4
2000
0000
0000
0000
3100
0000
0000
0010
,  // measure 5
0002
0000
0000
0000
0103
0000
0000
0010
,  // measure 6
1000
0000
0000
1000
0000
0000
1000
0000
0200
0000
0000
0000
0300
0000
0010
0000
,  // measure 7
0001
0000
0000
0100
0000
0000
0010
0000
2000
0000
0000
0000
3001
0000
0000
0000
,  // measure 8
0000
0000
1000
0000
0100
0000
0000
0200
0000
0000
0000
0000
0300
0000
0010
0000
,  // measure 9
0100
0000
0000
0100
0000
0000
1000
0000
0001
0000
1000
0000
0002
0000
0000
0000
,  // measure 10
0003
0000
1000
0000
0010
0000
0000
0020
0000
0000
0000
0000
0030
0000
0100
0000
,  // measure 11
0001
0000
0000
1000
0000
0000
0001
0000
0010
0000
0100
0000
2000
0000
0000
0000
,  // measure 12
3000
0000
0001
0000
0100
0000
0000
0200
0000
0000
0000
0000
0300
0000
0010
0000
,  // measure 13
0100
0000
0000
0100
0000
0000
0001
0000
1000
0000
0001
0000
2000
0000
0000
0000
,  // measure 14
3000
0000
0001
0000
0010
0000
0000
0020
0000
0000
0000
0000
0030
0000
0000
0000
,  // measure 15
0110
0000
0000
0000
1000
0001
1000
0000
,  // measure 16
0001
0100
0001
0100
0001
0100
0010
0000
,  // measure 17
1000
0100
1000
0100
1000
0100
0010
0000
,  // measure 18
0001
0100
0001
1000
0100
1000
0001
0000
,  // measure 19
0101
1100
1010
0011
,  // measure 20
1000
0100
0010
0001
1000
0100
0010
0000
,  // measure 21
0001
0100
0010
1000
0001
0100
0010
0000
,  // measure 22
1000
0100
0010
0001
0100
0010
1000
0000
,  // measure 23
0002
0000
0000
0000
1003
0001
1000
0000
,  // measure 24
0001
0000
0000
0010
0000
0000
0001
0000
0020
0000
0000
0000
0130
0000
0010
0000
,  // measure 25
0001
0000
0000
0100
0000
0000
0001
0000
0100
0000
0000
0000
0101
0000
0000
0000
,  // measure 26
2000
3020
0032
0013
,  // measure 27
1000
0010
1000
0100
1000
0100
0010
0001
,  // measure 28
1000
0000
0000
0010
0000
0000
1000
0000
0020
0000
0000
0000
0130
0000
0010
0000
,  // measure 29
1000
0000
0000
0100
0000
0000
1000
0000
0100
0000
0000
0000
1100
0000
0000
0000
,  // measure 30
0002
0023
2030
3010
,  // measure 31
0001
0000
0000
0000
0001
1000
0001
0000
,  // measure 32
1000
0000
0000
0010
0000
0000
1000
0000
0000
0010
0000
0000
0000
0000
0100
0000
,  // measure 33
0100
0000
0000
0010
0000
0000
0100
0000
0001
0000
1000
0000
0002
0000
0000
0000
,  // measure 34
1003
0000
0000
0100
0000
0000
1000
0000
0000
0100
0000
0000
0000
0000
0010
0000
,  // measure 35
0100
0000
0000
1000
0000
0000
0001
0000
0100
0000
0010
0000
2000
0000
0000
0000
,  // measure 36
3001
0000
0000
0010
0000
0000
0001
0000
0000
0010
0000
0000
0000
0000
0100
0000
,  // measure 37
0100
0000
0000
0010
0000
0000
0100
0000
1000
0000
0001
0000
2000
0000
0000
0000
,  // measure 38
3001
0000
0000
0100
0000
0000
0001
0000
0000
0100
0000
0000
0000
0000
0000
0000
,  // measure 39
0220
0000
0330
0000
0001
1000
0001
0000
,  // measure 40
1000
0100
1000
0100
0001
0100
1000
0000
,  // measure 41
0001
0100
0001
0100
1000
0100
0001
0000
,  // measure 42
1000
0100
0010
0001
0100
0010
1000
0000
,  // measure 43
1100
0101
0011
1010
,  // measure 44
0001
1000
0010
0001
0010
1000
0001
0000
,  // measure 45
1000
0001
0010
1000
0010
0001
1000
0000
,  // measure 46
0001
0100
0001
1000
0100
1000
0001
0100
,  // measure 47
0020
0000
0000
0100
0130
0000
0010
0100
,  // measure 48
0020
0000
0000
1030
0001
0000
0000
0000
,  // measure 49
1000
0000
0000
0100
0000
0000
1000
0000
0200
0000
0000
0000
0310
0000
0100
0000
,  // measure 50
1000
0000
0000
0001
0000
0000
1000
0000
0010
0000
1000
0000
0010
0000
0100
0000
,  // measure 51
0020
0032
0023
1030
,  // measure 52
0001
0100
0001
0010
0001
0010
0100
1000
,  // measure 53
0001
0000
0000
0100
0000
0000
0001
0000
0200
0000
0000
0000
0310
0000
0100
0000
,  // measure 54
0001
0000
0000
1000
0000
0000
0001
0000
0010
0000
0001
0000
0010
0000
0100
0000
,  // measure 55
0020
0000
2030
0000
3020
0000
0031
1000
,  // measure 56
0100
0000
0000
0000
;

//---------------dance-single - ----------------
#NOTEDATA:;
#CHARTNAME:;
#STEPSTYPE:dance-single;
#DESCRIPTION:;
#CHARTSTYLE:;
#DIFFICULTY:Easy;
#METER:5;
#RADARVALUES:0.216142,0.255204,0.072916,0.492180,0.000000,166.000000,158.000000,8.000000,54.000000,0.000000,0.000000,0.000000,0.000000,0.000000,0.216142,0.255204,0.072916,0.492180,0.000000,166.000000,158.000000,8.000000,54.000000,0.000000,0.000000,0.000000,0.000000,0.000000;
#CREDIT:;
#OFFSET:-0.631130;
#BPMS:0.000000=132.000000
;
#STOPS:;
#DELAYS:;
#WARPS:;
#TIMESIGNATURES:0.000000=4=4
;
#TICKCOUNTS:0.000000=4
;
#COMBOS:0.000000=1
;
#SPEEDS:0.000000=1.000000=0.000000=0
;
#SCROLLS:0.000000=1.000000
,60.000000=0.000000
,61.000000=1.000000
,156.000000=0.500000
,158.000000=1.000000
,194.000000=0.000000
,195.000000=1.000000
;
#FAKES:;
#LABELS:0.000000=Song Start
;
#NOTES:
// measure 0
0000
0000
0000
0000
,  // measure 1
0000
0000
0000
0000
,  // measure 2
0000
0000
0000
0000
,  // measure 3
0000
0000
0000
0000
,  // measure 4
2000
0000
0100
0000
,  // measure 5
3002
0000
0100
0000
,  // measure 6
2003
3200
0320
0000
,  // measure 7
0032
0203
0320
2030
,  // measure 8
3000
0001
0001
0000
,  // measure 9
0001
0010
0100
2000
,  // measure 10
3000
0001
0001
0000
,  // measure 11
1000
0010
0100
0020
,  // measure 12
0030
1000
1000
0000
,  // measure 13
1000
0010
0100
0001
,  // measure 14
0000
1000
1000
0000
,  // measure 15
0200
0000
0310
1001
,  // measure 16
0000
0001
0001
0010
,  // measure 17
0000
1000
1000
0100
,  // measure 18
0000
0001
0010
0100
,  // measure 19
1000
1000
0001
0001
,  // measure 20
0000
1000
1000
0010
,  // measure 21
0000
0001
0001
0100
,  // measure 22
0000
1000
0100
0010
,  // measure 23
0002
0000
1000
1003
,  // measure 24
0002
0203
2300
3000
,  // measure 25
2000
3200
0302
1003
,  // measure 26
0002
0023
2030
3000
,  // measure 27
0010
0001
0010
0001
,  // measure 28
2000
3200
0302
0003
,  // measure 29
0002
0203
2300
3001
,  // measure 30
2000
3020
0032
0003
,  // measure 31
0010
0000
0010
1000
,  // measure 32
0002
0000
0000
0003
,  // measure 33
1000
1000
0100
0010
,  // measure 34
0002
0000
0000
0003
,  // measure 35
1000
0010
0001
0100
,  // measure 36
2000
0000
0000
3000
,  // measure 37
0001
0001
0100
0010
,  // measure 38
2000
0000
0000
3000
,  // measure 39
0200
0000
0310
1001
,  // measure 40
0000
1000
0100
1001
,  // measure 41
0000
0001
0100
1001
,  // measure 42
0000
1000
0010
0100
,  // measure 43
0001
0001
1000
1000
,  // measure 44
0000
0001
0010
1001
,  // measure 45
0000
1000
0010
1001
,  // measure 46
0000
0001
0010
0100
,  // measure 47
2000
0000
3001
1000
,  // measure 48
0002
0000
1003
0000
,  // measure 49
2000
3020
0032
0003
,  // measure 50
0002
0023
1030
1010
,  // measure 51
2000
3200
0302
0003
,  // measure 52
0100
1000
0100
1000
,  // measure 53
0002
0023
2030
3000
,  // measure 54
2000
3020
0031
0011
,  // measure 55
0002
0203
2300
3100
,  // measure 56
0001
0000
0000
0000
;

//---------------dance-single - ----------------
#NOTEDATA:;
#CHARTNAME:;
#STEPSTYPE:dance-single;
#DESCRIPTION:;
#CHARTSTYLE:;
#DIFFICULTY:Beginner;
#METER:2;
#RADARVALUES:0.135415,0.153123,0.054687,0.127602,0.000000,104.000000,98.000000,6.000000,14.000000,0.000000,0.000000,0.000000,0.000000,0.000000,0.135415,0.153123,0.054687,0.127602,0.000000,104.000000,98.000000,6.000000,14.000000,0.000000,0.000000,0.000000,0.000000,0.000000;
#CREDIT:;
#NOTES:
0000
0000
0000
0000
,
0000
0000
0000
0000
,
0000
0000
0000
0000
,
0000
0000
0000
0000
,
1000
0000
0000
0000
,
0001
0000
0000
0000
,
0100
0000
0000
0000
,
0010
0000
0000
0000
,
2000
0000
3000
0000
,
1000
0000
1000
0000
,
0002
0000
0003
0000
,
0001
0000
1000
0000
,
0002
0000
0003
0000
,
0001
0000
0001
0000
,
2000
0000
3000
0000
,
0000
0000
1001
0000
,
1000
0000
0100
0000
,
0010
0000
0001
0000
,
1000
0000
0100
0000
,
0010
0010
0010
0000
,
0001
0000
0100
0000
,
0010
0000
1000
0000
,
0001
0000
0100
0000
,
0020
0000
0030
0000
,
1000
1000
1000
0000
,
0010
0000
0100
0000
,
0001
0001
0001
0000
,
0010
0000
0010
0000
,
0001
0001
0001
0000
,
0100
0000
0010
0000
,
1000
1000
1000
0000
,
0200
0000
0300
0000
,
2002
0000
3003
0000
,
0010
0000
0010
0000
,
2002
0000
3003
0000
,
0100
0000
0010
0000
,
2002
0000
3003
0000
,
0100
0000
0100
0000
,
2002
0000
3003
0000
,
0000
0000
1001
0000
,
0001
0000
0100
0000
,
0001
0000
0010
0000
,
0001
0000
0100
0000
,
0010
0010
0010
0000
,
1000
0000
0100
0000
,
1000
0000
0010
0000
,
1000
0000
0100
0000
,
0010
0000
0010
0000
,
0010
0000
0000
0000
,
0001
0001
0001
0000
,
0010
0000
0100
0000
,
1000
1000
1000
0000
,
0010
0000
0010
0000
,
1000
1000
1000
0000
,
0100
0000
0010
0000
,
0001
0001
0001
0000
,
1000
0000
0000
0000
;

//---------------dance-single - Hari Hari Hari----------------
#NOTEDATA:;
#CHARTNAME:;
#STEPSTYPE:dance-single;
#DESCRIPTION:Hari Hari Hari;
#CHARTSTYLE:;
#DIFFICULTY:Edit;
#METER:15;
#RADARVALUES:0.710926,0.803495,0.164060,0.574210,1.029932,546.000000,528.000000,18.000000,63.000000,19.000000,0.000000,0.000000,0.000000,0.000000,0.710926,0.803495,0.164060,0.574210,1.029932,546.000000,528.000000,18.000000,63.000000,19.000000,0.000000,0.000000,0.000000,0.000000;
#CREDIT:;
#OFFSET:-0.631130;
#BPMS:0.000000=132.000000
,32.000000=264.000000
,32.125000=132.000000
,33.812500=66.000000
,33.875000=132.000000
,40.000000=264.000000
,40.125000=132.000000
,41.812500=66.000000
,41.875000=132.000000
,48.000000=264.000000
,48.125000=132.000000
,49.812500=66.000000
,49.875000=132.000000
,56.000000=264.000000
,56.125000=132.000000
,57.812500=66.000000
,57.875000=132.000000
,75.500000=264.000000
,75.625000=132.000000
,79.812500=66.000000
,79.875000=132.000000
,127.500000=264.000000
,127.625000=132.000000
,130.562500=66.000000
,130.625000=132.000000
,135.500000=264.000000
,135.625000=132.000000
,138.562500=66.000000
,138.625000=132.000000
,143.500000=264.000000
,143.625000=132.000000
,146.562500=66.000000
,146.625000=132.000000
,151.500000=264.000000
,151.625000=132.000000
,154.562500=66.000000
,154.625000=132.000000
,171.500000=264.000000
,171.625000=132.000000
,175.812500=66.000000
,175.875000=132.000000
;
#STOPS:;
#DELAYS:;
#WARPS:;
#TIMESIGNATURES:0.000000=4=4
;
#TICKCOUNTS:0.000000=4
;
#COMBOS:0.000000=1
;
#SPEEDS:0.000000=1.000000=0.000000=0
;
#SCROLLS:0.000000=1.000000
,32.000000=0.500000
,32.125000=1.000000
,33.812500=2.000000
,33.875000=1.000000
,40.000000=0.500000
,40.125000=1.000000
,41.812500=2.000000
,41.875000=1.000000
,48.000000=0.500000
,48.125000=1.000000
,49.812500=2.000000
,49.875000=1.000000
,56.000000=0.500000
,56.125000=1.000000
,57.812500=2.000000
,57.875000=1.000000
,60.000000=0.000000
,61.500000=1.000000
,75.500000=0.500000
,75.625000=1.000000
,79.812500=2.000000
,79.875000=1.000000
,127.500000=0.500000
,127.625000=1.000000
,130.562500=2.000000
,130.625000=1.000000
,135.500000=0.500000
,135.625000=1.000000
,138.562500=2.000000
,138.625000=1.000000
,143.500000=0.500000
,143.625000=1.000000
,146.562500=2.000000
,146.625000=1.000000
,151.500000=0.500000
,151.625000=1.000000
,154.562500=2.000000
,154.625000=1.000000
,156.000000=0.500000
,158.000000=1.000000
,171.500000=0.500000
,171.625000=1.000000
,175.812500=2.000000
,175.875000=1.000000
,194.000000=0.000000
,195.000000=1.000000
;
#FAKES:;
#LABELS:0.000000=Song Start
;
#DISPLAYBPM:132.000000;
#NOTES:
0000
0000
0000
0000
,
0000
0000
0000
0000
,
0000
0000
0000
0000
,
0000
0000
0000
0000
,
2000
0000
0000
0100
0000
0000
0100
0000
3100
0000
0000
0000
0010
0000
0100
0010
,
0002
0000
0000
0100
0000
0000
0100
0000
0103
0000
0000
0000
0010
0000
0100
0010
,
2000
0000
0000
3002
0000
0000
2003
0000
3200
0000
0000
0000
0310
0000
2000
0000
,
3020
0000
0000
0032
0000
0000
0203
0000
2300
0000
0000
3200
0000
0000
0301
0000
,
0001
0000
0000
0000
0000
0000
0000
0000
0000
1000
0000
0000
0000
0000
0000
0000
0000
0100
0000
0000
0000
0010
0000
0000
0000
0000
0000
0000
0000
0200
0000
0000
0000
0000
0000
0000
0000
0000
0000
0000
0010
0000
0000
0000
0000
0000
0000
0000
0310
0000
0000
0000
0000
0000
0000
0000
0100
0000
0000
0000
0010
0000
0000
0000
,
0001
0000
1000
0100
00M0
0100
0001
0100
0020
0000
0100
0000
2030
0000
0000
0000
,
3001
0000
0000
0000
0000
0000
0000
0000
0000
1000
0000
0000
0000
0000
0000
0000
0000
0100
0000
0000
0000
0010
0000
0000
0000
0000
0000
0000
0000
0200
0000
0000
0000
0000
0000
0000
0000
0000
0000
0000
0010
0000
0000
0000
0000
0000
0000
0000
0310
0000
0000
0000
0000
0000
0000
0000
0100
0000
0000
0000
1000
0000
0000
0000
,
0010
0000
1000
0100
00M0
0100
0001
0000
2000
0000
0001
0000
3200
0000
0000
0000
,
0310
0000
0000
0000
0000
0000
0000
0000
0000
0001
0000
0000
0000
0000
0000
0000
0000
0100
0000
0000
0000
0010
0000
0000
0000
0000
0000
0000
0000
0200
0000
0000
0000
0000
0000
0000
0000
0000
0000
0000
0010
0000
0000
0000
0000
0000
0000
0000
0310
0000
0000
0000
0000
0000
0000
0000
0100
0000
0000
0000
0010
0000
0000
0000
,
1000
0000
0001
0100
00M0
0100
1000
0100
0020
0000
0100
0000
0032
0000
0000
0000
,
1003
0000
0000
0000
0000
0000
0000
0000
0000
0001
0000
0000
0000
0000
0000
0000
0000
0100
0000
0000
0000
0010
0000
0000
0000
0000
0000
0000
0000
0200
0000
0000
0000
0000
0000
0000
0000
0000
0000
0000
0010
0000
0000
0000
0000
0000
0000
0000
0310
0000
0000
0000
0000
0000
0000
0000
0100
0000
0000
0000
0010
0000
0000
0000
,
0100
0000
0000
0000
0000
0000
0000
0000
1001
0000
1000
0010
1000
0100
0010
0000
,
0001
0000
0010
0001
0010
0000
0010
0001
1000
0000
1000
0001
0100
0000
0101
0000
,
1000
0000
0010
1000
0010
0000
0010
1000
0001
0000
0001
1000
0100
0000
1100
0000
,
0001
0000
0010
0100
1000
0000
0010
0100
0001
0000
1000
0001
1000
0000
1001
0000
,
0000
0001
0000
0000
0000
0000
0000
0000
0000
0100
0000
0000
0000
0001
0000
0000
0000
0010
0000
0000
0000
0M00
0000
0000
0000
0010
0000
0000
0000
1000
0000
0000
0000
0100
0000
0000
0000
00M0
0000
0000
0000
0100
0000
0000
0000
0001
0000
0000
0000
0010
0000
0000
0000
0M00
0000
0000
0000
0010
0000
0000
0000
1000
0000
0000
,
0100
0000
0010
0001
1000
0000
1000
0001
0100
0000
0100
0001
0010
0000
0011
0000
,
1000
0000
0010
1000
0001
0000
0001
1000
0100
0000
0100
1000
0010
0000
1010
0000
,
0001
0000
1000
0100
0010
0000
0001
0100
0010
0000
1000
0001
1000
0000
0200
0000
,
0010
0000
0000
0010
0000
0000
0301
0000
0100
0000
1000
0000
1001
0000
1000
0001
,
0200
0000
0000
0310
0100
0000
1000
0000
0100
0010
1000
0001
0010
0000
0100
0010
,
2000
0000
0000
3010
0100
0000
0010
0000
0011
0000
0000
0000
1001
0000
0001
0100
,
2000
0000
0000
3001
0010
0000
0100
0000
0010
1000
0001
1000
0100
0000
0010
0001
,
2000
0000
0100
0000
3002
0000
0100
0000
1003
0010
1000
0010
0100
0000
0001
0010
,
0200
0000
0000
0310
0100
0000
0001
0000
0100
0010
0001
1000
0010
0000
0100
0010
,
0002
0000
0000
0013
0100
0000
0010
0000
1010
0000
0000
0000
1001
0000
1000
0100
,
0002
0000
0000
1003
0010
0000
0100
0000
0010
0001
1000
0001
0100
0000
0010
0100
,
0001
1000
0000
1000
0000
1000
0001
0000
1001
0000
0001
0010
0001
0100
0010
0000
,
0000
1000
0000
0000
0000
0010
0000
0000
0000
0M00
0000
0000
0000
0010
0000
0000
0000
0001
0000
0000
0000
0000
0000
0000
0000
0001
0000
0000
0000
0100
0000
0000
0000
00M0
0000
0000
0000
0100
0000
0000
0000
1000
0000
0000
0000
0000
0000
0000
0001
0000
0000
0000
0100
0000
0000
0000
0010
0000
0000
0000
1000
0000
0000
0000
,
0001
0000
0001
0010
0M00
0010
1000
0010
2000
0000
0001
0000
3200
0000
0000
0000
,
0000
1300
0000
0000
0000
0100
0000
0000
0000
00M0
0000
0000
0000
0100
0000
0000
0000
0001
0000
0000
0000
0000
0000
0000
0000
0001
0000
0000
0000
0010
0000
0000
0000
0M00
0000
0000
0000
0010
0000
0000
0000
1000
0000
0000
0000
0000
0000
0000
0001
0000
0000
0000
0100
0000
0000
0000
0010
0000
0000
0000
0100
0000
0000
0000
,
1000
0000
0100
0010
0000
0010
0100
0000
0002
0000
1000
0000
0023
0000
0000
0000
,
0000
0031
0000
0000
0000
0010
0000
0000
0000
0M00
0000
0000
0000
0010
0000
0000
0000
1000
0000
0000
0000
0000
0000
0000
0000
1000
0000
0000
0000
0100
0000
0000
0000
00M0
0000
0000
0000
0100
0000
0000
0000
0001
0000
0000
0000
0000
0000
0000
1000
0000
0000
0000
0100
0000
0000
0000
0010
0000
0000
0000
0001
0000
0000
0000
,
1000
0000
1000
0010
0M00
0010
0001
0010
0002
0000
1000
0000
0203
0000
0000
0000
,
0000
0301
0000
0000
0000
0100
0000
0000
0000
00M0
0000
0000
0000
0100
0000
0000
0000
1000
0000
0000
0000
0000
0000
0000
0000
1000
0000
0000
0000
0010
0000
0000
0000
0M00
0000
0000
0000
0010
0000
0000
0000
0001
0000
0000
0000
0000
0000
0000
1000
0000
0000
0000
0100
0000
0000
0000
1000
0000
0000
0000
0100
0000
0000
0000
,
0002
0000
0000
0000
0003
0000
0000
0000
0101
0000
0100
0010
0100
1000
0001
0000
,
1000
0000
0001
0100
0010
0000
0010
0100
1000
0000
1000
0100
0010
0000
1010
0000
,
0001
0000
1000
0100
0010
0000
0010
0100
0001
0000
0001
0100
0010
0000
0011
0000
,
1000
0000
0001
0100
0010
0000
1000
0100
0010
0000
0001
1000
0001
0000
1001
0000
,
0000
1000
0000
0000
0000
0000
0000
0000
0000
0100
0000
0000
0000
1000
0000
0000
0000
0010
0000
0000
0000
0M00
0000
0000
0000
0010
0000
0000
0000
0001
0000
0000
0000
0100
0000
0000
0000
00M0
0000
0000
0000
0100
0000
0000
0000
1000
0000
0000
0000
0010
0000
0000
0000
0M00
0000
0000
0000
0010
0000
0000
0000
0001
0000
0000
,
0100
0000
0010
0001
0010
0000
0010
0100
0001
0000
0001
1000
0100
0000
0110
0000
,
0100
0000
0010
1000
0010
0000
0010
0100
1000
0000
1000
0001
0100
0000
0110
0000
,
0100
0000
0001
1000
0100
0000
0010
0001
1000
0000
0001
0100
0010
0000
0100
0010
,
1000
0001
1000
0001
1000
0001
0010
0001
1000
0001
1000
0001
0100
0010
0100
0001
,
1000
0001
1000
0001
1000
0001
0010
0001
1000
0000
0000
0000
0000
0000
0001
1000
,
0020
0000
0000
0130
0010
0000
0001
0000
0010
0100
0001
1000
0100
0000
0010
0100
,
0002
0000
0000
1003
0010
0000
0200
0000
2300
0000
3002
0000
0203
0000
0320
0000
,
0032
0000
0000
1003
0100
0000
0010
0000
0100
0001
1000
0001
0010
0000
0100
0010
,
0002
0000
0100
0000
2003
0000
0100
0000
3001
0100
0001
0100
0010
0000
1000
0100
,
0020
0000
0000
0130
0010
0000
1000
0000
0010
0100
1000
0001
0100
0000
0010
0100
,
2000
0000
0000
3001
0010
0000
0200
0000
0302
0000
2003
0000
3200
0000
0320
0000
,
2030
0000
0000
3001
0100
0000
0010
0000
0100
1000
0001
1000
0010
0000
0100
0010
,
0002
0023
0230
0302
2003
3200
0302
0003
;
