#VERSION:0.83;
#TITLE:サラマンダー;
#SUBTITLE:feat. 初音ミク;
#ARTIST:DECO*27;
#TITLETRANSLIT:Salamander;
#SUBTITLETRANSLIT:feat. Hatsune Miku;
#ARTISTTRANSLIT:;
#GENRE:Vocaloid Pop;
#ORIGIN:;
#CREDIT:;
#BANNER:Salamander.png;
#BACKGROUND:Salamander-bg.png;
#PREVIEWVID:;
#JACKET:Salamander-jacket.png;
#CDIMAGE:;
#DISCIMAGE:;
#LYRICSPATH:;
#CDTITLE:cdtitle.png;
#MUSIC:Salamander.ogg;
#OFFSET:-1.154217;
#SAMPLESTART:68.829613;
#SAMPLELENGTH:11.162788;
#SELECTABLE:YES;
#BPMS:0.000=172.000;
#STOPS:28.000=1.047,
157.000=1.047;
#DELAYS:;
#WARPS:;
#TIMESIGNATURES:0.000=4=4;
#TICKCOUNTS:0.000=4;
#COMBOS:0.000=1;
#SPEEDS:0.000=1.000=0.000=0;
#SCROLLS:0.000=1.000;
#FAKES:;
#LABELS:0.000=Song Start;
#BGCHANGES:;
#KEYSOUNDS:;
#ATTACKS:
;

//---------------dance-single - ----------------
#NOTEDATA:;
#CHARTNAME:;
#STEPSTYPE:dance-single;
#DESCRIPTION:;
#CHARTSTYLE:;
#DIFFICULTY:Challenge;
#METER:13;
#RADARVALUES:0.581381,0.678278,0.426888,0.483807,0.080634,429.000000,384.000000,45.000000,51.000000,32.000000,0.000000,0.000000,0.000000,0.000000,0.581381,0.678278,0.426888,0.483807,0.080634,429.000000,384.000000,45.000000,51.000000,32.000000,0.000000,0.000000,0.000000,0.000000;
#CREDIT:;
#NOTES:
// measure 0
0000
0000
0000
0000
,  // measure 1
0000
0000
0000
0000
,  // measure 2
0000
0000
0000
0000
,  // measure 3
0000
0000
0000
0000
,  // measure 4
0012
0100
0010
1003
,  // measure 5
2010
0000
0100
0000
0010
0000
3001
1000
,  // measure 6
0100
0000
0010
0001
0100
0010
0100
0010
,  // measure 7
1001
0000
1002
0000
0000
0203
0000
0000
,  // measure 8
1000
1000
0000
0000
0010
0000
0301
0010
,  // measure 9
1000
0000
1010
0000
0000
0011
0000
0000
,  // measure 10
1001
1001
0000
0001
0010
0100
1000
0010
,  // measure 11
0100
0001
2001
0000
0000
3200
0000
0000
,  // measure 12
0001
0001
0000
0000
0010
0000
1300
0010
,  // measure 13
0001
0000
0011
0000
0000
1010
0000
0000
,  // measure 14
1001
1001
0000
1000
0010
0100
0001
0010
,  // measure 15
0100
1000
0002
0000
0000
0203
0000
0000
,  // measure 16
0010
0000
0020
0000
0300
0000
0130
0010
0100
0000
0001
0000
1000
0000
0010
0000
,  // measure 17
0001
0010
1000
0000
0001
0100
0010
1000
,  // measure 18
0001
0000
0001
0000
0100
0000
0010
1000
0010
0000
2000
0000
0000
0000
3002
0000
,  // measure 19
0000
1003
2000
0000
0000
3200
0000
0000
,  // measure 20
0010
0000
0020
0000
0300
0000
0130
0010
0100
0000
1000
0000
0001
0000
0010
0000
,  // measure 21
1000
0010
0001
0000
1000
0100
0010
0001
,  // measure 22
1000
0000
1000
0000
0100
0000
0010
0100
0010
0000
0001
1000
0001
0000
1000
0000
,  // measure 23
1000
0010
0002
0000
0023
0000
2030
3001
,  // measure 24
0010
2000
0000
3020
0000
0032
1003
0001
,  // measure 25
0001
0100
1000
0100
0001
1000
0001
0001
,  // measure 26
0000
2000
0000
3200
0000
0320
0000
0130
,  // measure 27
0100
0010
2000
0000
3020
0000
0032
1003
,  // measure 28
0010
0002
0000
0023
0000
2030
3001
1000
,  // measure 29
1000
0100
0001
1000
0010
0001
1000
1100
,  // measure 30
0000
0011
0000
1001
0000
1010
0000
1000
,  // measure 31
0001
0100
0001
0000
2000
0000
0000
0000
0000
0000
0000
0000
0000
0000
0000
0000
,  // measure 32
0000
3002
0000
0000
,  // measure 33
0013
0100
0010
0000
0200
0000
0000
0000
0000
0000
0000
0000
0000
0000
0000
0000
,  // measure 34
2300
0000
0000
0000
3002
0000
0000
0000
0103
0010
0100
0000
0020
0000
0000
0000
,  // measure 35
1030
0001
0220
0000
0330
0000
2002
0000
,  // measure 36
3003
0000
1000
0010
1000
0001
0010
0001
,  // measure 37
1000
0000
0101
0001
1000
0000
1100
1000
,  // measure 38
0001
0000
0100
0100
0010
0010
1000
0100
,  // measure 39
0001
0100
1000
0000
1000
0000
0001
0000
,  // measure 40
2000
0010
3001
1000
,  // measure 41
0002
0010
1003
1000
,  // measure 42
0001
0001
0100
0010
,  // measure 43
1000
0000
0001
0000
1001
0000
0001
0001
,  // measure 44
0100
0001
0010
0000
1001
0000
1000
1000
,  // measure 45
0100
1000
0010
0000
0101
1001
0000
0000
,  // measure 46
1100
0000
1001
0000
0000
0000
0100
0000
0010
0100
0010
0000
1001
0000
0000
0000
,  // measure 47
0001
0100
0010
0000
1010
0000
1000
0010
,  // measure 48
0001
0010
1000
0010
0001
0000
0011
0000
,  // measure 49
0001
0010
1000
0100
0001
0100
0010
0010
,  // measure 50
0100
0100
1000
1000
0002
0000
0203
0000
,  // measure 51
0310
0000
1000
0000
0100
0010
0100
0010
0001
0000
0000
0000
0001
0000
0010
0000
,  // measure 52
1000
0010
0001
0010
1000
0000
1010
0000
,  // measure 53
1000
0010
0001
0100
1000
0100
0010
0010
,  // measure 54
0100
0100
0001
1000
1001
0000
0011
0000
,  // measure 55
1100
0000
1000
0000
0001
0100
0001
0100
0020
0000
0000
0000
0000
0000
1000
0000
,  // measure 56
0000
0100
0000
0001
0031
0010
1000
0010
,  // measure 57
0100
0010
1000
0001
0020
0000
0000
0001
,  // measure 58
0000
0100
0000
1000
1030
0010
0001
0010
,  // measure 59
0100
0000
1000
0001
1000
0000
0010
0000
1010
0000
0000
0000
MMMM
0000
0000
0000
,  // measure 60
0101
MMMM
0011
MMMM
,  // measure 61
1100
0000
MMMM
0000
2001
0000
0010
3020
,  // measure 62
0000
0031
1000
0100
0001
0010
0100
1000
,  // measure 63
0010
0000
0100
0000
0001
1000
0001
1000
0200
0000
0000
0000
0000
0000
0001
0000
,  // measure 64
0000
0010
0000
0001
0301
0100
1000
0010
,  // measure 65
0001
0010
1000
0001
0200
0000
0000
1000
,  // measure 66
0000
0010
0000
1000
1300
0100
0001
0010
,  // measure 67
1000
0000
0010
0100
0010
0000
0001
0000
0011
0000
0000
0000
MMMM
0000
0000
0000
,  // measure 68
1100
MMMM
1010
MMMM
,  // measure 69
0101
0000
MMMM
0000
1002
0000
0010
0023
,  // measure 70
0000
1030
0001
0100
1000
0010
0001
0010
,  // measure 71
1000
0100
0001
0100
0110
0000
0000
0000
;

//---------------dance-single - ----------------
#NOTEDATA:;
#CHARTNAME:;
#STEPSTYPE:dance-single;
#DESCRIPTION:;
#CHARTSTYLE:;
#DIFFICULTY:Hard;
#METER:11;
#RADARVALUES:0.478386,0.576536,0.341511,0.455347,0.000000,353.000000,317.000000,36.000000,48.000000,32.000000,0.000000,0.000000,0.000000,0.000000,0.478386,0.576536,0.341511,0.455347,0.000000,353.000000,317.000000,36.000000,48.000000,32.000000,0.000000,0.000000,0.000000,0.000000;
#CREDIT:;
#NOTES:
0000
0000
0000
0000
,
0000
0000
0000
0000
,
0000
0000
0000
0000
,
0000
0000
0000
0000
,
0012
0010
0010
1003
,
2010
0000
0010
0000
0010
0000
3001
1000
,
0100
0000
0010
0001
1000
0001
1000
0001
,
0100
0000
1002
0000
0000
0203
0000
0000
,
0010
0020
0000
0000
0300
0000
0130
0001
,
0020
0000
2030
0000
0000
3020
0000
0000
,
0001
0031
0000
0001
0100
0000
0100
0010
,
1000
0001
2000
0000
0000
3200
0000
0000
,
0010
0020
0000
0000
0300
0000
0130
1000
,
0020
0000
0032
0000
0000
0023
0000
0000
,
1000
1030
0000
1000
0100
0000
0100
0010
,
0001
1000
0020
0000
0000
0230
0000
0000
,
0001
0002
0000
0000
0303
0001
0100
0001
,
0010
0000
0001
0000
0001
0000
0010
0001
,
0100
0001
0000
0000
1001
0000
0001
0000
,
0011
0000
0020
0000
0000
0230
0000
0000
,
1000
2000
0000
0000
3300
1000
0100
1000
,
0010
0000
1000
0000
1000
0000
0010
1000
,
0100
1000
0000
0000
1001
0000
1000
0010
,
0100
0001
0002
0000
0100
0000
1000
0000
,
1003
2000
0000
0100
0000
0001
0000
0001
,
3001
0000
1000
0010
0100
0001
1000
1000
,
0000
0200
0000
0320
0000
0032
0000
0103
,
0010
1000
2000
0000
0010
0000
0001
0000
,
3001
0002
0000
0010
0000
1000
0000
1000
,
1003
0000
0010
0100
0010
0100
0001
0010
,
0000
1100
0000
0011
0000
1001
0000
0000
,
0001
0100
0020
0000
0000
0000
0000
0000
,
0000
0230
0000
0000
,
0301
1000
0200
0000
0000
0000
0000
0000
,
0320
0000
0032
0000
1003
0010
0200
0000
,
0301
1000
0200
0000
0000
0000
0310
0000
,
0001
0000
1000
0010
1000
0000
0001
0010
,
0001
0101
1000
1100
,
0001
0000
0100
0010
0100
0010
1000
0001
,
1000
0001
0010
0000
0001
0000
1000
0000
,
0002
0010
1003
0001
,
2000
0010
3001
0001
,
1000
1000
0001
0010
,
0100
1000
0010
1010
,
0100
0010
1000
0000
0001
0000
0011
0000
,
0100
0010
0001
0000
1000
1001
0000
0000
,
0001
1001
0000
0100
0110
0000
1001
0000
,
0001
0100
0010
0000
1010
0000
2000
0000
,
3020
0000
0031
0010
1000
0000
1001
0000
,
1000
0100
0001
0000
0100
1000
0001
1000
,
0100
1000
0001
1000
0010
0000
0101
0000
,
1010
1001
0011
0002
,
0023
0000
1030
0010
0001
0000
1001
0000
,
0001
0100
1000
0000
0100
0001
1000
0001
,
0100
0001
1000
0001
0010
0000
1100
0000
,
1010
0000
0101
0000
2001
0000
0000
0010
,
0000
0010
0000
0001
3001
0000
0001
0010
,
1000
0000
1000
0010
0002
0000
0000
0010
,
0000
0010
0000
1000
1003
0000
1000
0010
,
0001
0000
0001
0010
1000
0000
MMMM
0000
,
0101
MMMM
0011
MMMM
,
1100
0000
MMMM
0000
2001
0000
3010
0002
,
0000
0013
1000
0000
0001
0010
0100
1000
,
0001
0010
0100
1000
0020
0000
0000
1000
,
0000
0100
0000
0001
0031
0000
0001
0010
,
1000
0000
1000
0001
0020
0000
0000
0001
,
0000
0100
0000
1000
1030
0000
1000
0010
,
0001
0000
0001
1000
0010
0000
MMMM
0000
,
0101
MMMM
0011
MMMM
,
1100
0000
MMMM
0000
1002
0000
0103
2000
,
0000
3100
0001
0000
1000
0100
0010
0001
,
1000
0010
0100
0001
0010
0000
0000
0000
;

//---------------dance-single - ----------------
#NOTEDATA:;
#CHARTNAME:;
#STEPSTYPE:dance-single;
#DESCRIPTION:;
#CHARTSTYLE:;
#DIFFICULTY:Medium;
#METER:8;
#RADARVALUES:0.382167,0.542622,0.407915,0.502779,0.000000,282.000000,239.000000,43.000000,53.000000,0.000000,0.000000,0.000000,0.000000,0.000000,0.382167,0.542622,0.407915,0.502779,0.000000,282.000000,239.000000,43.000000,53.000000,0.000000,0.000000,0.000000,0.000000,0.000000;
#CREDIT:;
#NOTES:
0000
0000
0000
0000
,
0000
0000
0000
0000
,
0000
0000
0000
0000
,
0000
0000
0000
0000
,
0011
0000
1000
0010
,
1010
0000
0001
0010
,
0100
0100
0100
0100
,
1001
0000
1002
0000
0000
0203
0000
0000
,
0000
0020
0000
0000
0330
0000
1000
0010
,
1000
0000
1010
0000
0000
1001
0000
0000
,
0001
0010
0000
0000
0001
0000
0100
0000
,
0010
0000
2001
0000
0000
3200
0000
0000
,
0000
0020
0000
0000
0330
0000
0001
0010
,
0001
0000
0011
0000
0000
1001
0000
0000
,
1000
0010
0000
0000
1000
0000
0100
0000
,
0010
0000
0002
0000
0000
0203
0000
0000
,
0000
2300
0000
0000
0000
0000
3100
0000
,
0001
1000
0001
0001
,
0010
0000
0010
0000
,
0100
0000
2000
0000
0000
3200
0000
0000
,
0000
0302
0000
0000
0000
0000
0103
0000
,
1000
0001
1000
1000
,
0010
0000
0010
0000
,
0100
0001
0001
0010
,
0000
0001
0000
0001
0000
0010
0000
0000
,
0001
0010
0100
1000
,
0000
0001
0000
0001
0000
0100
0000
0000
,
0010
1000
1000
0010
,
0000
1000
0000
1000
0000
0010
0000
0000
,
1000
0100
0010
0110
,
0000
1001
0000
0110
0000
1001
0000
0000
,
0001
0200
0000
0000
,
0000
0320
0000
0000
,
2030
3002
0000
0000
,
0023
0230
2300
3002
,
0103
0110
0000
0110
,
0000
2000
3020
0230
,
0302
0013
0010
0100
,
0100
1000
0001
0100
,
0010
0110
1000
0000
,
2000
0010
3001
0000
,
0002
0010
1003
0000
,
1000
0000
0001
0100
,
0010
1000
0100
0010
,
0100
0010
0001
0100
,
0010
0000
1000
0000
0001
0001
0000
0000
,
1000
1000
0000
0000
1001
0000
0110
0000
,
0001
1000
0001
0000
1001
0000
0002
0000
,
0023
0000
0130
0010
0001
0000
1000
0000
,
0001
0100
0010
0000
1010
0000
0101
0000
,
0011
1100
0002
0203
,
0320
1030
1001
2000
,
3020
0000
0130
0010
1000
0000
1001
0000
,
1000
0100
0010
0000
0011
0000
1100
0000
,
1010
0101
0002
0023
,
2030
0000
3020
0000
0032
0000
0000
0010
,
0000
0010
0000
1000
1003
0000
0001
0000
,
0100
0000
0010
0000
2010
0000
0000
0010
,
0000
0010
0000
0001
3001
0000
1000
0000
,
0100
0010
0012
0013
,
0102
0103
2010
3010
,
2100
0000
3100
0000
2001
0000
0000
3020
,
0000
0130
0001
0010
,
0100
0000
1000
0000
2001
0000
0000
0010
,
0000
0100
0000
0010
3010
0000
0100
0000
,
0010
0000
1000
0000
1002
0000
0000
0010
,
0000
0100
0000
0010
0013
0000
0100
0000
,
0010
0001
2001
3010
,
1002
0013
1002
0103
,
2001
0000
3100
0000
1002
0000
0000
0203
,
0000
0310
1000
0100
,
0010
0001
1001
0000
;

//---------------dance-single - ----------------
#NOTEDATA:;
#CHARTNAME:;
#STEPSTYPE:dance-single;
#DESCRIPTION:;
#CHARTSTYLE:;
#DIFFICULTY:Easy;
#METER:6;
#RADARVALUES:0.303565,0.339139,0.303565,0.322538,0.000000,224.000000,192.000000,32.000000,34.000000,0.000000,0.000000,0.000000,0.000000,0.000000,0.303565,0.339139,0.303565,0.322538,0.000000,224.000000,192.000000,32.000000,34.000000,0.000000,0.000000,0.000000,0.000000,0.000000;
#CREDIT:;
#NOTES:
0000
0000
0000
0000
,
0000
0000
0000
0000
,
0000
0000
0000
0000
,
0000
0000
0000
0000
,
0001
0000
0001
0000
,
1000
0000
1000
0000
,
0010
0010
0010
0010
,
1001
0000
1002
0000
0000
0100
0000
0000
,
0000
0200
0000
0000
0303
0000
1000
0000
,
0010
0000
0200
0000
0000
0010
0000
0000
,
0000
0310
0000
0000
0000
0000
0100
0000
,
0010
0000
2001
0000
0000
0100
0000
0000
,
0000
0200
0000
0000
3300
0000
0001
0000
,
0010
0000
0200
0000
0000
0010
0000
0000
,
0000
0310
0000
0000
0000
0000
0100
0000
,
0010
0001
0000
0001
,
0000
0001
0000
0001
,
0010
0100
0010
0001
,
1000
0001
0000
0001
,
0000
1000
0000
1000
,
0000
1000
0000
1000
,
0010
0100
0010
1000
,
0001
1000
0000
1000
,
0000
0001
0010
1000
,
0000
0001
0010
1000
,
0000
0001
0010
0100
,
1000
0010
0100
0001
,
0000
1000
0010
0001
,
0000
1000
0010
0001
,
0000
1000
0001
1000
,
0000
0010
0000
0010
0000
0010
0000
0000
,
0000
2000
0000
0000
,
0000
3200
0000
0000
,
0320
0032
0000
0000
,
2003
3020
0230
0302
,
1003
1001
0000
1010
,
0000
1001
0000
0011
,
0000
1000
1000
0010
,
0010
0100
0001
1000
,
0100
0110
0001
0000
,
0001
0010
0001
0000
,
1000
0010
1000
0000
,
1000
0000
0010
0100
,
0010
0000
1001
0000
,
1000
0100
0010
0000
,
0001
0100
0110
0000
,
1001
0000
1001
1001
,
0000
0000
1001
0000
,
0001
0010
1000
0000
,
1000
0010
0001
0001
,
1000
1000
0001
0100
,
0010
1000
1001
0000
,
1000
0010
0001
0000
,
0001
0010
1000
1000
,
0001
0001
0010
0100
,
0010
0100
2001
0000
,
0001
0000
3001
0010
,
0100
0010
1002
0000
,
1000
0000
1003
0010
,
0100
0010
2020
3030
,
0202
0303
0022
0033
,
2200
3300
1001
0000
,
1001
0000
1000
0010
,
0100
0001
1002
0000
,
0010
0000
1003
0100
,
0010
0001
2001
0000
,
0010
0000
3001
0100
,
0010
1000
2200
3300
,
0022
0033
0202
0303
,
2020
3030
1001
0000
,
1001
0000
1000
0100
,
0001
0100
1001
0000
;

//---------------dance-single - ----------------
#NOTEDATA:;
#CHARTNAME:;
#STEPSTYPE:dance-single;
#DESCRIPTION:;
#CHARTSTYLE:;
#DIFFICULTY:Beginner;
#METER:2;
#RADARVALUES:0.119258,0.207752,0.066405,0.075891,0.000000,88.000000,81.000000,7.000000,8.000000,0.000000,0.000000,0.000000,0.000000,0.000000,0.119258,0.207752,0.066405,0.075891,0.000000,88.000000,81.000000,7.000000,8.000000,0.000000,0.000000,0.000000,0.000000,0.000000;
#CREDIT:;
#OFFSET:-1.154217;
#BPMS:0.000000=172.000000
;
#STOPS:;
#DELAYS:;
#WARPS:;
#TIMESIGNATURES:0.000000=4=4
;
#TICKCOUNTS:0.000000=4
;
#COMBOS:0.000000=1
;
#SPEEDS:0.000000=1.000000=0.000000=0
;
#SCROLLS:0.000000=1.000000
;
#FAKES:;
#LABELS:0.000000=Song Start
;
#NOTES:
0000
0000
0000
0000
,
0000
0000
0000
0000
,
0000
0000
0000
0000
,
0000
0000
0000
0000
,
0001
0000
0000
0000
,
1000
0000
0000
0000
,
0010
0000
0010
0000
,
0010
0000
0000
0000
,
2002
0000
0000
0000
0000
0000
0000
3003
,
0000
0000
1000
0000
,
0001
0000
0000
0000
,
0000
0000
0000
0000
,
2002
0000
0000
0000
0000
0000
0000
3003
,
0000
0000
0001
0000
,
1000
0000
0000
0000
,
0000
0000
0000
0000
,
0100
0000
0000
0000
,
0000
0000
0000
0000
,
0100
0000
0100
0000
,
0100
0000
0000
0000
,
0010
0000
0000
0000
,
0000
0000
0000
0000
,
0010
0000
0010
0000
,
0010
0000
0000
0000
,
0001
0000
0000
0000
,
1000
0000
0000
0000
,
0010
0000
0010
0000
,
0010
0000
0000
0000
,
1000
0000
0000
0000
,
0001
0000
0000
0000
,
0010
0000
0010
0000
,
0010
0000
0000
0000
,
1001
0000
0000
0000
,
0000
0000
0000
0000
,
0000
0000
0000
0000
,
0000
0000
0000
0000
,
1001
0000
0000
0000
,
1001
0000
0000
0000
,
1000
0000
1000
0000
,
0001
0000
0001
0000
,
1001
0000
0000
0000
,
0000
0000
0000
0000
,
0000
0000
0000
0000
,
0000
0000
0000
0000
,
0000
0000
0000
0000
,
0001
0000
0000
0000
,
1000
0000
0000
0000
,
0100
0000
0100
0000
,
0100
0000
0000
0000
,
1000
0000
1000
0000
,
0010
0000
0010
0000
,
0100
0000
0100
0000
,
0001
0000
1000
0000
,
0001
0000
0001
0000
,
0010
0000
0010
0000
,
0100
0000
0100
0000
,
1000
0000
0001
0000
,
2000
0000
0000
0000
,
3000
0000
1000
0000
,
0002
0000
0000
0000
,
0003
0000
0001
0000
,
0100
0000
0100
0000
,
0010
0000
0010
0000
,
1000
0000
0000
0000
,
0001
0000
1000
0000
,
0002
0000
0000
0000
,
0003
0000
0001
0000
,
2000
0000
0000
0000
,
3000
0000
1000
0000
,
0100
0000
0100
0000
,
0010
0000
0010
0000
,
0001
0000
0000
0000
,
1000
0000
0001
0000
,
1001
0000
0000
0000
;
