#VERSION:0.83;
#TITLE:SOLID WYVERN;
#SUBTITLE:;
#ARTIST:L.E.D.;
#TITLETRANSLIT:;
#SUBTITLETRANSLIT:;
#ARTISTTRANSLIT:;
#GENRE:Hardpsy;
#ORIGIN:;
#CREDIT:;
#BANNER:SOLID WYVERN.png;
#BACKGROUND:SOLID WYVERN-bg.png;
#PREVIEWVID:;
#JACKET:SOLID WYVERN-jacket.png;
#CDIMAGE:;
#DISCIMAGE:;
#LYRICSPATH:;
#CDTITLE:cdtitle.png;
#MUSIC:SOLID WYVERN.ogg;
#OFFSET:-0.133650;
#SAMPLESTART:58.315472;
#SAMPLELENGTH:11.636364;
#SELECTABLE:YES;
#BPMS:0.000=165.000;
#STOPS:;
#DELAYS:;
#WARPS:;
#TIMESIGNATURES:0.000=4=4;
#TICKCOUNTS:0.000=4;
#COMBOS:0.000=1;
#SPEEDS:0.000=1.000=0.000=0;
#SCROLLS:0.000=1.000;
#FAKES:;
#LABELS:0.000=Song Start;
#BGCHANGES:;
#KEYSOUNDS:;
#ATTACKS:
;

//---------------dance-single - ----------------
#NOTEDATA:;
#CHARTNAME:;
#STEPSTYPE:dance-single;
#DESCRIPTION:;
#CHARTSTYLE:;
#DIFFICULTY:Challenge;
#METER:18;
#RADARVALUES:1.045499,1.144082,0.326880,0.472161,1.589002,806.000000,770.000000,36.000000,52.000000,0.000000,0.000000,0.000000,0.000000,0.000000,1.045499,1.144082,0.326880,0.472161,1.589002,806.000000,770.000000,36.000000,52.000000,0.000000,0.000000,0.000000,0.000000,0.000000;
#CREDIT:;
#NOTES:
// measure 0
0000
0000
0000
0000
,  // measure 1
0000
0000
0000
0000
,  // measure 2
0000
0000
0000
0000
,  // measure 3
0000
0000
0000
0000
,  // measure 4
2000
0000
0001
0000
3010
0100
0010
0100
,  // measure 5
0002
0000
1000
0000
0013
0100
0010
0100
,  // measure 6
1000
0001
0100
0010
1000
0001
1000
0100
,  // measure 7
0020
0000
0000
0030
,  // measure 8
0110
0000
0000
0000
0001
0010
0100
1000
,  // measure 9
0002
0000
0000
0000
1003
0000
0010
0100
0000
0000
0010
0000
0100
0000
0001
0000
,  // measure 10
2000
0000
0000
0000
3001
0000
0010
0100
0000
0000
0010
0000
0100
0000
1000
0000
,  // measure 11
0002
0000
0000
0000
1003
0000
0001
0100
0001
0000
1000
0100
1000
0000
0001
0000
,  // measure 12
2000
0000
0000
0000
0001
0000
0000
0000
3010
0000
0100
0010
0100
0000
0010
0100
,  // measure 13
0002
0000
0000
0000
1000
0000
0000
0000
0013
0000
0100
0010
0100
0000
0010
0100
,  // measure 14
1000
0000
1000
0000
0001
0000
0001
0000
1000
0010
0100
0001
1000
0001
0010
0100
,  // measure 15
2000
0000
0000
0000
0000
0000
0000
0000
3001
0100
0010
0000
0100
0001
1000
0001
,  // measure 16
0010
0000
0100
0010
0100
0000
1000
0100
1000
0000
0001
1000
0010
0000
0100
0001
,  // measure 17
1000
0000
0001
1000
0100
0000
0010
0001
1000
0000
0010
1000
0100
0000
1000
0000
,  // measure 18
0020
0000
0130
0010
0100
0000
0001
0100
0001
0000
1000
0001
0010
0000
0100
1000
,  // measure 19
0001
0000
1000
0001
0100
0000
0010
1000
0001
0000
0010
0001
0100
0000
0001
0000
,  // measure 20
0010
0000
0100
1000
0001
0000
1000
0010
0100
0001
1000
0001
0100
0001
1000
0001
,  // measure 21
0100
0001
1000
0001
0100
0001
1000
0001
0100
0001
1000
0001
0010
0100
1000
0000
,  // measure 22
0020
0000
0130
0001
1000
0000
0001
0010
0100
1000
0001
1000
0100
1000
0001
1000
,  // measure 23
0100
1000
0001
1000
0100
1000
0001
1000
0100
1000
0001
1000
0010
0100
0001
0000
,  // measure 24
1001
0000
1000
0100
0010
0001
0010
0100
1000
0010
0100
0010
1000
0100
0010
0100
,  // measure 25
1000
0001
0100
0010
1000
0001
1000
0100
0010
0001
1000
0001
0100
0000
0100
0000
,  // measure 26
0010
1000
0001
1000
0100
0010
0001
1000
0001
0100
0010
0100
0001
0010
0100
0010
,  // measure 27
0001
1000
0010
0100
0010
1000
0001
1000
0100
0010
0001
0010
0100
0000
1000
0000
,  // measure 28
2000
0000
3001
0100
0010
1000
0010
0100
0001
0010
0100
0010
0001
0100
0010
0100
,  // measure 29
0001
1000
0100
0010
0001
1000
0001
0100
0010
1000
0001
1000
0100
0000
0100
0000
,  // measure 30
0010
0001
1000
0001
0100
0010
1000
0100
0010
0100
1000
0010
0100
0010
1000
0001
,  // measure 31
0010
0000
0000
1100
0000
0000
0101
0000
0000
1000
0001
1000
,  // measure 32
2001
0000
3010
0100
0100
0100
0002
0000
0013
0100
0100
0100
,  // measure 33
2000
0000
3001
0010
0001
0000
2000
0000
3001
0010
0001
0000
0200
0000
0000
0000
0310
0000
0100
0000
0001
0000
1000
0000
,  // measure 34
2001
0000
3100
0010
0010
0010
0002
0000
0103
0010
0010
0010
,  // measure 35
2000
0000
3001
0100
0001
0000
2000
0000
3001
0100
0001
0000
0010
0000
0001
0000
1000
0000
0010
0000
0100
0000
0001
0000
,  // measure 36
1002
0000
0013
0100
0100
0100
2000
0000
3010
0100
0100
0100
,  // measure 37
0002
0000
1003
0010
1000
0000
0002
0000
1003
0010
1000
0000
0200
0000
0000
0000
0310
0000
0100
0000
1000
0000
0001
0000
,  // measure 38
1002
0000
0103
0010
0010
0010
2000
0000
3001
1000
0100
0010
,  // measure 39
0011
0000
0000
0000
1010
0000
0000
0000
1000
0010
0100
0001
0010
0001
0100
0010
,  // measure 40
1000
0001
1000
0100
0010
0100
1000
0001
1000
0010
0100
1000
0100
0010
1000
0001
,  // measure 41
1000
0100
0010
1000
0010
0100
1000
0001
1000
0010
0100
0010
1000
0000
0010
0100
,  // measure 42
0001
1000
0001
0010
0100
0010
0001
1000
0001
0100
0010
0001
0010
0100
0001
1000
,  // measure 43
0100
0000
0000
0000
0000
0000
0000
0000
0000
0011
0000
0000
0000
0000
0000
0000
0000
0000
0101
0000
0000
0000
0000
0000
1010
0000
0000
0000
0000
0000
1001
0000
0000
0000
0000
0000
0001
0000
1000
0000
0001
0000
1000
0000
0001
0000
1000
0000
,  // measure 44
0001
1000
0001
0100
0010
0100
0001
1000
0001
0010
0100
0001
0100
0010
0001
1000
,  // measure 45
0001
0100
0010
0001
0010
0100
0001
1000
0001
0010
0100
0010
0001
0000
0010
0100
,  // measure 46
1000
0001
1000
0010
0100
0010
1000
0001
1000
0100
0010
1000
0010
0100
1000
0001
,  // measure 47
1000
0010
0100
0001
0010
0100
1000
0010
0100
0001
1000
0001
,  // measure 48
1001
0000
1000
0100
0010
0100
0001
0000
1000
0010
0100
0010
,  // measure 49
0001
0000
1000
0100
1000
0000
0001
0000
1000
0010
1000
0000
0020
0000
0000
0000
0130
0000
0101
0000
0001
0000
1000
0000
,  // measure 50
1001
0000
0001
0010
0100
0010
1000
0000
0001
0100
0010
0100
,  // measure 51
2000
0000
3001
0101
0100
0001
1001
1000
0100
1100
0000
0000
,  // measure 52
1001
0000
0001
0100
0010
0100
1000
0000
0001
0010
0100
0010
,  // measure 53
1000
0000
0001
0100
0001
0000
1000
0000
0001
0010
0001
0000
0020
0000
0000
0000
0130
0000
1100
0000
0000
0000
0000
0000
,  // measure 54
1001
0000
1000
0010
0100
0010
0001
0000
1000
0100
0010
0100
,  // measure 55
0001
0000
1000
0000
0100
0000
0010
0000
0100
0000
0010
0000
0001
0000
0000
0001
0000
0000
1000
0001
1000
0001
1000
0001
,  // measure 56
2000
0000
0000
0001
0000
0000
3010
0100
0002
0000
0000
1000
0000
0000
0013
0100
,  // measure 57
2000
0000
0000
0001
0000
0000
3010
0100
0010
0000
0100
0001
0000
1000
0100
0000
,  // measure 58
0020
0000
0000
0100
0000
0000
0031
1000
0020
0000
0000
0100
0000
0000
1030
0001
,  // measure 59
0010
0000
0000
0110
0000
0000
0110
0000
1001
0000
0000
1001
0000
0000
0001
1000
,  // measure 60
0001
0010
0100
1000
0010
0100
0001
1000
0001
0010
0100
0001
0100
0010
0001
1000
,  // measure 61
0001
0100
0010
0001
0010
0100
0001
1000
0001
0010
0100
1000
0001
0000
1001
0000
,  // measure 62
1000
0010
0100
0001
0010
0100
1000
0001
1000
0010
0100
1000
0100
0010
1000
0001
,  // measure 63
0010
0000
0000
0000
0000
0000
0000
0000
0000
1100
0000
0000
0000
0000
0000
0000
0000
0000
1010
0000
0000
0000
0000
0000
0101
0000
0000
0000
0000
0000
1001
0000
0000
0000
0000
0000
0001
0000
1000
0000
0001
0000
1000
0000
0001
0000
1000
0000
,  // measure 64
0002
0000
0000
0023
0000
0000
0130
0010
2000
0000
0000
3020
0000
0000
0130
0010
,  // measure 65
0002
0000
0000
2003
0000
0000
3001
0100
0000
0001
1000
0100
0000
0100
0010
0001
,  // measure 66
2000
0000
0000
3020
0000
0000
0130
0010
0002
0000
0000
0023
0000
0000
0130
0010
,  // measure 67
2000
0000
0000
3002
0000
0000
1003
0100
0000
0000
1001
0000
0000
1001
0000
0001
,  // measure 68
0100
1000
0100
0002
0000
1003
0010
0100
0001
1000
0001
0020
0000
0130
1000
0001
,  // measure 69
0010
1000
0010
0002
0000
1003
0100
0010
0001
1000
0001
0200
0000
0300
1001
0000
,  // measure 70
0001
1000
0010
0001
0010
1000
0010
0100
0001
1000
0100
0001
0100
1000
0100
0010
,  // measure 71
0001
1000
0010
0001
0010
1000
0010
0100
0001
1000
0100
0000
0010
0000
0000
0000
,  // measure 72
0110
0000
0000
0000
;

//---------------dance-single - ----------------
#NOTEDATA:;
#CHARTNAME:;
#STEPSTYPE:dance-single;
#DESCRIPTION:;
#CHARTSTYLE:;
#DIFFICULTY:Medium;
#METER:13;
#RADARVALUES:0.570744,0.588385,0.208840,0.526641,0.404061,440.000000,417.000000,23.000000,58.000000,0.000000,0.000000,0.000000,0.000000,0.000000,0.570744,0.588385,0.208840,0.526641,0.404061,440.000000,417.000000,23.000000,58.000000,0.000000,0.000000,0.000000,0.000000,0.000000;
#CREDIT:;
#NOTES:
0000
0000
0000
0000
,
0000
0000
0000
0000
,
0000
0000
0000
0000
,
0000
0000
0000
0000
,
2000
0000
0001
0000
3010
0000
0010
0100
,
0002
0000
1000
0000
0013
0000
0010
0100
,
1000
0000
0001
0000
0100
0010
1000
0001
,
0020
0000
0000
0030
,
0110
0000
0001
1000
,
0002
0000
0000
0000
0103
0000
0000
0010
0000
0000
0100
0000
0010
0000
0000
0000
,
2000
0000
0000
0000
3100
0000
0000
0010
0000
0000
0100
0000
0010
0000
0000
0000
,
0002
0000
1003
0001
0100
0000
0001
1000
,
0200
0000
0010
0000
1300
0001
1000
0001
,
0200
0000
0010
0000
0301
1000
0001
1000
,
0200
0000
0320
0000
0031
1000
0010
0100
,
0002
0000
0000
0000
0000
0000
0000
0000
1003
0001
1000
0000
0001
0000
0000
0000
,
1001
0000
0001
0010
0100
0000
0010
0001
,
0100
0000
0000
0000
0001
0000
0010
0000
0100
0000
1000
0001
1000
0000
0010
0000
,
0020
0000
1030
0010
0100
0000
0010
1000
,
0100
0000
0000
0000
1000
0000
0010
0000
0100
0000
0001
1000
0001
0000
1000
0000
,
1001
0000
0001
0010
0200
0000
0010
0000
,
0001
0000
0000
0000
0010
0000
0000
0000
1300
0000
0100
1000
0100
0000
0010
0000
,
0002
0000
1003
0010
0200
0000
0010
0000
,
1000
0000
0000
0000
0010
0000
0000
0000
0301
0000
0100
0001
0100
0000
0001
0000
,
1001
0000
1000
0100
0010
0100
1000
0000
,
0001
0000
0010
0000
0100
0000
0010
0000
0001
0000
1000
0001
1000
0000
0010
0000
,
0010
0000
1000
0010
0001
0010
1000
0000
,
0001
0000
0100
0000
0010
0000
1000
0000
0100
0000
0010
0001
0010
0000
0001
0000
,
2000
0000
3001
0100
0010
0100
0001
0000
,
1000
0000
0010
0000
0100
0000
0010
0000
1000
0000
0001
1000
0001
0000
0010
0000
,
0010
0000
0001
0010
1000
0010
0001
0000
,
2000
3020
0230
0302
,
1003
0000
0001
0010
0000
0001
0010
0000
0000
0100
0000
0000
,
2000
0000
0000
0100
0000
0000
3010
0000
0000
1000
0010
0100
,
0001
0000
0000
1000
0000
0100
0010
0000
0000
0001
0000
0100
,
0020
0000
0000
0100
0000
0000
1030
0001
1000
0100
0000
0000
,
1001
0000
1000
0010
0000
1000
0010
0000
0000
0100
0000
0000
,
0002
0000
0000
0100
0000
0000
0013
0000
0000
0001
0010
0100
,
1000
0000
0000
0001
0000
0100
0010
0000
0000
1000
0000
0100
,
0020
0000
0000
0000
0032
0000
0000
0000
1003
0000
0010
0000
0100
0000
0001
1000
,
0002
0000
0000
1000
0000
0000
0010
0000
0023
0000
0000
0100
0000
0000
0001
0000
,
0032
0000
0000
1000
0000
0000
0100
0000
0103
0000
0000
0010
1000
0000
0001
1000
,
0002
0000
0000
0010
0000
0000
1000
0000
2003
0000
0000
0100
0000
0000
3001
0000
,
0101
0000
0000
1010
0000
0000
1001
0000
1000
0000
0100
0000
0002
0000
0203
0000
,
2300
0000
0000
0001
0000
0000
0010
0000
3020
0000
0000
0100
0000
0000
1000
0000
,
2030
0000
0000
0001
0000
0000
0100
0000
3100
0000
0000
0010
0001
0000
1000
0001
,
2000
0000
0000
0010
0000
0000
0001
0000
3002
0000
0000
0100
0000
0000
1000
0000
,
2003
3200
0320
0032
,
1003
0000
0010
0100
0000
0010
0001
0000
0010
0100
0000
0010
,
1000
0000
0000
1000
0000
0000
1010
0000
0000
1000
0100
0010
,
0001
0000
0010
0100
0000
0010
1000
0000
0010
0100
0000
0010
,
0001
0000
0000
0011
0000
0000
0001
0010
0100
1000
0000
0000
,
0001
0000
0100
0010
0000
0100
1000
0000
0100
0010
0000
0100
,
0001
0001
0001
1001
,
1000
0000
0100
0010
0000
0100
0001
0000
0100
0010
0000
0100
,
2000
0000
0000
0000
3001
0100
0020
2030
,
3001
0000
0000
0001
0010
0000
0000
0010
,
0100
0000
0000
0100
1000
0000
0001
1000
,
0010
0000
0000
0010
0100
0000
0000
0100
,
0001
0000
0000
1001
0000
0000
1000
0000
0100
0000
0000
0110
0000
0000
0010
0000
,
0002
0000
0000
0010
0000
0000
0100
0000
0203
0000
0000
0010
0000
0000
0001
0000
,
0302
0000
0000
0010
0000
0000
0100
0000
0103
0000
0000
0100
0010
0000
1000
0001
,
2000
0000
0000
0010
0000
0000
0100
0000
3200
0000
0000
0010
0000
0000
1300
0000
,
1100
0000
0000
0011
0000
0000
1001
0000
0001
0000
0100
0000
2000
0000
3200
0000
,
0301
0000
0000
0010
0000
0000
0001
0000
1000
0000
0000
0010
0000
0000
1000
0000
,
0100
0000
0000
0010
0000
0000
0011
0000
0000
0000
1001
0000
0000
0000
1000
0001
,
1000
0000
0000
0010
0000
0000
1000
0000
0001
0000
0000
0010
0000
0000
0001
0000
,
0100
0000
0000
0010
0000
0000
1010
0000
0000
0000
0011
0000
0000
1100
0000
0000
,
1002
0000
0000
0100
0000
0000
1000
0000
2003
0000
0000
0100
0000
0000
0001
0000
,
3002
0000
0000
0010
0000
0000
1000
0000
2003
0000
0000
0010
0000
0000
3001
0010
,
0002
0000
0000
0100
0000
0000
1003
0010
2000
0000
0000
0100
0000
0000
3001
0010
,
0002
0000
0000
0100
0000
0000
1003
0010
1000
0000
0100
0000
0010
0000
0000
0000
,
0110
0000
0000
0000
;

//---------------dance-single - ----------------
#NOTEDATA:;
#CHARTNAME:;
#STEPSTYPE:dance-single;
#DESCRIPTION:;
#CHARTSTYLE:;
#DIFFICULTY:Easy;
#METER:9;
#RADARVALUES:0.400818,0.457633,0.199760,0.444921,0.022700,309.000000,287.000000,22.000000,49.000000,0.000000,0.000000,0.000000,0.000000,0.000000,0.400818,0.457633,0.199760,0.444921,0.022700,309.000000,287.000000,22.000000,49.000000,0.000000,0.000000,0.000000,0.000000,0.000000;
#CREDIT:;
#NOTES:
0000
0000
0000
0000
,
0000
0000
0000
0000
,
0000
0000
0000
0000
,
0000
0000
0000
0000
,
2000
0001
3010
0100
,
0002
1000
0013
0100
,
1000
0001
1000
0010
,
0200
0000
0000
0300
,
0110
0000
0001
1000
,
0002
0000
0013
0100
,
2000
0000
3010
0100
,
0002
0000
1003
0001
,
2000
0001
3100
0010
,
0002
1000
0103
0010
,
2000
3200
0320
0032
,
1003
0000
0000
0000
1000
0001
1000
0000
,
0001
0000
0100
0000
0010
1000
0001
0000
,
1000
0100
0010
0001
,
2000
0000
3100
0000
0010
0001
1000
0000
,
0001
0100
0010
1000
,
1001
0000
0001
0010
0200
0000
0010
0000
,
1000
0000
0010
0000
1300
0000
0001
1000
,
0002
0000
1003
0010
0200
0000
0010
0000
,
0001
0010
0301
1000
,
2001
0100
0100
3100
,
1000
0100
1000
0100
0010
0000
0001
1000
,
0002
0100
0010
0103
,
0001
1000
0001
0000
1000
0100
0010
0000
,
0002
0100
0100
0103
,
0001
0100
0001
0100
0010
0000
1000
0001
,
2000
0100
0010
3100
,
0020
0032
2003
3020
,
0130
0010
0100
0010
,
1010
1010
0101
1000
,
0001
0010
0100
1000
,
1001
1001
0101
1000
,
0100
0010
0100
0010
,
0011
0011
1100
0001
,
1000
0010
0100
0001
,
2000
0000
0000
0000
3001
1000
0001
1000
,
0002
0010
2003
0100
,
3002
0000
1000
0000
0103
0010
0100
0010
,
2000
0001
3200
0010
,
1300
0000
0000
0001
0000
0000
1000
0000
0001
0000
0000
0000
1001
0000
0000
0000
,
2000
0010
3002
0100
,
2003
0000
0001
0000
3100
0010
0100
0010
,
0002
1000
0203
0010
,
0302
0023
0230
2300
,
3001
0001
0100
0100
,
0010
0010
0110
1001
,
1000
1000
0100
0100
,
0110
0110
1001
1001
,
1000
1000
0010
0010
,
0100
0100
0001
1001
,
0001
0001
0010
0010
,
0200
0000
0000
0000
1300
0001
1000
0010
,
0100
0000
0001
0000
,
1000
0000
0100
0000
,
0010
0000
0001
0000
,
1000
0000
0000
1000
0000
0000
0000
0000
0001
0000
0000
0001
0000
0000
0000
0000
,
2000
0010
3200
0010
,
2300
0000
0010
0000
3001
1000
0100
0010
,
0002
0010
0203
0010
,
0301
0000
0000
1000
0000
0000
0001
0000
1000
0000
0000
0000
1001
0000
0000
0000
,
0001
0000
0000
0001
0010
0000
0000
0010
,
0100
0000
0000
0100
0000
1000
0000
0001
,
1000
0000
0000
1000
0010
0000
0000
0010
,
0100
0000
0000
0000
0000
0000
0100
0000
0000
0000
0001
0000
0000
1000
0000
0000
,
0002
0010
2003
0010
,
3002
0010
2003
0010
,
3001
0010
0001
0000
1000
0010
1000
0000
,
0001
0010
0001
0000
1000
0010
0100
0000
,
0110
0000
0000
0000
;

//---------------dance-single - ----------------
#NOTEDATA:;
#CHARTNAME:;
#STEPSTYPE:dance-single;
#DESCRIPTION:;
#CHARTSTYLE:;
#DIFFICULTY:Beginner;
#METER:5;
#RADARVALUES:0.238675,0.326880,0.118040,0.317800,0.000000,184.000000,171.000000,13.000000,35.000000,0.000000,0.000000,0.000000,0.000000,0.000000,0.238675,0.326880,0.118040,0.317800,0.000000,184.000000,171.000000,13.000000,35.000000,0.000000,0.000000,0.000000,0.000000,0.000000;
#CREDIT:;
#NOTES:
0000
0000
0000
0000
,
0000
0000
0000
0000
,
0000
0000
0000
0000
,
0000
0000
0000
0000
,
2000
0000
3010
0100
,
0002
0000
0013
0100
,
1000
0000
0001
0000
,
0200
0000
0000
0300
,
0110
0000
0001
0000
,
0002
0000
1003
0000
,
2000
0000
3001
0000
,
0002
0000
1003
0000
,
2000
0000
3100
0010
,
0002
0000
0103
0010
,
2000
0000
0002
0000
,
3003
0000
0010
0010
,
1001
0000
2000
0000
,
0001
0000
3001
0000
,
1001
0000
0002
0000
,
1000
0000
1003
0000
,
1001
0000
0020
0000
,
0100
0100
0130
0000
,
1001
0000
0200
0000
,
0010
0010
0310
0000
,
1001
0000
1000
0000
,
1000
0001
0010
0000
,
0100
1000
0001
0000
,
0100
0010
1000
0000
,
1001
0000
0001
0000
,
0001
1000
0010
0000
,
0100
0001
1000
0000
,
0100
0010
0001
0001
,
0002
0003
0002
0003
,
0010
0001
0002
0003
,
2000
3000
2000
3000
,
0010
1000
2000
3000
,
0200
0300
0200
0300
,
1000
0001
0002
0003
,
0200
0300
0200
0300
,
0100
0100
0010
1000
,
0001
0001
0010
0000
,
0100
0100
1000
0000
,
0001
0001
0100
0000
,
0010
1000
0100
0000
,
1000
1000
0010
0000
,
0100
0100
0001
0000
,
1000
1000
0100
0000
,
0010
0010
0001
0001
,
1000
0000
1000
0000
,
1000
0010
0100
0000
,
0001
0000
0001
0000
,
0001
0010
0100
0000
,
1000
0000
1000
0000
,
1000
0100
0010
0000
,
0001
0000
0001
0000
,
0200
0000
0310
0010
,
2000
0000
3000
0000
,
0002
0000
0003
0000
,
0020
0000
0030
0000
,
0110
0000
1001
0000
,
1000
1000
0010
0000
,
0100
0100
0001
0000
,
1000
1000
0100
0000
,
0010
0001
0100
0000
,
0002
0003
0020
0030
,
0200
0300
1000
0001
,
2000
3000
0020
0030
,
0200
0300
0001
1000
,
0001
0000
0001
0000
,
1000
0000
1000
0000
,
1001
0000
0110
0000
,
1001
0000
0100
0010
,
1001
0000
0000
0000
;

//---------------dance-single - ----------------
#NOTEDATA:;
#CHARTNAME:;
#STEPSTYPE:dance-single;
#DESCRIPTION:;
#CHARTSTYLE:;
#DIFFICULTY:Hard;
#METER:16;
#RADARVALUES:0.854818,0.882577,0.308720,0.517561,1.098682,659.000000,625.000000,34.000000,57.000000,0.000000,0.000000,0.000000,0.000000,0.000000,0.854818,0.882577,0.308720,0.517561,1.098682,659.000000,625.000000,34.000000,57.000000,0.000000,0.000000,0.000000,0.000000,0.000000;
#CREDIT:;
#NOTES:
0000
0000
0000
0000
,
0000
0000
0000
0000
,
0000
0000
0000
0000
,
0000
0000
0000
0000
,
0002
0000
1000
0000
0013
0100
0010
0100
,
2000
0000
0001
0000
3010
0100
0010
0100
,
0001
1000
0100
0010
0001
1000
0001
0100
,
0020
0000
0000
0030
,
0110
0000
0000
0000
1000
0010
0100
0001
,
2000
0000
0000
0000
0001
0000
0000
3001
0000
0000
0010
0000
0100
0000
1000
0000
,
0002
0000
0000
0000
1000
0000
0000
1003
0000
0000
0010
0000
0100
0000
0001
0000
,
2000
0000
3001
1000
0100
1000
0001
0100
,
0002
0000
1000
0000
0013
0100
1000
0001
,
2000
0000
0001
0000
3010
0100
0001
1000
,
0100
0000
0100
0000
0010
0000
0010
0000
0001
0000
1000
0000
0010
0000
0100
0010
,
0200
0000
0000
0000
0000
0000
0000
0000
0301
1000
0100
0000
0010
0001
1000
0000
,
1001
0000
0000
0000
0001
0000
1000
0010
1000
0010
1000
0000
0001
0000
1000
0100
,
1000
0100
1000
0000
0001
0000
1000
0001
0100
0000
0001
1000
0100
0000
1000
0000
,
0020
0000
0000
0000
1030
0000
0001
0010
0001
0010
0001
0000
1000
0000
0001
0100
,
0001
0100
0001
0000
1000
0000
0001
1000
0100
0000
1000
0001
0100
0000
0010
0000
,
0110
0000
0000
1000
0010
0100
0001
0000
2000
0000
3200
0000
0320
0000
2030
0000
,
3020
0000
0230
0000
2300
0000
3002
0000
1003
0010
1000
0010
0100
0000
0001
0000
,
0020
0000
0000
0031
0010
0100
1000
0000
0002
0000
0203
0000
0320
0000
0032
0000
,
0023
0000
0230
0000
0302
0000
2003
0000
3001
0010
0001
0010
0100
0000
1000
0000
,
1001
0000
0000
0000
0001
0100
0010
0000
0100
0001
1000
0000
0001
0010
0100
0000
,
0010
0001
1000
0000
0001
0100
0010
0000
1000
0001
0010
0001
1000
0000
1000
0000
,
0010
1000
0100
0000
0010
0001
0100
0000
0010
1000
0100
0000
0010
0001
0100
0000
,
0001
1000
0100
0000
0010
0001
1000
0000
0010
0100
0001
1000
0100
0000
1000
0000
,
0020
0000
0000
0000
1030
0100
0010
0000
0100
1000
0001
0000
1000
0010
0100
0000
,
0010
1000
0001
0000
1000
0100
0010
0000
0001
1000
0010
1000
0001
0000
0001
0000
,
0010
0001
0100
0000
0010
1000
0100
0000
0010
0001
0100
0000
0010
1000
0001
1000
,
0100
0011
0101
1010
,
1001
0000
0001
0010
0001
0010
0200
0000
0310
0001
0010
0001
,
0200
0000
0301
0200
0000
0301
0020
0000
0130
1000
0001
1000
,
1001
0000
0001
0100
0001
0100
0020
0000
0130
0001
0100
0001
,
0020
0000
0130
2000
0000
3001
0100
0001
1000
0100
0000
0000
,
1001
0000
1000
0010
1000
0010
0200
0000
0310
1000
0010
1000
,
0200
0000
1300
0200
0000
1300
0020
0000
0130
0001
1000
0001
,
1001
0000
1000
0100
1000
0100
0020
0000
0130
1000
0100
1000
,
0020
0000
0000
0000
0230
0000
0000
0000
0301
0010
0001
0010
0100
1000
0100
1000
,
0001
0000
1000
0010
0000
1000
0010
0100
1000
0000
0100
0010
0000
0100
0010
1000
,
0001
0000
1000
0100
0000
1000
0100
0010
1000
0000
0010
0100
0010
0100
1000
0001
,
0100
0000
0010
1000
0000
0001
0010
0100
1000
0000
0001
0100
0010
0000
1000
0000
,
1010
0000
0000
0101
0000
0000
0011
0000
0010
0000
0100
0000
1000
0010
0100
0001
,
1000
0000
0001
0010
0000
0001
0010
0100
0001
0000
0100
0010
0000
0100
0010
0001
,
1000
0000
0001
0100
0000
0001
0100
0010
0001
0000
0010
0100
0010
0100
0001
1000
,
0100
0000
0010
0001
0000
1000
0010
0100
0001
0000
0010
0100
1000
0000
0001
0000
,
2001
0000
0000
3020
0000
0000
0230
0000
0000
0301
0010
0100
,
1000
0000
1000
0100
0010
0100
0001
0000
0001
0100
0010
0100
,
1000
0001
0100
0001
0100
0010
2000
0000
0000
3001
1000
1000
,
0001
0000
0001
0010
0100
0010
1000
0000
1000
0010
0100
0010
,
0001
0000
0000
0110
0000
0000
1000
0001
0001
1000
0000
0000
,
1001
0000
0001
0100
0010
0100
1000
0000
1000
0100
0010
0100
,
0001
1000
0100
1000
0100
0010
0001
0000
0010
0110
0000
0000
,
1001
0000
1000
0010
0100
0010
0001
0000
0001
0010
0100
0010
,
2000
0000
0000
0000
3002
0000
0000
0000
1003
0000
1000
0000
0001
0010
0100
1000
,
0002
0000
0000
0100
0000
0000
1003
0010
2000
0000
0000
0010
0000
0000
3001
0010
,
0002
0000
0000
0010
0000
0000
1003
0100
1000
0000
0000
0001
0100
0000
0010
0000
,
2000
0000
0000
0100
0000
3000
0001
0010
0002
0000
0000
0010
0000
0000
1003
0000
,
1010
0000
0000
0101
0000
0000
0011
0000
1100
0000
0000
1001
0000
0000
1000
0010
,
1000
0000
0001
0010
0000
0001
0010
0100
0001
0000
0100
0010
0000
0100
0010
0001
,
1000
0000
0001
0100
0000
0001
0100
0010
0001
0000
0010
0100
0010
0100
0001
1000
,
0100
0000
0010
0001
0000
1000
0010
0100
0001
0000
1000
0100
0010
0000
0001
0000
,
0011
0000
0000
1100
0000
0000
1010
0000
0010
0000
0100
0000
0001
0010
0100
1000
,
0002
0000
0000
0010
0000
0000
0103
0010
0200
0000
0000
0010
0000
0000
0301
1000
,
0001
0000
0000
0010
0000
0000
0110
0000
0000
0000
1001
0000
0000
0001
0100
0010
,
2000
0000
0000
0010
0000
0000
3100
0010
0200
0000
0000
0010
0000
0000
1300
0001
,
1000
0000
0000
0010
0000
0000
0110
0000
0000
0000
1001
0000
0000
1001
0000
0001
,
0010
0100
0000
0100
0000
0010
0001
1000
0001
0100
0000
0100
0000
0010
1000
0001
,
1000
0100
0000
0100
0000
0010
0001
1000
0001
0100
0000
0100
0000
0000
0010
0000
,
1001
0000
1000
0100
0000
0010
0001
0100
0001
0010
0001
0100
0000
0010
1000
0100
,
1000
0010
1000
0100
0000
0010
0001
0100
0001
0100
0010
0000
1000
0000
0000
0000
,
1001
0000
0000
0000
;
