#VERSION:0.83;
#TITLE:ロミとロボの宇宙飛行;
#SUBTITLE:;
#ARTIST:onoken;
#TITLETRANSLIT:Romi to robo no uchuuhikou;
#SUBTITLETRANSLIT:;
#ARTISTTRANSLIT:;
#GENRE:Artcore;
#ORIGIN:;
#CREDIT:;
#BANNER:Romi to robo no uchuuhikou.png;
#BACKGROUND:Romi to robo no uchuuhikou-bg.png;
#PREVIEWVID:;
#JACKET:Romi to robo no uchuuhikou-jacket.png;
#CDIMAGE:;
#DISCIMAGE:;
#LYRICSPATH:;
#CDTITLE:cdtitle.png;
#MUSIC:Romi to robo no uchuuhikou.ogg;
#OFFSET:-1.038000;
#SAMPLESTART:92.608002;
#SAMPLELENGTH:11.163000;
#SELECTABLE:YES;
#BPMS:0.000=172.000;
#STOPS:;
#DELAYS:;
#WARPS:;
#TIMESIGNATURES:0.000=4=4;
#TICKCOUNTS:0.000=4;
#COMBOS:0.000=1;
#SPEEDS:0.000=1.000=0.000=0;
#SCROLLS:0.000=1.000;
#FAKES:;
#LABELS:0.000=Song Start;
#BGCHANGES:;
#KEYSOUNDS:;
#ATTACKS:
;

//---------------dance-single - ----------------
#NOTEDATA:;
#CHARTNAME:;
#STEPSTYPE:dance-single;
#DESCRIPTION:;
#CHARTSTYLE:;
#DIFFICULTY:Beginner;
#METER:2;
#RADARVALUES:0.101177,0.167407,0.030138,0.271242,0.000000,94.000000,90.000000,4.000000,36.000000,0.000000,0.000000,0.000000,0.000000,0.000000,0.101177,0.167407,0.030138,0.271242,0.000000,94.000000,90.000000,4.000000,36.000000,0.000000,0.000000,0.000000,0.000000,0.000000;
#CREDIT:;
#NOTES:
// measure 0
0000
0000
0000
0000
,  // measure 1
0000
0000
0000
0000
,  // measure 2
0000
0000
0000
0000
,  // measure 3
0000
0000
0000
0000
,  // measure 4
0000
0000
0000
0000
,  // measure 5
0000
0000
0000
0000
,  // measure 6
0000
0000
0000
0000
,  // measure 7
0000
0000
0000
0000
,  // measure 8
1000
0000
0000
0000
,  // measure 9
0100
0000
0000
0000
,  // measure 10
0010
0000
0000
0000
,  // measure 11
0001
0000
0000
0000
,  // measure 12
0001
0000
0000
0000
,  // measure 13
0100
0000
0000
0000
,  // measure 14
0010
0000
0000
0000
,  // measure 15
1000
0000
0000
0000
,  // measure 16
0002
0000
0003
0000
,  // measure 17
0020
0000
0030
0000
,  // measure 18
0200
0000
0300
0000
,  // measure 19
2000
0000
3000
0000
,  // measure 20
2000
0000
3000
0000
,  // measure 21
0020
0000
0030
0000
,  // measure 22
0200
0000
0300
0000
,  // measure 23
0002
0000
0003
0000
,  // measure 24
2002
0000
3003
0000
,  // measure 25
0001
0000
0000
0000
,  // measure 26
1000
0000
0000
0000
,  // measure 27
0001
0000
0000
0000
,  // measure 28
1000
0000
2002
0000
,  // measure 29
3003
0000
1000
0000
,  // measure 30
0000
0000
0001
0000
,  // measure 31
0000
0000
1000
0000
,  // measure 32
0000
0000
0001
0000
,  // measure 33
0001
0000
0000
0000
,  // measure 34
0010
0000
0001
0000
,  // measure 35
1000
0000
0000
0000
,  // measure 36
0010
0000
1000
0000
,  // measure 37
0100
0000
0000
0000
,  // measure 38
0010
0000
0001
0000
,  // measure 39
0100
0000
0000
0000
,  // measure 40
0010
0000
1000
0000
,  // measure 41
0002
0000
0003
0000
,  // measure 42
0020
0000
0030
0000
,  // measure 43
0002
0000
0003
0000
,  // measure 44
0200
0000
0300
0000
,  // measure 45
0010
0000
0000
0000
,  // measure 46
1000
0000
0000
0000
,  // measure 47
0100
0000
0000
0000
,  // measure 48
0010
0000
0000
0000
,  // measure 49
0002
0000
0000
0000
,  // measure 50
0003
0000
0000
0000
,  // measure 51
2000
0000
0000
0000
,  // measure 52
3000
0000
0000
0000
,  // measure 53
0020
0000
0000
0000
,  // measure 54
0030
0000
0000
0000
,  // measure 55
0200
0000
0000
0000
,  // measure 56
0300
0000
0000
0000
,  // measure 57
0001
0000
1000
0000
,  // measure 58
0001
0000
0000
0000
,  // measure 59
1000
0000
0001
0000
,  // measure 60
1000
0000
0000
0000
,  // measure 61
0100
0000
0100
0000
,  // measure 62
0100
0000
0000
0000
,  // measure 63
0010
0000
0100
0000
,  // measure 64
0010
0000
0000
0000
,  // measure 65
0220
0000
0000
0000
,  // measure 66
0330
0000
0000
0000
,  // measure 67
0000
0000
0000
0000
,  // measure 68
1001
0000
0002
0000
,  // measure 69
0003
0000
2000
0000
,  // measure 70
3000
0000
0010
0000
,  // measure 71
0000
0000
0100
0000
,  // measure 72
0100
0000
0000
0000
,  // measure 73
0001
0000
1000
0000
,  // measure 74
0200
0000
0300
0000
,  // measure 75
0020
0000
0030
0000
,  // measure 76
0001
0000
0001
0000
,  // measure 77
1000
0000
1000
0000
,  // measure 78
0020
0000
0030
0000
,  // measure 79
0200
0000
0300
0000
,  // measure 80
0002
0000
0003
0000
,  // measure 81
1000
1000
1000
0000
,  // measure 82
0002
0000
0003
0000
,  // measure 83
0020
0000
0030
0000
,  // measure 84
0200
0000
0300
0000
,  // measure 85
2000
0000
3000
0000
,  // measure 86
0020
0000
0030
0000
,  // measure 87
0200
0000
0300
0000
,  // measure 88
0002
0000
0000
0000
0000
0000
0000
0003
;

//---------------dance-single - ----------------
#NOTEDATA:;
#CHARTNAME:;
#STEPSTYPE:dance-single;
#DESCRIPTION:;
#CHARTSTYLE:;
#DIFFICULTY:Easy;
#METER:5;
#RADARVALUES:0.223882,0.267851,0.037672,0.384259,0.000000,208.000000,203.000000,5.000000,51.000000,0.000000,0.000000,0.000000,0.000000,0.000000,0.223882,0.267851,0.037672,0.384259,0.000000,208.000000,203.000000,5.000000,51.000000,0.000000,0.000000,0.000000,0.000000,0.000000;
#CREDIT:;
#NOTES:
// measure 0
0000
0000
0000
0000
,  // measure 1
0000
0000
0000
0000
,  // measure 2
0000
0000
0000
0000
,  // measure 3
0000
0000
0000
0000
,  // measure 4
0000
0000
0000
0000
,  // measure 5
0000
0000
0000
0000
,  // measure 6
0000
0000
0000
0000
,  // measure 7
0000
0000
0000
0000
,  // measure 8
2000
0000
0000
3000
0000
0000
0000
0000
,  // measure 9
0200
0000
0000
0300
0000
0000
0000
0000
,  // measure 10
0020
0000
0000
0030
0000
0000
0000
0000
,  // measure 11
0002
0000
0000
0003
0000
0000
1000
0000
,  // measure 12
0002
0000
0000
0003
0000
0000
0000
0000
,  // measure 13
0200
0000
0000
0300
0000
0000
0000
0000
,  // measure 14
0020
0000
0000
0030
0000
0000
0000
0000
,  // measure 15
2000
0000
0000
3000
0000
0000
0001
0000
,  // measure 16
0020
0000
0000
0030
0100
0000
0010
0000
,  // measure 17
0200
0000
0000
0300
1000
0000
0001
0000
,  // measure 18
2000
0000
0000
3000
0001
0000
0100
0000
,  // measure 19
0020
0000
0000
0030
1000
0000
1000
0000
,  // measure 20
0020
0000
0000
0030
0100
0000
0010
0000
,  // measure 21
0200
0000
0000
0300
0001
0000
1000
0000
,  // measure 22
0002
0000
0000
0003
1000
0000
0100
0000
,  // measure 23
0020
0000
0000
0030
0001
0000
1000
0000
,  // measure 24
2002
0000
3003
0000
,  // measure 25
0001
0000
0001
0000
,  // measure 26
0001
0100
0010
0100
,  // measure 27
0001
0000
0001
0001
,  // measure 28
0001
0000
2002
0000
,  // measure 29
3003
0000
1000
0000
,  // measure 30
1000
0000
1000
0100
,  // measure 31
0010
0100
1000
0000
,  // measure 32
1000
1000
1000
0000
,  // measure 33
0002
0003
0200
0300
,  // measure 34
0001
0100
0010
0000
,  // measure 35
2000
3000
0200
0300
,  // measure 36
1000
0100
0010
0000
,  // measure 37
0002
0003
2000
3000
,  // measure 38
0001
0001
0100
0010
,  // measure 39
2000
3000
0002
0003
,  // measure 40
1000
0100
0010
0000
,  // measure 41
0002
0003
0200
0300
,  // measure 42
1000
0000
0100
0001
,  // measure 43
2000
3000
0200
0300
,  // measure 44
0001
0000
0100
1000
,  // measure 45
0002
0003
0002
0103
,  // measure 46
0200
0300
0200
0310
,  // measure 47
0020
0030
0020
1030
,  // measure 48
2000
3000
0001
1000
,  // measure 49
0200
0000
0000
0300
,  // measure 50
0010
0000
0010
0001
,  // measure 51
2000
0000
0000
3000
,  // measure 52
0001
0000
1000
0001
,  // measure 53
0200
0000
0000
0300
,  // measure 54
0010
0000
0010
1000
,  // measure 55
0002
0000
0000
0003
,  // measure 56
1000
0000
0001
1000
,  // measure 57
0100
0000
0100
0000
,  // measure 58
0100
1000
0001
1000
,  // measure 59
0010
0000
0100
0000
,  // measure 60
0100
0001
1000
0001
,  // measure 61
0010
0010
0010
0000
,  // measure 62
0100
0100
0100
0000
,  // measure 63
1000
0001
0100
0010
,  // measure 64
1000
0000
0010
1000
,  // measure 65
0200
0000
0000
0000
,  // measure 66
0300
0000
0000
0000
,  // measure 67
0000
0000
0100
0010
,  // measure 68
1001
0000
0001
0100
,  // measure 69
0010
0000
1000
0100
,  // measure 70
0010
0000
0001
0000
,  // measure 71
1000
0001
0100
0000
,  // measure 72
0001
1000
0100
0000
,  // measure 73
0010
0010
0001
0001
,  // measure 74
1000
0000
0001
0100
,  // measure 75
0010
0000
0010
1000
,  // measure 76
0100
0000
1000
0100
,  // measure 77
0010
0000
0010
0001
,  // measure 78
0100
0000
1001
0000
,  // measure 79
0010
0000
1001
0000
,  // measure 80
0100
0000
0001
1000
,  // measure 81
0001
0100
0010
1000
,  // measure 82
0200
0000
0000
0300
0010
0000
0100
0000
,  // measure 83
0020
0000
0000
0030
0001
0000
1000
0000
,  // measure 84
0002
0000
0000
0003
1000
0000
0010
0000
,  // measure 85
0200
0000
0000
0300
0001
0000
0001
0000
,  // measure 86
0200
0000
0000
0300
0010
0000
0100
0000
,  // measure 87
0020
0000
0000
0030
1000
0000
0001
0000
,  // measure 88
0020
0000
0000
0000
0000
0000
0000
0030
;

//---------------dance-single - ----------------
#NOTEDATA:;
#CHARTNAME:;
#STEPSTYPE:dance-single;
#DESCRIPTION:;
#CHARTSTYLE:;
#DIFFICULTY:Medium;
#METER:7;
#RADARVALUES:0.308914,0.401777,0.052741,0.293845,0.000000,287.000000,280.000000,7.000000,39.000000,0.000000,0.000000,0.000000,0.000000,0.000000,0.308914,0.401777,0.052741,0.293845,0.000000,287.000000,280.000000,7.000000,39.000000,0.000000,0.000000,0.000000,0.000000,0.000000;
#CREDIT:;
#NOTES:
// measure 0
0000
0000
0000
0000
,  // measure 1
0000
0000
0000
0000
,  // measure 2
0000
0000
0000
0000
,  // measure 3
0000
0000
0000
0000
,  // measure 4
0000
0000
0000
0000
,  // measure 5
0000
0000
0000
0000
,  // measure 6
0000
0000
0000
0000
,  // measure 7
0000
0000
0000
2000
,  // measure 8
3001
0000
0000
0001
0000
0000
0001
0000
,  // measure 9
0010
0000
0000
0010
0000
0000
0010
0000
,  // measure 10
0100
0000
0000
0100
0000
0000
0100
0000
,  // measure 11
1000
0000
0000
0001
0000
0000
1000
0000
,  // measure 12
1000
0000
0000
1000
0000
0000
1000
0000
,  // measure 13
0010
0000
0000
0010
0000
0000
0010
0000
,  // measure 14
0100
0000
0000
0100
0000
0000
0100
0000
,  // measure 15
0001
0000
0000
1000
0000
0000
0001
0000
,  // measure 16
0001
0000
0000
0010
0000
0000
0100
0000
,  // measure 17
0010
0000
0000
0100
0000
0000
1000
0000
,  // measure 18
0010
0000
0000
0100
0000
0000
0001
0000
,  // measure 19
1000
0000
0000
0100
0000
0000
0010
0000
,  // measure 20
0001
0000
0000
0100
0000
0000
0010
0000
,  // measure 21
0100
0000
0000
0010
0000
0000
1000
0000
,  // measure 22
0100
0000
0000
0010
0000
0000
0001
0000
,  // measure 23
0100
0000
0000
0010
0000
0000
1000
0000
,  // measure 24
2000
0000
3000
0000
1010
0000
0000
0001
,  // measure 25
0000
0001
1000
0001
,  // measure 26
0010
0100
0010
0001
,  // measure 27
0000
0001
0000
0000
0001
0000
0100
0000
,  // measure 28
0010
1000
0200
0300
,  // measure 29
0011
0000
0000
1000
0000
0000
1000
0000
,  // measure 30
0001
1000
0010
0100
,  // measure 31
0010
0000
1000
0000
0000
1000
0000
1000
,  // measure 32
0000
0100
0010
0001
,  // measure 33
2000
0000
3000
0020
0000
0030
0100
0000
,  // measure 34
0001
0000
0000
0000
1000
0001
1000
0000
,  // measure 35
0002
0000
0003
0020
0000
0030
0100
0000
,  // measure 36
1000
0000
0000
0000
0001
1000
0001
0000
,  // measure 37
0200
0000
0300
0020
0000
0030
1000
0000
,  // measure 38
0010
0100
0001
1000
,  // measure 39
0200
0000
0300
0020
0000
0030
0001
0000
,  // measure 40
1000
0000
0000
0000
0001
1000
0001
0000
,  // measure 41
2000
0000
3000
0020
0000
0030
0001
0000
,  // measure 42
0001
0000
0000
0010
0000
0000
1000
0000
,  // measure 43
0002
0000
0003
0020
0000
0030
1000
0000
,  // measure 44
1000
0000
0000
0010
0000
0000
0001
0000
,  // measure 45
0002
0000
0003
0200
0000
0300
0010
0000
,  // measure 46
2000
0000
3000
0200
0000
0300
0010
0000
,  // measure 47
0002
0000
0003
2000
0000
3000
0001
0000
,  // measure 48
0200
0300
0010
0110
,  // measure 49
1000
0000
0000
1000
0000
0000
0010
0000
,  // measure 50
0100
0000
0000
0010
0100
0000
0001
0000
,  // measure 51
1000
0000
0000
0100
0000
0000
0010
0000
,  // measure 52
0001
0000
0000
0100
0000
0000
0100
0000
,  // measure 53
0001
0000
0000
0001
0000
0000
0010
0000
,  // measure 54
0100
0000
0000
0010
0100
0000
1000
0000
,  // measure 55
0001
0000
0000
0100
0000
0000
0010
0000
,  // measure 56
1000
0000
0000
0100
0000
0000
0100
0000
,  // measure 57
1000
0001
0001
0001
,  // measure 58
1000
0001
0100
0010
,  // measure 59
1000
0100
0010
0100
,  // measure 60
0100
0010
0001
1000
,  // measure 61
0001
0100
0100
0100
,  // measure 62
0010
1000
0001
0010
,  // measure 63
0100
1000
0010
0100
,  // measure 64
0100
0001
1000
0100
,  // measure 65
0020
0000
0000
0000
0030
0001
1000
0002
,  // measure 66
0000
0000
0103
0020
0000
2030
0000
3002
,  // measure 67
0000
0000
0023
0000
0130
1000
0000
2002
,  // measure 68
0000
0000
3003
0000
1000
0010
0000
0200
,  // measure 69
0000
0300
0001
0000
0001
0010
0000
0100
,  // measure 70
0000
0000
0000
2000
0000
3001
0100
0000
,  // measure 71
0020
0000
0030
0100
0000
0100
0000
0000
,  // measure 72
0002
0000
0003
2000
0000
3000
0001
0000
,  // measure 73
0010
0000
0100
0000
1000
0000
0001
1000
,  // measure 74
0001
0000
0100
0000
0010
0000
1000
0010
,  // measure 75
1000
0000
0100
0000
0010
0000
0001
0010
,  // measure 76
0001
0000
1000
0000
0001
0100
0000
0001
,  // measure 77
0100
0000
0010
0000
1000
0100
0000
1000
,  // measure 78
0100
0000
0000
0110
0000
0000
0001
1000
,  // measure 79
0001
0000
0000
0110
0000
0000
1000
0001
,  // measure 80
1000
0000
0000
1001
0000
0000
1000
0010
,  // measure 81
0200
0302
0023
0230
,  // measure 82
1300
0000
0000
0010
0000
0000
0100
0000
,  // measure 83
0010
0000
0000
0100
0000
0000
0001
0000
,  // measure 84
0010
0000
0000
0100
0000
0000
1000
0000
,  // measure 85
0001
0000
0000
0100
0000
0000
0010
0000
,  // measure 86
1000
0000
0000
0100
0000
0000
0010
0000
,  // measure 87
0100
0000
0000
0010
0000
0000
0001
0000
,  // measure 88
0100
0000
0000
0001
0000
0000
0100
1000
;

//---------------dance-single - ----------------
#NOTEDATA:;
#CHARTNAME:;
#STEPSTYPE:dance-single;
#DESCRIPTION:;
#CHARTSTYLE:;
#DIFFICULTY:Hard;
#METER:12;
#RADARVALUES:0.452069,0.535702,0.067810,0.437000,0.075345,420.000000,411.000000,9.000000,58.000000,0.000000,0.000000,0.000000,0.000000,0.000000,0.452069,0.535702,0.067810,0.437000,0.075345,420.000000,411.000000,9.000000,58.000000,0.000000,0.000000,0.000000,0.000000,0.000000;
#CREDIT:;
#NOTES:
// measure 0
0000
0000
0000
0000
,  // measure 1
0000
0000
0000
0000
,  // measure 2
0000
0000
0000
0000
,  // measure 3
0000
0000
0000
0000
,  // measure 4
0000
0000
0000
0000
,  // measure 5
0000
0000
0000
0000
,  // measure 6
0000
0000
0000
0000
,  // measure 7
0000
0000
0000
2000
,  // measure 8
3001
0000
0000
0010
0000
0000
0100
0000
,  // measure 9
0010
0000
0000
0100
0000
0000
1000
0000
,  // measure 10
0010
0000
0000
0100
0000
0000
0001
0000
,  // measure 11
1000
0000
0000
0000
0000
0000
0000
0000
0000
0100
0000
0000
0000
0000
0000
0000
0000
0000
1000
0000
0001
0000
1000
0000
,  // measure 12
0001
0000
0000
0100
0000
0000
0010
0000
,  // measure 13
0100
0000
0000
0010
0000
0000
1000
0000
,  // measure 14
0100
0000
0000
0010
0000
0000
0001
0000
,  // measure 15
0100
0000
0000
0010
0000
0000
0010
1000
,  // measure 16
0002
0000
0000
0010
0000
0000
1000
0000
,  // measure 17
2003
0000
0000
0100
0000
0000
0001
0000
,  // measure 18
3002
0000
0000
1000
0000
0000
0203
0000
,  // measure 19
1000
0000
0000
0000
0000
0000
0000
0000
0000
0010
0000
0000
0000
0000
0000
0000
0000
0000
0301
0000
1000
0000
0001
0000
,  // measure 20
2000
0000
0000
0100
0000
0000
0001
0000
,  // measure 21
3002
0000
0000
0010
0000
0000
1000
0000
,  // measure 22
2003
0000
0000
0001
0000
0000
3020
0000
,  // measure 23
0001
0000
0000
0100
0000
0000
1030
0000
,  // measure 24
2002
0000
3003
0000
1001
0000
0001
0010
,  // measure 25
0000
0001
0010
0000
0010
0001
1000
0001
,  // measure 26
0200
0000
1000
0000
0301
1000
0001
0000
,  // measure 27
0001
0010
0000
0100
1000
0000
0001
0000
,  // measure 28
1000
0010
0001
0010
0200
0000
0300
0000
,  // measure 29
0110
0000
1000
0010
0000
1000
0010
0000
,  // measure 30
0010
1000
0001
1000
0200
0000
0001
0000
,  // measure 31
1300
0001
1000
0000
1000
0010
0000
0100
,  // measure 32
0000
0001
1000
0000
0001
0010
1000
0010
,  // measure 33
0002
0010
0003
2000
0100
3000
0001
0000
,  // measure 34
1000
0000
0001
0000
1000
0000
0001
0000
0000
0000
0000
0000
1000
0000
0000
0010
0000
0000
0100
0000
0000
0001
0000
0000
,  // measure 35
2000
0010
3000
0002
0100
0003
1000
0000
,  // measure 36
0001
0000
1000
0000
0001
0000
1000
0000
0000
0000
0000
0000
0001
0000
0000
0010
0000
0000
0100
0000
0000
1000
0000
0000
,  // measure 37
0020
0000
0000
1000
0000
0000
0030
0000
0000
0200
0000
0000
0001
0000
0000
0300
0000
0000
0010
0000
1000
0000
0010
0000
,  // measure 38
1000
0000
0000
0001
0010
0001
0010
0000
0000
0100
0000
0000
,  // measure 39
0020
0001
0030
0200
1000
0300
0010
0000
,  // measure 40
0001
0000
1000
0000
0001
0000
1000
0000
0000
0000
0000
0000
0001
0000
0000
0100
0000
0000
0010
0000
0000
1000
0000
0000
,  // measure 41
0002
0000
0000
0000
0010
0000
0000
0000
0003
0000
0000
0000
2000
0000
0000
0000
0010
0000
0000
3000
1000
0000
0000
0000
0200
0000
0000
0000
0000
0000
0000
0000
,  // measure 42
0302
0000
0103
0010
0100
1000
0001
0000
,  // measure 43
2000
0000
0000
0000
0010
0000
0000
0000
3000
0000
0000
0000
0002
0000
0000
0000
0010
0000
0000
0003
0001
0000
0000
0000
0200
0000
0000
0000
0000
0000
0000
0000
,  // measure 44
2300
0000
3100
0010
0100
0001
1000
0000
,  // measure 45
0002
0010
0003
2000
0100
3000
1000
0100
,  // measure 46
2000
0010
3000
0002
0100
0003
0001
0100
,  // measure 47
0002
0010
0003
2000
0010
3000
0100
0010
,  // measure 48
2002
0000
0000
3003
0000
0000
1000
0001
1000
0001
0000
0000
,  // measure 49
1000
0000
0000
0010
0000
0000
1000
0000
,  // measure 50
0100
0000
0000
0010
0001
0000
0011
0000
,  // measure 51
1000
0000
0000
0010
0000
0000
1000
0000
,  // measure 52
0100
1000
0000
0001
0100
0000
0001
1000
,  // measure 53
0001
0000
0000
0010
0000
0000
0001
0000
,  // measure 54
0100
0000
0000
0010
1000
0000
1010
0000
,  // measure 55
0001
0000
0000
0010
0000
0000
0001
0000
,  // measure 56
0100
0001
0000
1000
0100
0000
1000
0001
,  // measure 57
1000
0000
0001
0100
0001
0100
0010
0000
,  // measure 58
1000
0100
1000
0100
0010
0000
0001
1000
,  // measure 59
0001
0000
1000
0010
0100
0010
1000
0001
,  // measure 60
0010
0000
0001
0010
0100
0010
0001
1000
,  // measure 61
0010
0000
1000
0010
0001
0010
1000
0000
,  // measure 62
0001
1000
0001
0000
1000
0100
0001
0100
,  // measure 63
1000
0000
0001
0100
1000
0100
0001
0000
,  // measure 64
1000
0001
1000
0000
0001
0010
1000
0010
,  // measure 65
0200
0000
0000
0000
0000
0320
0032
2003
,  // measure 66
0000
0000
3002
0203
0000
0320
0000
2030
,  // measure 67
0000
0000
3002
0000
1003
0100
0010
0001
,  // measure 68
1000
0000
0010
0100
0010
0001
0000
0010
,  // measure 69
1000
0000
0001
0000
1000
0100
0000
0001
,  // measure 70
0100
0000
1000
0001
0000
0001
0100
0010
,  // measure 71
1000
0000
0001
0010
0000
0100
0000
0010
,  // measure 72
0002
0000
1000
2003
0000
3010
1000
0100
,  // measure 73
0010
0000
0110
0000
1001
0000
0001
1000
,  // measure 74
0001
0000
1000
0010
0100
0001
1000
0001
,  // measure 75
0010
0000
0100
1000
0001
0100
0010
1000
,  // measure 76
0001
0000
1000
0000
0001
0010
1000
0010
,  // measure 77
0001
0000
1000
0000
0001
0100
1000
0100
,  // measure 78
0001
0000
1000
0100
0010
0100
1000
0010
,  // measure 79
1000
0000
0001
0100
0010
0100
0001
0010
,  // measure 80
0001
0000
1000
0010
0010
0100
0001
1000
,  // measure 81
0200
0000
0000
0320
0000
0000
0130
0010
0001
1000
0000
0000
,  // measure 82
2001
0000
0000
0010
0000
0000
0001
0000
,  // measure 83
3002
0000
0000
0100
0000
0000
1000
0000
,  // measure 84
2003
0000
0000
0001
0000
0000
3200
0000
,  // measure 85
0001
0000
0000
0000
0000
0000
0000
0000
0000
0010
0000
0000
0000
0000
0000
0000
0000
0000
1300
0000
0001
0000
1000
0000
,  // measure 86
0002
0000
0000
0100
0000
0000
1000
0000
,  // measure 87
2003
0000
0000
0010
0000
0000
0001
0000
,  // measure 88
3002
0000
0000
1003
0100
1000
0100
0001
;

//---------------dance-single - ----------------
#NOTEDATA:;
#CHARTNAME:;
#STEPSTYPE:dance-single;
#DESCRIPTION:;
#CHARTSTYLE:;
#DIFFICULTY:Challenge;
#METER:15;
#RADARVALUES:0.657653,0.736590,0.022603,0.437000,0.455837,611.000000,608.000000,3.000000,58.000000,0.000000,0.000000,0.000000,0.000000,0.000000,0.657653,0.736590,0.022603,0.437000,0.455837,611.000000,608.000000,3.000000,58.000000,0.000000,0.000000,0.000000,0.000000,0.000000;
#CREDIT:;
#NOTES:
// measure 0
0000
0000
0000
0000
,  // measure 1
0000
0000
0000
0000
,  // measure 2
0000
0000
0000
0000
,  // measure 3
0000
0000
0000
0000
,  // measure 4
0000
0000
0000
0000
,  // measure 5
0000
0000
0000
0000
,  // measure 6
0000
0000
0000
0000
,  // measure 7
0000
0000
0000
0000
0000
0000
0000
0000
0000
0000
0000
0000
1000
0100
0010
0001
,  // measure 8
1000
0000
0001
0100
0000
0001
0010
0000
,  // measure 9
0100
0000
1000
0001
0000
0100
0010
0000
,  // measure 10
1000
0000
0001
0010
0000
0100
0010
0000
,  // measure 11
1000
0000
0000
0000
0000
0000
0010
0000
0000
0001
0000
0000
0000
0000
0000
0001
0000
0000
1000
0000
0010
0000
0100
0000
,  // measure 12
0001
0000
1000
0100
0000
1000
0010
0000
,  // measure 13
0100
0000
0001
1000
0000
0100
0010
0000
,  // measure 14
0001
0000
1000
0010
0000
0100
0010
0000
,  // measure 15
0001
0000
0000
0000
0010
0000
1000
0000
0000
0000
1000
0000
0001
0010
0100
1000
,  // measure 16
0001
0000
1000
0010
1000
0000
0010
0000
0000
0000
0100
0000
0001
0000
0000
0000
,  // measure 17
1000
0000
0100
0010
0100
0000
0010
0000
0000
0000
0001
0000
1000
0000
0000
0000
,  // measure 18
0001
0000
0100
0010
0100
0000
0001
0000
0000
0000
1000
0000
0100
0000
0000
0000
,  // measure 19
0001
0000
0000
0000
0000
0000
0100
0000
0000
0010
0000
0000
0100
0000
0000
0000
0000
0000
1000
0000
0000
0000
0000
0000
0000
0000
0000
0000
0000
0000
1000
0000
0000
0000
0000
0000
0001
0000
0000
0000
0100
0000
0000
0000
0010
0000
0000
0000
,  // measure 20
1000
0000
0001
0010
0001
0000
0010
0000
0000
0000
0100
0000
1000
0000
0000
0000
,  // measure 21
0001
0000
0100
0010
0100
0000
0010
0000
0000
0000
1000
0000
0001
0000
0000
0000
,  // measure 22
1000
0000
0100
0010
0100
0000
1000
0000
0000
0000
0001
0000
0100
0000
0000
0000
,  // measure 23
1000
0000
0100
0010
0100
0000
0001
0000
0000
0000
1000
0000
0001
0000
0010
0000
,  // measure 24
0100
0000
0000
0000
0100
0000
0000
0000
0100
0000
1000
0000
0001
0000
0000
0000
0000
0000
2000
0000
0000
0010
0000
0000
,  // measure 25
3000
0000
0002
0000
0010
0000
0003
0000
1000
0000
0010
0100
0010
0000
1000
0000
,  // measure 26
0001
0000
0000
0010
0000
0000
1000
0000
0000
0010
0000
0000
0001
0000
0000
1000
0000
0000
0001
0000
0100
0000
0010
0000
,  // measure 27
2000
0000
0100
0000
3000
0000
0002
0000
0100
0000
1003
0010
0100
0000
0001
0000
,  // measure 28
0010
0000
0000
0010
0000
0000
0100
0000
0000
0100
0000
0000
1000
0000
0000
0000
1000
0000
0000
0000
1000
0000
0010
0000
,  // measure 29
0100
0000
0002
0010
0003
2000
0010
3000
,  // measure 30
0001
0000
0010
0100
0010
0000
0001
0000
1000
0000
0010
0000
0001
0000
0010
0000
,  // measure 31
1000
0002
0100
0003
2000
0100
3000
0002
,  // measure 32
0000
0000
0013
0100
1000
0000
0001
0000
0100
0000
0100
0000
0001
0100
0010
1000
,  // measure 33
0002
0000
0000
0010
0000
0000
0003
0000
0000
2000
0000
0000
0100
0000
0000
3000
0000
0000
0001
0000
0010
0000
0100
0000
,  // measure 34
1000
0000
0000
0000
0001
0000
0000
0000
1000
0000
0000
0000
0010
0000
0000
0000
0000
0000
0000
0000
0000
0000
0000
0000
1000
0000
0000
0000
0000
0000
0100
0000
0000
0000
0000
0000
1000
0000
0000
0100
0000
0000
0010
0000
0000
0001
0000
0000
,  // measure 35
2000
0000
0000
0010
0000
0000
3000
0000
0000
0002
0000
0000
0100
0000
0000
0003
0000
0000
1000
0000
0010
0000
0100
0000
,  // measure 36
0001
0000
0000
0000
1000
0000
0000
0000
0001
0000
0000
0000
0010
0000
0000
0000
0000
0000
0000
0000
0000
0000
0000
0000
0001
0000
0000
0000
0000
0000
0100
0000
0000
0000
0000
0000
0010
0000
0000
1000
0000
0000
0001
0000
0000
1000
0000
0000
,  // measure 37
0200
0000
0000
0010
0000
0000
0300
0000
0000
2000
0000
0000
0001
0000
0000
3000
0000
0000
0010
0000
0100
0000
0010
0000
,  // measure 38
1000
0001
1000
0100
0010
0100
1000
0001
1000
0010
0100
0010
,  // measure 39
0200
0000
0000
0010
0000
0000
0300
0000
0000
0002
0000
0000
1000
0000
0000
0003
0000
0000
0010
0000
0100
0000
1000
0000
,  // measure 40
0001
0000
0000
0000
0100
0000
0000
0000
0010
0000
0000
0000
1000
0000
0000
0000
0000
0000
0000
0000
0000
0000
0000
0000
0001
0000
0000
0000
0000
0000
0010
0000
0000
0000
0000
0000
0100
0000
0000
1000
0000
0000
0001
0000
0000
1000
0000
0000
,  // measure 41
0020
0000
0000
0000
0100
0000
0000
0000
0030
0000
0000
0000
2000
0000
0000
0000
0001
0000
0000
3000
1000
0000
0000
0000
0200
0000
0000
0000
0000
0000
0000
0000
,  // measure 42
0301
0000
0000
0000
0100
0000
0000
0000
0010
0000
0000
0000
0100
0000
0000
0000
0000
0000
2000
0000
0000
0000
0000
0000
0000
0000
0000
0000
0000
0000
3010
0000
0000
0000
0000
0000
0100
0000
0000
0001
0000
0000
1000
0000
0000
0001
0000
0000
,  // measure 43
0020
0000
0000
0000
0100
0000
0000
0000
0030
0000
0000
0000
0002
0000
0000
0000
1000
0000
0000
0003
0001
0000
0000
0000
0200
0000
0000
0000
0000
0000
0000
0000
,  // measure 44
1300
0000
0000
0000
0100
0000
0000
0000
0010
0000
0000
0000
0100
0000
0000
0000
0000
0000
0002
0000
0000
0000
0000
0000
0000
0000
0000
0000
0000
0000
0013
0000
0000
0000
0000
0000
0001
0000
0000
0010
0000
0000
0100
0000
0000
1000
0000
0000
,  // measure 45
0002
0000
0100
0000
0003
0000
2000
0000
0010
0000
3000
0000
1000
0010
0100
0001
,  // measure 46
2000
0000
0100
0000
3000
0000
0002
0000
0010
0000
0003
0000
0001
0010
0100
1000
,  // measure 47
0002
0000
0100
0000
0003
0000
2000
0000
0100
0000
3000
0000
0001
1000
0001
1000
,  // measure 48
0010
0000
0000
1000
0000
0000
0100
0000
0000
0010
0000
0000
0001
0000
0100
0000
0010
0000
1000
0000
0000
0000
0000
0000
,  // measure 49
1000
0010
1000
0100
0000
0010
0001
0000
,  // measure 50
1000
0100
0000
1000
0010
0000
0100
0010
,  // measure 51
1000
0001
0010
0100
0000
1000
0001
0000
,  // measure 52
0100
0010
0000
0010
0000
0100
0010
1000
,  // measure 53
0001
0010
0001
0100
0000
0010
1000
0000
,  // measure 54
0001
0100
0000
0001
0010
0000
0100
0010
,  // measure 55
0001
1000
0010
0100
0000
0001
1000
0000
,  // measure 56
0100
0000
0010
0000
0000
0000
0010
0000
0000
0000
0001
0000
1000
0100
0010
0001
,  // measure 57
1000
0000
0001
0100
0001
1000
0100
0000
,  // measure 58
0100
0000
1000
0001
1000
0000
0010
0000
0100
0000
0010
0000
0001
0000
0010
0000
,  // measure 59
1000
0000
0100
0010
0001
0100
0001
0100
,  // measure 60
0010
0000
1000
0001
1000
0000
0100
0000
0010
0000
1000
0000
0010
0000
0001
0000
,  // measure 61
1000
1000
1000
0010
1000
1000
0100
1000
,  // measure 62
0001
0000
1000
0010
0100
0000
0001
0000
1000
0000
0100
0000
0001
0000
0100
0000
,  // measure 63
1000
1000
0001
1000
1000
0010
1000
0100
,  // measure 64
1000
0000
0001
0100
0010
0000
1000
0000
0010
0000
0001
0000
0010
0000
1000
0000
,  // measure 65
0200
0000
0000
0000
0000
2300
3200
0302
,  // measure 66
0000
0000
2003
3020
0000
0032
0000
0203
,  // measure 67
0000
0000
0000
2300
0000
0000
3001
0010
1000
0001
0100
0010
,  // measure 68
1000
0000
0000
0000
0001
0010
0100
1000
0001
0000
0020
0030
0000
0000
0020
0030
,  // measure 69
1000
0000
0000
0000
0010
0000
0000
0000
1000
0000
0000
0000
0010
0000
0000
0000
0100
0000
0000
0000
0001
0000
0000
0000
1000
0000
0000
0000
0000
0000
0020
0000
0000
0030
0000
0000
0000
0000
0000
0000
0000
0000
0020
0000
0000
0030
0000
0000
,  // measure 70
0001
0000
0000
0000
1000
0001
0200
0000
0000
0000
0310
0000
1000
0000
0001
0000
,  // measure 71
0010
0000
0000
0000
0100
0000
0000
0000
0010
0000
0000
0000
0001
0000
0000
0000
0000
0000
0100
0000
0000
0000
0000
0000
0000
0000
0000
0000
0000
0000
0110
0000
0000
0000
0000
0000
0000
0000
0000
0000
0000
0000
0010
0000
0000
1000
0000
0000
,  // measure 72
0200
0000
0000
0000
0010
0000
0310
0000
0000
0000
0001
0010
0100
1000
0010
0100
,  // measure 73
0001
0000
1001
0000
1100
0000
0100
0010
,  // measure 74
0002
0000
1003
0010
0001
1000
0100
0001
,  // measure 75
2000
0000
3001
0010
1000
0001
0100
1000
,  // measure 76
0002
0000
0000
0000
1003
0010
0100
0001
1000
0000
0020
0030
0000
0000
0020
0030
,  // measure 77
0001
0000
0000
0000
0010
0000
0000
0000
0001
0000
0000
0000
0010
0000
0000
0000
0100
0000
0000
0000
1000
0000
0000
0000
0001
0000
0000
0000
0000
0000
0020
0000
0000
0030
0000
0000
0000
0000
0000
0000
0000
0000
0020
0000
0000
0030
0000
0000
,  // measure 78
1000
0000
0100
0000
0100
0000
1000
0000
0010
0000
0010
0000
1000
0000
0001
0010
,  // measure 79
0001
0000
0100
0000
0100
0000
0001
0000
0010
0000
0010
0000
0001
0000
1000
0010
,  // measure 80
1000
0000
0100
0000
0010
0000
0001
0000
0100
0000
0010
0000
1000
0000
0001
0010
,  // measure 81
0001
0000
0000
0000
0020
0030
0000
0000
0020
0030
0000
0000
1000
0000
0000
0000
0200
0300
0000
0000
0200
0300
0000
0000
0001
0000
0000
0000
0100
0000
0000
0000
0010
0000
0000
0000
2000
0000
0000
0000
0000
0000
0000
0000
0000
0000
0000
0000
,  // measure 82
3001
0000
1000
0100
1000
0000
0100
0000
0000
0000
0010
0000
0001
0000
0000
0000
,  // measure 83
1000
0000
0010
0100
0010
0000
0100
0000
0000
0000
0001
0000
1000
0000
0000
0000
,  // measure 84
0001
0000
0010
0100
0010
0000
0001
0000
0000
0000
1000
0000
0010
0000
0000
0000
,  // measure 85
0001
0000
0000
0000
0000
0000
0010
0000
0000
0100
0000
0000
0010
0000
0000
0000
0000
0000
1000
0000
0000
0000
0000
0000
0000
0000
0000
0000
0000
0000
1000
0000
0000
0000
0000
0000
0001
0000
0000
0000
0010
0000
0000
0000
0100
0000
0000
0000
,  // measure 86
1000
0000
0001
0100
0001
0000
0100
0000
0000
0000
0010
0000
1000
0000
0000
0000
,  // measure 87
0001
0000
0010
0100
0010
0000
0100
0000
0000
0000
1000
0000
0001
0000
0000
0000
,  // measure 88
1000
0000
0010
0100
0001
0000
1000
0000
0001
0000
1000
0000
0100
0000
0001
0000
;
