#TITLE:Rock Star;
#SUBTITLE:(Jason Nevins Remix);
#ARTIST:N.E.R.D.;
#TITLETRANSLIT:;
#SUBTITLETRANSLIT:;
#ARTISTTRANSLIT:;
#GENRE:Hip-Hop;
#CREDIT:;
#BANNER:Rock Star (Jason Nevins Remix).png;
#BACKGROUND:Rock Star (Jason Nevins Remix)-bg.png;
#LYRICSPATH:;
#CDTITLE:cdtitle.png;
#MUSIC:Rock Star (Jason Nevins Remix).ogg;
#OFFSET:-0.000924;
#SAMPLESTART:31.496334;
#SAMPLELENGTH:15.737705;
#SELECTABLE:YES;
#BPMS:0.000000=122.000000
;
#STOPS:
;
#BGCHANGES:;
#KEYSOUNDS:;
#ATTACKS:;

//---------------dance-single - ----------------
#NOTES:
     dance-single:
     :
     Challenge:
     14:
     0.591340,0.624510,0.192157,0.376307,0.552451,517.000000,493.000000,24.000000,47.000000,24.000000,0.000000,0.591340,0.624510,0.192157,0.376307,0.552451,517.000000,493.000000,24.000000,47.000000,24.000000,0.000000:
0000
0000
0000
0000
,
0000
0000
0000
0000
,
0000
0000
0000
0000
,
0000
0000
0000
0000
,
1001
0000
0000
0000
1000
0000
0100
0000
0000
0000
1000
0000
0000
0010
0000
0000
,
1001
0000
0000
0000
0001
0000
0100
0000
0000
0000
0001
0000
0000
0010
0000
0000
,
1001
0000
0000
0000
1000
0000
0100
0000
0000
0000
0011
0000
0000
1010
0000
1000
,
0001
0000
1000
0100
0000
0010
0001
0000
1000
0000
0001
0100
0010
0000
0100
0000
,
0220
0000
0000
0000
,
0000
0000
0300
0000
0000
0000
0000
0000
0000
0000
1030
0000
0000
0002
0000
0000
,
2000
0000
0000
0000
,
0000
0000
0003
0000
0000
0000
0000
0000
0000
0000
3100
0000
0000
0010
0000
0000
,
0110
0000
0001
0020
0000
0130
1000
0020
,
0000
0000
0130
0000
0001
0000
0020
0000
0130
0000
2000
0000
3001
1000
0001
0000
,
1001
0000
0001
0200
0000
0310
1000
0200
,
0000
0000
0310
0000
0001
0000
0200
0000
0000
0000
0301
0100
0010
0000
1000
0000
,
1002
0000
0013
0000
0000
0100
0000
0010
0001
0000
1000
0001
0100
0000
0010
0000
,
1010
0000
0000
0001
0100
0001
0100
0010
1000
0000
0001
1000
0100
0000
0010
0000
,
0011
0000
1000
0100
1000
0100
0010
0001
1000
0000
0010
0000
0100
0000
0001
1000
,
0001
0000
0020
0001
0030
001M
1000
0000
0001
0000
0200
0001
0300
010M
1000
0000
,
2001
0000
3010
0000
0000
0100
0010
0000
1000
0000
0001
1000
0100
1000
0100
0000
,
1100
0000
0000
0100
0010
0001
0000
0001
0000
0000
1000
0001
0100
0001
0100
0000
,
0101
0000
1000
0010
1000
0000
0001
0000
0010
0001
0010
0001
1000
0001
0100
0010
,
1000
0000
0020
1000
0030
M010
0001
0000
1000
0000
0200
1000
0300
M100
0001
0000
,
1000
0000
0010
0000
0010
0000
0MM0
0001
0010
0001
0010
0100
1000
0001
0100
0000
,
0001
0000
0010
0000
0010
0000
0MM0
1000
0010
1000
0010
0100
0001
1000
0100
0000
,
1000
0000
0010
0000
0010
0000
0MM0
0001
0010
0000
0100
1000
0100
1000
0001
1000
,
0010
0000
0200
0001
0300
010M
1000
0000
0001
0000
0200
0001
0300
010M
1000
0000
,
0001
0000
1000
0100
0010
0001
0000
0001
0000
M00M
0100
1000
0100
1000
0001
0000
,
1000
0000
0001
0100
0010
1000
0000
1000
0000
M00M
0100
0001
0100
0001
1000
0000
,
0001
0010
0001
0000
1000
0000
0010
0100
0000
0001
0010
0100
0000
1000
0001
1000
,
0001
0000
0200
0001
0300
010M
1000
0000
0001
0000
0200
0001
0300
010M
1000
0000
,
0001
1000
0010
2000
0001
3001
0010
0002
,
1000
0000
1003
0000
0010
0000
0200
0000
0310
0000
2000
0000
3001
1000
0001
0000
,
1001
0000
1000
0200
1000
1300
0001
0200
,
0001
0000
0301
0000
1000
0000
0200
0000
0310
0000
0002
0000
1003
0001
1000
0000
,
1001
0000
0001
0200
0010
0310
1000
0200
,
0010
0000
0310
0000
0001
0000
0200
0000
0310
0000
2000
0000
3001
1000
0001
0000
,
1001
0000
0001
0020
0100
0031
1000
0020
,
0100
1030
0001
2000
0100
3002
0100
1003
,
2001
0000
3010
0000
0000
0100
0000
0010
1000
0000
0010
1000
0100
0000
0010
0000
,
0011
0000
0000
1000
0100
1000
0100
0010
0001
0000
0010
0001
0100
0000
0010
0000
,
1010
0000
0001
0100
0010
1000
0100
0010
0001
0000
0010
0000
0100
0000
1000
0001
,
1000
0000
0020
1000
0030
M010
0001
0000
1000
0000
0200
1000
0300
M100
0001
0000
,
1002
0000
0013
0000
0000
0100
0010
0000
1000
0000
0010
0001
0010
0001
1000
0000
,
0010
0000
0000
0010
0100
0010
0000
0001
0000
0000
0010
1000
0010
1000
0001
0000
,
1000
0000
0001
0010
0100
0000
1000
0000
0001
0100
0010
1000
0001
1000
0100
0010
,
0001
0000
0020
0001
0030
001M
1000
0000
0001
0000
0200
0001
0300
010M
1000
0000
,
1002
0000
0103
0000
0010
0000
1000
0001
0000
0000
0001
0000
0100
0000
0001
0000
,
1000
0000
0100
0000
0010
0000
0001
1000
0000
0000
1000
0010
0100
0000
0001
0000
,
1002
0000
0013
0000
0100
0000
0010
0001
0000
0000
0001
0000
0010
0000
0001
0000
,
1000
0000
0010
0000
0100
0000
0010
1000
0000
0000
0001
1000
0001
0000
1000
0000
,
0100
0020
0001
0000
003M
0010
1000
0000
1000
0000
0010
1000
0001
1000
0100
0000
,
0010
0000
0001
0010
0001
0010
0001
0000
1000
0000
0001
0100
0001
0100
0001
0000
,
1000
0001
0010
0001
0010
0001
0100
0001
,
0100
0001
0010
0001
0010
0100
1000
0001
,
0100
0020
1000
0000
M030
0010
0001
0000
0001
0000
0010
0001
1000
0001
0100
0000
,
0010
0000
1000
0010
1000
0010
1000
0000
0001
0000
1000
0100
1000
0100
1000
0000
,
0001
1000
0010
1000
0010
1000
0100
1000
,
0100
1000
0010
0100
0001
1000
0100
0010
,
1001
0000
0000
0000
;

//---------------dance-single - ----------------
#NOTES:
     dance-single:
     :
     Hard:
     11:
     0.473529,0.528431,0.192157,0.400327,0.272222,414.000000,390.000000,24.000000,50.000000,0.000000,0.000000,0.473529,0.528431,0.192157,0.400327,0.272222,414.000000,390.000000,24.000000,50.000000,0.000000,0.000000:
// measure 0
0000
0000
0000
0000
,  // measure 1
0000
0000
0000
0000
,  // measure 2
0000
0000
0000
0000
,  // measure 3
0000
0000
0000
0000
,  // measure 4
1001
0000
0000
0000
0000
0000
1000
0000
0000
0000
0010
0000
0000
1000
0000
0000
,  // measure 5
0001
0000
0000
0000
0000
0000
0001
0000
0000
0000
0010
0000
0000
0001
0000
0000
,  // measure 6
1001
0000
0000
0000
0000
0000
1000
0000
0000
0000
0010
0000
0000
0100
0000
0000
,  // measure 7
0001
0000
0000
0010
0000
0000
0001
0000
1000
0000
0000
0010
0000
0000
1000
0000
,  // measure 8
2002
0000
0000
0000
,  // measure 9
0000
0000
3000
0000
0000
0000
0000
0000
0000
0000
0013
0000
0000
0200
0000
0000
,  // measure 10
0020
0000
0000
0000
,  // measure 11
0000
0000
0030
0000
0000
0000
0000
0000
0000
0000
1300
0000
0000
0001
0000
0000
,  // measure 12
1001
0000
1000
0020
0000
1030
0001
0020
,  // measure 13
0000
0031
1000
0020
0000
0230
0000
0301
,  // measure 14
1001
0000
0001
0020
0000
0130
1000
0020
,  // measure 15
0000
0130
0001
0020
0000
0130
1000
0001
,  // measure 16
1002
0000
0103
0000
0000
0100
0000
0010
1000
0000
0001
0010
0001
0000
0010
0000
,  // measure 17
0021
0000
0030
0000
0100
0000
0010
0000
0001
0000
1000
0010
1000
0000
0010
0000
,  // measure 18
1020
0000
0030
0000
0100
0000
0010
0000
1000
0000
0010
0000
0100
0000
0001
1000
,  // measure 19
0001
0000
1000
0100
0000
0100
1000
0000
0001
0000
1000
0010
0000
0010
1000
0000
,  // measure 20
2001
0000
3100
0000
0000
0010
0100
0000
1000
0000
0001
0000
0100
0001
0100
0000
,  // measure 21
0102
0000
0003
1000
0010
0000
0100
0000
0001
0000
1000
0000
0100
1000
0100
0000
,  // measure 22
2100
0000
3000
0000
0001
0000
0010
0000
0100
0000
0010
0000
0001
0000
1000
0001
,  // measure 23
1000
0000
0001
0100
0000
0100
0001
0000
1000
0000
0001
0010
0000
0010
0001
0000
,  // measure 24
2000
0000
0010
0000
0010
0000
3000
0001
0100
0000
0010
0000
1000
0000
1000
0000
,  // measure 25
0002
0000
0010
0000
0010
0000
0003
1000
0100
0000
0010
0000
0001
0000
0001
0000
,  // measure 26
2000
0000
0010
0000
0010
0000
3000
0001
0100
0000
0010
0000
1000
0000
0001
0000
,  // measure 27
1000
0000
0100
0010
0000
0010
0100
0000
1000
0000
0010
0100
0000
0100
0010
0000
,  // measure 28
1000
0000
0001
0000
2000
0100
0000
0100
0000
0000
3001
0000
0010
0000
0010
0000
,  // measure 29
0001
0000
1000
0000
0002
0100
0000
0100
0000
0000
1003
0000
0010
0000
0010
0000
,  // measure 30
1000
0100
0010
0000
0001
0010
0100
1000
,  // measure 31
0001
0000
0100
0010
0000
0010
0100
0000
0001
0000
0010
0100
0000
0100
0010
0000
,  // measure 32
0001
1000
0010
0200
0000
0310
0100
0002
,  // measure 33
0000
1003
0010
2000
3001
2000
3100
0010
,  // measure 34
0011
0000
0010
0200
0000
0310
0100
2000
,  // measure 35
0000
3001
0010
0002
1003
0002
0103
0010
,  // measure 36
1010
0000
0001
0200
0000
0310
1000
0200
,  // measure 37
0000
0310
0001
2000
3010
0200
0301
1000
,  // measure 38
1001
0000
0001
0020
0001
0031
1000
0020
,  // measure 39
1000
1030
0100
0020
0031
0200
0310
1000
,  // measure 40
2001
0000
3100
0000
0000
0100
0000
0010
0001
0000
0100
0001
0100
0000
0010
0000
,  // measure 41
1020
0000
0030
0000
0100
0000
0010
0000
1000
0000
0100
1000
0100
0000
0010
0000
,  // measure 42
0021
0000
0030
0000
0100
0000
0010
0000
0001
0000
0010
0000
0100
0000
1000
0001
,  // measure 43
1000
0000
0001
0100
0000
0100
0001
0000
1000
0000
0001
0010
0000
0010
0001
0000
,  // measure 44
1002
0000
0103
0000
0000
0001
0100
0000
1000
0000
0100
0000
0001
1000
0001
0000
,  // measure 45
1000
0000
0000
0001
1000
0000
0100
0000
0001
0000
0100
0000
1000
0001
1000
0000
,  // measure 46
0001
0000
0000
0000
1000
0000
0010
0000
0100
0000
0010
0000
1000
0000
0001
1000
,  // measure 47
0001
0000
1000
0100
0000
0100
1000
0000
0001
0000
1000
0010
0000
0010
1000
0000
,  // measure 48
1002
0000
0003
0000
0010
0000
0000
0001
0000
0000
1000
0000
0010
0000
0100
0000
,  // measure 49
0001
0000
0000
0000
0010
0000
0000
0001
0000
0000
0010
0001
0010
0000
0001
0000
,  // measure 50
2001
0000
3000
0000
0010
0000
0000
1000
0000
0000
0001
0000
0010
0000
0100
0000
,  // measure 51
1000
0000
0000
0000
0010
0000
0000
1000
0000
0000
0010
1000
0010
0000
1000
0000
,  // measure 52
0001
0000
0020
0000
0030
0100
0010
0000
0001
0000
1000
0000
0010
1000
0010
0000
,  // measure 53
1000
0200
0010
0310
0100
2000
0010
3010
,  // measure 54
0100
0001
0000
0001
0000
1000
0000
1000
,  // measure 55
0000
0100
0000
0100
0000
0011
0000
1001
,  // measure 56
1000
0000
0020
0000
0030
0100
0010
0000
1000
0000
0001
0000
0010
0001
0010
0000
,  // measure 57
0001
0200
0010
0310
0100
0002
0010
0013
,  // measure 58
0100
1000
0000
1000
0000
0001
0000
0001
,  // measure 59
0000
0100
0000
0100
0000
1010
0000
0011
,  // measure 60
0100
0000
0000
0000
;

//---------------dance-single - ----------------
#NOTES:
     dance-single:
     :
     Medium:
     7:
     0.307680,0.360294,0.240196,0.352287,0.000000,269.000000,239.000000,30.000000,44.000000,0.000000,0.000000,0.307680,0.360294,0.240196,0.352287,0.000000,269.000000,239.000000,30.000000,44.000000,0.000000,0.000000:
0000
0000
0000
0000
,
0000
0000
0000
0000
,
0000
0000
0000
0000
,
0000
0000
0000
0000
,
1001
1000
0100
0000
,
0010
0010
0001
1000
,
0001
0001
0100
0000
,
0010
0000
0010
0000
1000
0001
0010
0000
,
0220
0000
0000
0000
,
0000
0330
0000
0000
0000
0000
0000
0000
,
0002
0000
0000
0000
,
0000
0003
0000
0000
0000
0000
0000
0000
,
1001
1000
0010
0100
,
0001
1000
0100
0010
,
1001
0001
0100
0010
,
2000
0000
0001
0000
0000
3100
0010
0000
,
1001
0000
1000
0000
0010
0100
0001
0000
,
1001
0000
0001
0000
0010
0100
1000
0000
,
1001
0000
1000
0010
0100
0001
1000
0000
,
2010
3001
2100
3001
,
1001
0000
0001
0000
0100
0010
1000
0000
,
1001
0000
1000
0000
0100
0010
0001
0000
,
1000
0010
1000
0000
0001
0010
0001
0000
,
0012
1003
0102
1003
,
0002
0010
0010
0000
1003
0000
0001
0000
,
2000
0010
0010
0000
3001
0000
1000
0000
,
0002
0010
0010
0000
1003
0000
0001
0000
,
0102
1003
2100
3001
,
0200
0010
0010
0000
0301
0000
1000
0000
,
0200
0010
0010
0000
1300
0000
0001
0000
,
1000
0010
1000
0000
0001
0010
0001
0000
,
2100
3001
0102
1003
,
1001
0000
0001
0020
0000
0000
0130
2000
,
0000
0000
3100
0020
0000
0032
0000
1003
,
0010
0000
1000
0020
0000
0000
0130
0002
,
0000
0000
0103
0020
0000
2030
0000
3001
,
0010
0000
0100
2000
0000
0000
3001
0200
,
0000
0000
0310
2000
0000
3002
0000
0013
,
0100
0000
1000
2000
0000
0000
3001
0002
,
0000
0000
0103
0200
0000
0010
0310
0000
,
1001
0000
0001
0000
0010
0001
0100
0000
,
1001
0000
1000
0000
0010
1000
0100
0000
,
1001
0000
0001
0100
0010
1000
0001
0000
,
0012
1003
0102
1003
,
1001
0000
1000
0000
0100
1000
0010
0000
,
1000
0000
0001
0000
0100
0001
0010
0000
,
0100
0010
0001
0000
0100
0010
1000
0000
,
2010
3001
2100
3001
,
1001
1000
0010
0100
,
0001
0000
0001
0000
0010
0000
0100
1000
,
0001
0001
0100
0010
,
1000
0001
0010
0000
,
1002
0000
0103
0000
0001
0200
0010
0000
,
0302
1000
2003
0001
,
3100
0010
0001
1000
,
0010
0100
0010
1000
,
2001
0000
3100
0000
1000
0200
0010
0000
,
2300
0001
3002
1000
,
0103
0010
1000
0001
,
0010
0100
1000
0001
,
1001
0000
0000
0000
;

//---------------dance-single - ----------------
#NOTES:
     dance-single:
     :
     Easy:
     5:
     0.215033,0.240196,0.136111,0.368301,0.000000,188.000000,171.000000,17.000000,46.000000,0.000000,0.000000,0.215033,0.240196,0.136111,0.368301,0.000000,188.000000,171.000000,17.000000,46.000000,0.000000,0.000000:
0000
0000
0000
0000
,
0000
0000
0000
0000
,
0000
0000
0000
0000
,
0000
0000
0000
0000
,
1001
0000
1000
0000
,
0010
0000
1000
0000
,
1001
0000
0001
0000
,
0010
0000
0001
0100
,
0200
0000
0000
0000
,
0000
0300
0000
0000
0000
0000
0000
0000
,
0020
0000
0000
0000
,
0000
0030
0000
0000
0000
0000
0000
0000
,
1000
0010
0000
0010
,
0000
0010
0010
1000
,
0001
0010
0000
0010
,
0000
0100
0100
1000
,
0001
1000
0010
0010
,
1000
0001
0010
0010
,
0001
0100
0010
1000
,
2002
3003
2002
3003
,
0001
1000
0100
0100
,
1000
0001
0100
0100
,
0001
0010
0100
1000
,
2002
3003
2002
3003
,
1000
0010
1000
0010
,
1000
0100
1000
0100
,
1000
0010
1000
0010
,
0220
0330
0220
0330
,
0001
0010
0001
0010
,
0001
0100
0001
0100
,
0001
1000
0100
0010
,
0220
0330
0220
0330
,
2000
0000
3002
0000
,
0203
0000
0310
1000
,
0002
0000
2003
0000
,
3200
0000
0310
0001
,
2000
0000
3020
0000
,
0230
0000
0301
0010
,
0002
0000
0023
0000
,
0230
0000
1300
0010
,
1000
0100
0010
0010
,
0100
1000
0010
0010
,
1000
0100
0010
0100
,
2002
3003
2002
3003
,
0001
0100
0010
0010
,
0100
0001
0010
0010
,
0001
0100
0010
0100
,
2002
3003
2002
3003
,
0001
0010
0100
0000
,
0010
0100
1000
0001
,
1000
0010
0100
0000
,
0010
0100
0001
0000
,
1001
0000
1000
0010
,
0200
0302
2003
3020
,
0130
0100
0001
0001
,
1000
1000
0100
0010
,
1001
0000
0001
0010
,
0200
2300
3002
0023
,
0130
0100
1000
1000
,
0001
0100
0010
1000
,
1001
0000
0000
0000
;

//---------------dance-single - ----------------
#NOTES:
     dance-single:
     :
     Beginner:
     2:
     0.099510,0.144118,0.040033,0.056046,0.000000,87.000000,82.000000,5.000000,7.000000,0.000000,0.000000,0.099510,0.144118,0.040033,0.056046,0.000000,87.000000,82.000000,5.000000,7.000000,0.000000,0.000000:
0000
0000
0000
0000
,
0000
0000
0000
0000
,
0000
0000
0000
0000
,
0000
0000
0000
0000
,
1001
0000
0000
0000
,
0010
0000
0000
0000
,
1001
0000
0000
0000
,
0100
0000
0000
0000
,
2000
0000
0000
0000
,
0000
3000
0000
0000
0000
0000
0000
0000
,
0002
0000
0000
0000
,
0000
0003
0000
0000
0000
0000
0000
0000
,
1000
0000
0001
0000
,
0100
0000
0000
0000
,
0001
0000
1000
0000
,
0200
0000
0300
0000
,
0010
0000
0010
0000
,
0001
0000
0001
0000
,
1000
0000
1000
0000
,
0010
0000
0100
0000
,
0010
0000
0010
0000
,
1000
0000
1000
0000
,
0001
0000
0001
0000
,
0010
0000
0100
0000
,
1000
0000
0000
0000
,
0001
0000
0000
0000
,
1000
0000
0000
0000
,
0010
0000
0010
0000
,
1000
0000
0000
0000
,
0001
0000
0000
0000
,
0010
0000
0100
0000
,
0010
0000
0010
0000
,
0002
0000
0000
0000
,
0003
0000
0001
0000
,
0200
0000
0000
0000
,
0300
0000
0100
0000
,
0020
0000
0000
0000
,
0030
0000
0010
0000
,
2000
0000
0000
0000
,
3000
0000
1000
0000
,
0100
0000
0100
0000
,
1000
0000
1000
0000
,
0010
0000
0010
0000
,
0100
0000
0010
0000
,
0100
0000
0100
0000
,
0001
0000
0001
0000
,
0010
0000
0010
0000
,
0100
0000
0010
0000
,
0001
0000
0000
0000
,
0100
0000
0010
0000
,
1000
0000
0000
0000
,
0001
0000
1000
0000
,
1001
0000
0001
0000
,
0001
0000
0001
0000
,
0010
0000
0000
0000
,
0010
0000
0000
0000
,
1001
0000
1000
0000
,
1000
0000
1000
0000
,
0010
0000
0000
0000
,
0010
0000
0000
0000
,
0110
0000
0000
0000
;
