#VERSION:0.83;
#TITLE:転生林檎;
#SUBTITLE:;
#ARTIST:ピノキオピー feat. 初音ミク;
#TITLETRANSLIT:Reincarnation Apple;
#SUBTITLETRANSLIT:;
#ARTISTTRANSLIT:PinocchioP feat. Hatsune Miku;
#GENRE:Vocaloid Pop;
#ORIGIN:;
#CREDIT:;
#BANNER:Reincarnation Apple.png;
#BACKGROUND:Reincarnation Apple-bg.png;
#PREVIEWVID:;
#JACKET:Reincarnation Apple-jacket.png;
#CDIMAGE:;
#DISCIMAGE:;
#LYRICSPATH:;
#CDTITLE:cdtitle.png;
#MUSIC:Reincarnation Apple.ogg;
#OFFSET:1.476270;
#SAMPLESTART:69.696136;
#SAMPLELENGTH:13.241379;
#SELECTABLE:YES;
#BPMS:0.000=145.000;
#STOPS:235.750=1.241;
#DELAYS:;
#WARPS:;
#TIMESIGNATURES:0.000=4=4;
#TICKCOUNTS:0.000=4;
#COMBOS:0.000=1;
#SPEEDS:0.000=1.000=0.000=0;
#SCROLLS:0.000=1.000;
#FAKES:;
#LABELS:0.000=Song Start;
#BGCHANGES:3.563=Reincarnation Apple.mp4=1.000=0=0=1=====,
99999=-nosongbg-=1.000=0=0=0 // don't automatically add -songbackground-
;
#KEYSOUNDS:;
#ATTACKS:
;

//---------------dance-single - ----------------
#NOTEDATA:;
#CHARTNAME:;
#STEPSTYPE:dance-single;
#DESCRIPTION:;
#CHARTSTYLE:;
#DIFFICULTY:Challenge;
#METER:16;
#RADARVALUES:0.810010,0.802595,0.266201,0.461414,0.936139,639.000000,609.000000,30.000000,52.000000,4.000000,0.000000,0.000000,0.000000,0.000000,0.810010,0.802595,0.266201,0.461414,0.936139,639.000000,609.000000,30.000000,52.000000,4.000000,0.000000,0.000000,0.000000,0.000000;
#CREDIT:;
#NOTES:
0000
0000
0000
0000
,
0000
0000
0000
0000
,
0000
0000
0000
0000
0000
0000
0000
1000
,
1000
0000
0010
1000
0001
0000
1000
0100
0010
0000
0000
0000
0010
0000
0001
0010
,
0001
0000
0010
0000
0001
1000
0001
0100
0010
0000
0000
0000
0010
0100
0000
0001
,
1000
0000
0100
1000
0100
0000
0010
0100
0010
0000
0001
0000
1000
0001
1000
0000
,
0001
0000
0100
0000
1000
0000
0100
0000
0001
0000
0000
0000
0000
0000
0001
1000
,
0100
0010
0100
0010
0001
0000
1000
0001
0000
0001
0100
0000
0010
1000
0000
0000
,
1000
0000
0001
0100
0010
0000
0100
0010
1000
0000
0100
0000
0010
0001
0000
0000
,
1000
0001
1000
0001
0100
0000
0100
0000
0001
1000
0001
1000
0100
0000
0100
0000
,
0020
0000
0000
0032
0000
0000
2003
0000
0020
0000
0000
0000
3030
0000
0000
0000
,
1000
0000
0100
0000
0010
0100
0000
0001
0000
0001
0000
0100
0010
0100
1000
0000
,
0001
0000
0100
0000
0010
0100
0000
1000
0000
1000
0000
0100
0010
0100
0001
0000
,
1000
0000
0100
0000
0010
0100
0000
0001
0000
0001
0000
0100
0010
0100
1000
0000
,
0001
0000
0100
0000
0001
0000
0100
0000
0010
1000
0100
0010
0001
1000
0010
0100
,
0001
0000
0010
0000
0100
0010
0000
1000
0000
1000
0000
0010
0100
0010
0001
0000
,
1000
0000
0010
0000
0100
0010
0000
0001
0000
0001
0000
0010
0100
0010
1000
0000
,
0001
0000
0010
0000
0100
0010
0000
1000
0000
1000
0000
0010
0100
0010
0001
0000
,
1000
0000
0000
0000
0001
0000
0000
0000
1000
0000
0001
0000
1000
0000
0001
0100
,
0010
0000
0100
0000
0010
0100
0001
0000
1000
0000
0000
0000
1000
0000
0001
0010
,
0001
0010
0100
0000
0010
0000
0010
0001
1000
0000
0000
0000
0001
0100
0000
0001
,
0100
0001
1000
0100
1000
0001
0100
0001
0010
0000
0100
0000
1000
0010
0100
0001
,
1000
0100
0000
1000
0100
0010
0001
1000
0010
0000
0000
0000
0110
0000
0010
1000
,
0001
0010
0000
0001
0010
0100
1000
0001
1000
0010
0000
0100
0010
0001
0000
0000
,
0010
0000
0100
0010
1000
0001
1000
0100
0010
0000
0100
0001
0000
0100
0000
0000
,
2000
0000
0000
0000
3001
0000
0100
0000
0001
0100
0010
0100
1000
0000
0000
0000
,
1100
0000
0000
0110
0000
0000
0101
0000
2002
0000
0000
0000
3003
0000
1000
0100
,
1000
0100
0010
0001
0100
0010
1000
0000
0001
0000
0000
0000
0001
0000
1000
0010
,
1000
0010
0100
0001
0010
0100
1000
0001
1000
0000
0000
0000
1000
0100
0000
1000
,
0100
0000
0010
0001
1000
0010
0100
0001
0010
0000
0100
0000
1000
0000
0010
0100
,
0001
1000
0100
1000
0001
0100
0010
0000
0100
0000
0000
0000
0110
0000
0100
0001
,
1000
0100
0010
0000
0001
0100
0000
0010
1000
0001
0010
0100
0010
1000
0000
0000
,
0010
0000
0001
0010
0100
1000
0001
0100
0010
0000
0100
1000
0000
0100
0000
0000
,
0002
0000
0000
0000
1003
0000
0100
0000
1000
0100
0010
0100
0001
0000
0000
0000
,
0101
0000
0000
0110
0000
0000
1100
0000
2002
0000
0000
0000
3003
0000
0000
0000
,
1000
0000
0000
1000
0010
0000
0000
0010
0001
0000
0010
0100
0010
0000
1000
0000
,
0020
0000
0000
0000
0130
0000
0010
1000
0100
0000
0010
0000
0110
0000
0000
0000
,
0001
0000
0000
0001
0010
0000
0000
0010
1000
0000
0010
0100
0010
0000
0001
0000
,
0020
0000
0000
0000
0130
0000
0010
0001
0100
0000
0010
0000
0110
0000
0000
0000
,
0001
0000
0000
0001
0100
0000
0000
0100
1000
0000
0100
0010
0100
0000
0001
0000
,
1000
0000
0000
1000
0100
0000
0000
0100
0001
0000
0100
0010
0100
0000
1000
0000
,
0001
0000
0000
0001
0100
0000
0000
0100
0010
0000
1000
0000
0001
0010
0100
1000
,
0002
0000
2003
3020
0230
0301
0000
0001
,
1001
0000
0000
0000
2000
0000
3200
0000
0302
0000
1003
0010
0100
0010
0001
0000
,
2000
0000
3200
0000
0302
0000
0103
0010
0100
1000
0001
0000
1000
0001
0100
0000
,
0101
0000
0000
0000
0002
0000
0203
0000
2300
0000
3001
0010
0100
0010
1000
0000
,
0002
0000
0203
0000
2300
0000
3100
0010
1000
0001
0010
0000
0100
1000
0001
0000
,
1001
0000
0000
0000
2000
0000
3020
0000
0032
0000
1003
0100
0010
0100
0001
0000
,
2000
0000
3020
0000
0032
0000
0013
0100
0010
1000
0001
0000
1000
0001
0010
0000
,
0100
0000
0000
0000
0011
0000
0000
0001
1000
0000
0000
0000
1010
0000
0000
1000
,
0002
0000
0000
0000
0013
0000
0100
1000
0001
0100
0010
0000
1000
0001
1000
0001
,
0010
0000
0000
0000
0002
0000
0023
0000
2030
0000
3001
0100
0010
0100
1000
0000
,
0020
0000
0032
0000
2003
0000
3100
0010
1000
0001
0010
0000
0100
1000
0001
0000
,
1001
0000
0000
0000
0002
0000
0203
0000
2300
0000
3001
0010
0100
0010
1000
0000
,
1010
0000
0000
1001
0000
0000
0011
0000
0110
0000
1100
0000
1000
0001
0100
0010
,
1000
0000
0000
0000
2000
0000
3020
0000
0032
0000
1003
0100
0010
0100
0001
0000
,
0020
0000
2030
0000
3002
0000
0103
0010
0001
1000
0010
0000
0100
0001
1000
0000
,
0001
0000
0000
0000
0011
0000
0000
1000
0100
0000
0000
0000
1010
0000
0000
0001
,
0200
0000
0000
0000
0310
0000
1000
0001
0000
0001
1000
0000
0001
0010
0100
1000
,
0000
0000
0001
0000
0100
0000
0001
0000
0100
0001
0100
0000
1000
0000
0000
0000
,
0100
0000
0001
0000
1000
0100
1000
0000
0100
1000
0100
0000
0001
0000
0000
0000
,
0100
0010
0100
0000
1000
0001
0100
0000
0010
1000
0001
0000
0010
0100
1000
0000
,
0001
0000
0100
0000
0010
0000
1000
0010
0100
0001
0010
0000
0100
0000
0000
0000
,
0110
0000
0010
0001
1000
0010
0100
0010
0000
0100
0001
1000
0000
0001
0010
0100
,
0010
1000
0000
0000
0010
0001
0000
1000
0001
0100
0000
0010
0100
0010
0001
0010
,
0000
1000
0000
0000
0002
0000
0000
1003
0100
0000
0000
0100
0010
0000
0001
0000
,
0100
0000
0010
0000
1010
0000
0000
1001
0000
0000
0011
0000
0110
0000
0000
0000
,
MMMM
0000
0000
0000
;

//---------------dance-single - ----------------
#NOTEDATA:;
#CHARTNAME:;
#STEPSTYPE:dance-single;
#DESCRIPTION:;
#CHARTSTYLE:;
#DIFFICULTY:Hard;
#METER:12;
#RADARVALUES:0.588176,0.594514,0.212960,0.337187,0.208524,464.000000,440.000000,24.000000,38.000000,4.000000,0.000000,0.000000,0.000000,0.000000,0.588176,0.594514,0.212960,0.337187,0.208524,464.000000,440.000000,24.000000,38.000000,4.000000,0.000000,0.000000,0.000000,0.000000;
#CREDIT:;
#NOTES:
// measure 0
0000
0000
0000
0000
,  // measure 1
0000
0000
0000
0000
,  // measure 2
0000
0000
0000
0000
,  // measure 3
0001
0100
0001
0100
0010
0000
1000
0000
,  // measure 4
1000
0100
1000
0100
0010
0000
0001
0000
,  // measure 5
0001
0100
0010
0000
1000
0100
0010
0000
,  // measure 6
0001
0100
0010
1000
0001
0000
0000
1000
,  // measure 7
0100
0010
0001
0000
0010
0001
0100
0000
,  // measure 8
0100
0010
1000
0000
0010
1000
0100
0000
,  // measure 9
0010
0100
0010
0100
1000
0001
0100
0010
,  // measure 10
2000
0000
0000
3002
0000
0000
2003
0000
0002
0000
0000
0000
3003
0000
0000
0000
,  // measure 11
1000
0001
0100
0000
1000
0000
1000
0100
,  // measure 12
0001
1000
0100
0000
0001
0000
0001
0100
,  // measure 13
1000
0001
0100
0000
1000
0000
1000
0100
,  // measure 14
0001
1000
0001
1000
0100
0010
0100
1000
,  // measure 15
0001
1000
0010
0000
0001
0000
0001
0010
,  // measure 16
1000
0001
0010
0000
1000
0000
1000
0010
,  // measure 17
0001
1000
0010
0000
0001
0000
0001
0010
,  // measure 18
1000
0000
0001
0000
1000
0001
1000
0000
,  // measure 19
0001
0010
0001
0010
0100
0000
0110
0000
,  // measure 20
0001
0000
0010
0000
0001
0000
0010
0000
1000
0000
0000
0000
0010
0100
0000
0010
,  // measure 21
0001
1000
0001
0100
1000
0100
0001
0010
,  // measure 22
0100
1000
0001
0100
0010
0000
1000
0001
,  // measure 23
0010
0100
1000
0001
1000
0010
0001
0000
,  // measure 24
0001
0000
0010
0000
1000
0000
0001
0000
1000
0000
0100
0001
0000
0100
0000
0000
,  // measure 25
2000
0000
3001
0100
0010
0100
1000
0000
,  // measure 26
1100
0000
0000
0110
0000
0000
0101
0000
2002
0000
0000
0000
3003
0000
0000
0000
,  // measure 27
1000
0010
1000
0010
0100
0000
0110
0000
,  // measure 28
1000
0000
0010
0000
1000
0000
0010
0000
0001
0000
0000
0000
0010
0100
0000
0010
,  // measure 29
1000
0001
1000
0100
0001
0100
1000
0010
,  // measure 30
0100
0001
1000
0100
0010
0000
0001
1000
,  // measure 31
0010
0100
0001
1000
0001
0010
1000
0000
,  // measure 32
1000
0000
0010
0000
0001
0000
1000
0000
0001
0000
0100
1000
0000
0100
0000
0000
,  // measure 33
0002
0000
1003
0100
0010
0100
0001
0000
,  // measure 34
0101
0000
0000
0110
0000
0000
1100
0000
2002
0000
0000
0000
3003
0000
0000
0000
,  // measure 35
1000
0000
0000
1000
0010
0000
0000
0010
0001
0000
0010
0000
2000
0000
0000
0000
,  // measure 36
0020
0000
0000
0000
3030
0000
0010
0100
0010
0000
1000
0000
1000
0000
0000
0000
,  // measure 37
0001
0000
0000
0001
0010
0000
0000
0010
1000
0000
0010
0000
0002
0000
0000
0000
,  // measure 38
0020
0000
0000
0000
0033
0000
0010
0100
0010
0000
0001
0000
0001
0000
0000
0000
,  // measure 39
1000
0000
0000
1000
0100
0000
0000
0100
0001
0000
0100
0000
2000
0000
0000
0000
,  // measure 40
3001
0000
0000
0001
0100
0000
0000
0100
1000
0000
0100
0000
0002
0000
0000
0000
,  // measure 41
1003
0000
0000
1000
0100
0000
0000
0100
0010
0000
0001
0000
0100
0000
0010
0000
,  // measure 42
0200
0000
0320
0230
0302
1003
0000
1000
,  // measure 43
1001
0000
0000
0000
1000
0000
0200
0000
0001
0000
0301
0000
0100
0010
0100
0000
,  // measure 44
1000
0000
0002
0000
0010
0000
0013
0000
1000
0000
0010
0000
0001
1000
0001
0000
,  // measure 45
0101
0000
0000
0000
0001
0000
0200
0000
1000
0000
1300
0000
0100
0010
0100
0000
,  // measure 46
0001
0000
2000
0000
0010
0000
3010
0000
0100
0000
0001
0000
1000
0100
0010
0000
,  // measure 47
0011
0000
0000
0000
0001
0000
0020
0000
1000
0000
1030
0000
0010
0100
0010
0000
,  // measure 48
0001
0000
2000
0000
0100
0000
3100
0000
0001
0000
0100
0000
1000
0001
1000
0000
,  // measure 49
0010
0000
0000
0000
1001
0000
0000
0001
0010
0000
0000
0000
1001
0000
0000
1000
,  // measure 50
0020
0000
0130
0001
0020
0000
0130
1000
,  // measure 51
1001
0000
0000
0000
1000
0000
0020
0000
0001
0000
0031
0000
0010
0100
0010
0000
,  // measure 52
1000
0000
0200
0000
0001
0000
0301
0000
0100
0000
1000
0000
0001
0100
0010
0000
,  // measure 53
1010
0000
1000
0002
0010
0013
0100
1000
,  // measure 54
1010
0000
0000
0110
0000
0000
0101
0000
0001
0000
1000
0000
0100
0000
0010
0000
,  // measure 55
0001
0000
0000
0000
0001
0000
0020
0000
1000
0000
1030
0000
0010
0100
0010
0000
,  // measure 56
0001
0000
0200
0000
1000
0000
1300
0000
0100
0000
0001
0000
1000
0100
0010
0000
,  // measure 57
0001
0000
0000
0000
1001
0000
0000
1000
0010
0000
0000
0000
1001
0000
0000
0001
,  // measure 58
0020
0000
0000
0000
0130
0000
1000
0001
0000
0100
0010
0000
1000
0001
1000
0001
,  // measure 59
0000
0000
1000
0100
0001
0100
1000
0000
,  // measure 60
1001
0000
1000
0010
0001
0010
1000
0000
,  // measure 61
1001
0000
1000
1000
0100
0010
0001
0001
,  // measure 62
1000
0010
0100
0001
0010
0100
1000
0000
,  // measure 63
0001
0010
1000
0010
0001
0100
1000
0100
,  // measure 64
0001
0000
0000
0000
1000
0000
0010
0000
0001
0000
0010
0000
1000
0000
0100
0001
,  // measure 65
0000
0100
0000
0000
1000
0000
0000
1000
0001
0000
0000
0001
0100
0000
0010
0000
,  // measure 66
1000
0000
0001
0000
0020
0000
0000
0230
0000
0000
2300
0000
0002
0000
3003
0000
,  // measure 67
MMMM
0000
0000
0000
;

//---------------dance-single - ----------------
#NOTEDATA:;
#CHARTNAME:;
#STEPSTYPE:dance-single;
#DESCRIPTION:;
#CHARTSTYLE:;
#DIFFICULTY:Medium;
#METER:9;
#RADARVALUES:0.434794,0.475612,0.221834,0.346061,0.000000,343.000000,318.000000,25.000000,39.000000,4.000000,0.000000,0.000000,0.000000,0.000000,0.434794,0.475612,0.221834,0.346061,0.000000,343.000000,318.000000,25.000000,39.000000,4.000000,0.000000,0.000000,0.000000,0.000000;
#CREDIT:;
#NOTES:
// measure 0
0000
0000
0000
0000
,  // measure 1
0000
0000
0000
0000
,  // measure 2
0000
0000
0000
0000
,  // measure 3
0001
0100
0001
0000
1000
0000
0000
0000
,  // measure 4
1000
0100
1000
0000
0001
0000
0000
0000
,  // measure 5
1000
0010
1000
0000
0001
0010
0001
0000
,  // measure 6
0100
0010
0110
0000
,  // measure 7
1000
0010
1000
0000
0010
0000
0100
0000
,  // measure 8
0001
0010
0001
0000
0010
0000
0100
0000
,  // measure 9
1000
0100
1000
0000
0001
0100
0001
0000
,  // measure 10
2000
0000
0002
3003
,  // measure 11
1000
0100
0001
0000
0100
0000
1000
0000
,  // measure 12
0001
0100
1000
0000
0100
0000
0001
0000
,  // measure 13
1000
0100
0001
0000
0100
0000
1000
0000
,  // measure 14
0001
0000
0001
0000
0001
0100
0010
0000
,  // measure 15
1000
0010
0001
0000
0010
0000
1000
0000
,  // measure 16
0001
0010
1000
0000
0010
0000
0001
0000
,  // measure 17
1000
0010
0001
0000
0010
0000
1000
0000
,  // measure 18
0001
0000
1000
0000
0001
1000
0001
0000
,  // measure 19
1000
0100
0010
0000
1100
0000
0101
0000
,  // measure 20
0001
0100
0010
0000
0101
0000
1100
0000
,  // measure 21
1000
0100
0010
0000
0001
0100
0010
0000
,  // measure 22
1000
0001
1000
0000
2002
0000
3003
0000
,  // measure 23
0001
0010
0100
0000
0010
0001
0010
0000
,  // measure 24
0100
0010
0001
0000
0100
0001
0100
0000
,  // measure 25
0010
0000
0010
0000
1000
0010
0001
0000
,  // measure 26
0200
2300
0002
3003
,  // measure 27
1000
0010
0100
0000
1010
0000
0011
0000
,  // measure 28
0001
0010
0100
0000
0011
0000
1010
0000
,  // measure 29
0001
0100
0010
0000
1000
0100
0010
0000
,  // measure 30
0001
1000
0001
0000
2002
0000
3003
0000
,  // measure 31
1000
0010
0100
0000
0010
1000
0010
0000
,  // measure 32
0100
0010
1000
0000
0100
1000
0100
0000
,  // measure 33
0010
0000
0010
0000
0001
0010
1000
0000
,  // measure 34
0200
0302
2000
3003
,  // measure 35
2000
0000
3020
0000
0130
0001
0020
0000
,  // measure 36
0200
0000
0330
0000
0010
0100
0010
0000
,  // measure 37
0002
0000
0023
0000
0130
1000
0020
0000
,  // measure 38
0200
0000
0330
0000
0010
0100
0010
0000
,  // measure 39
2000
0000
3200
0000
0310
0001
2000
0000
,  // measure 40
3002
0000
0203
0000
0310
1000
0002
0000
,  // measure 41
2003
0000
3200
0000
1300
0001
1000
0001
,  // measure 42
0100
0000
0000
0000
,  // measure 43
1001
0000
1000
0010
0001
0000
0010
0000
,  // measure 44
0001
0010
1000
0000
0010
1000
0100
0000
,  // measure 45
1001
0000
0001
0010
1000
0000
0010
0000
,  // measure 46
1000
0010
0001
0000
0010
0001
0100
0000
,  // measure 47
0110
0000
0001
0100
1000
0000
0100
0000
,  // measure 48
1000
0100
0001
0000
0100
0001
0010
0000
,  // measure 49
1001
0000
0001
0010
0011
0000
1000
0010
,  // measure 50
2020
0000
3030
0000
0001
1000
0001
0000
,  // measure 51
1001
0000
1000
0100
1000
0100
0001
0000
,  // measure 52
0100
1000
0010
0000
0001
0010
1000
0000
,  // measure 53
1001
0000
0001
0010
0100
1000
0001
0000
,  // measure 54
2002
0000
3003
0000
0010
0100
0010
0000
,  // measure 55
1001
0000
0001
0100
0001
0100
1000
0000
,  // measure 56
0100
0001
0010
0000
1000
0010
0001
0000
,  // measure 57
1001
0000
1000
0010
1010
0000
0001
0010
,  // measure 58
0022
0000
0033
0000
1000
0010
0100
0001
,  // measure 59
0000
0000
1000
0100
0010
0000
0100
0000
,  // measure 60
0010
0000
0001
0100
0010
0000
0100
0000
,  // measure 61
0010
0000
1000
0010
0001
0000
0001
0010
,  // measure 62
1000
0000
0001
1000
0001
0000
2002
0000
,  // measure 63
3003
0000
1000
0100
1000
0000
0100
0001
,  // measure 64
0100
0000
0001
0010
0001
0000
0010
1000
,  // measure 65
0010
0000
2000
0000
3002
0000
1003
0010
,  // measure 66
0100
0001
2000
0000
0000
0000
3001
0000
,  // measure 67
MMMM
0000
0000
0000
;

//---------------dance-single - ----------------
#NOTEDATA:;
#CHARTNAME:;
#STEPSTYPE:dance-single;
#DESCRIPTION:;
#CHARTSTYLE:;
#DIFFICULTY:Easy;
#METER:5;
#RADARVALUES:0.291553,0.356709,0.150847,0.408174,0.000000,230.000000,213.000000,17.000000,46.000000,4.000000,0.000000,0.000000,0.000000,0.000000,0.291553,0.356709,0.150847,0.408174,0.000000,230.000000,213.000000,17.000000,46.000000,4.000000,0.000000,0.000000,0.000000,0.000000;
#CREDIT:;
#NOTES:
0000
0000
0000
0000
,
0000
0000
0000
0000
,
0000
0000
0000
0000
,
0001
0001
0100
0000
,
1000
1000
0100
0000
,
0001
0000
0010
0000
,
0100
1000
0001
0000
,
1000
1000
0010
0000
,
0001
0001
0010
0000
,
1000
0001
1000
0000
,
0002
0000
2000
3003
,
0001
0100
0010
0010
,
0100
0001
0010
0010
,
0001
0100
0010
0010
,
1000
1000
0002
2003
,
3000
0100
0010
0010
,
0100
1000
0010
0010
,
1000
0100
0010
0010
,
0100
0000
0000
0000
,
1000
0001
0100
0000
,
0001
1000
0100
0000
,
1000
1000
0010
0010
,
0100
0001
1000
0000
,
0001
0010
0011
0000
,
0001
0100
0101
0000
,
0001
0001
0100
0001
,
2000
3200
0320
0030
,
0001
1000
0010
0000
,
1000
0001
0010
0000
,
0100
0100
1000
1000
,
0001
0100
0010
0000
,
1000
0010
1010
0000
,
1000
0100
1100
0000
,
1000
1000
0100
1000
,
0002
0203
0320
0030
,
2000
3020
0032
0023
,
2000
3030
0010
1010
,
0002
0023
2030
3020
,
0002
0033
0010
0011
,
2000
3002
0203
0300
,
0002
2003
3200
0300
,
0020
0032
2003
3020
,
0130
0000
0000
0000
,
1001
2000
0010
3010
,
2000
0100
3100
1000
,
0001
0002
0010
0013
,
0002
0100
0103
0001
,
1000
2000
0100
3001
,
0002
0100
1003
0001
,
1000
1010
0001
0011
,
2000
0000
3002
0000
,
1003
0002
0100
1003
,
0002
0010
1003
0001
,
0100
0020
0100
0130
,
1001
0000
1001
0110
,
1001
2000
0100
3001
,
2000
0010
3001
1000
,
0100
0011
1000
1010
,
0002
0000
1000
1003
,
0000
1000
1000
0100
,
0000
0001
0001
0100
,
0000
1000
0010
0001
,
0010
1000
0001
1000
,
0000
0001
0010
0011
,
0000
1000
0010
1010
,
0000
0001
0100
0010
,
1000
0200
0320
0130
,
MMMM
0000
0000
0000
;

//---------------dance-single - ----------------
#NOTEDATA:;
#CHARTNAME:;
#STEPSTYPE:dance-single;
#DESCRIPTION:;
#CHARTSTYLE:;
#DIFFICULTY:Beginner;
#METER:3;
#RADARVALUES:0.181270,0.240468,0.062113,0.088734,0.000000,143.000000,136.000000,7.000000,10.000000,0.000000,0.000000,0.000000,0.000000,0.000000,0.181270,0.240468,0.062113,0.088734,0.000000,143.000000,136.000000,7.000000,10.000000,0.000000,0.000000,0.000000,0.000000,0.000000;
#CREDIT:;
#OFFSET:1.476270;
#BPMS:0.000000=145.000000
;
#STOPS:;
#DELAYS:;
#WARPS:;
#TIMESIGNATURES:0.000000=4=4
;
#TICKCOUNTS:0.000000=4
;
#COMBOS:0.000000=1
;
#SPEEDS:0.000000=1.000000=0.000000=0
;
#SCROLLS:0.000000=1.000000
;
#FAKES:;
#LABELS:0.000000=Song Start
;
#NOTES:
0000
0000
0000
0000
,
0000
0000
0000
0000
,
0000
0000
0000
0000
,
0001
0000
0000
0000
,
1000
0000
0000
0000
,
0100
0000
0000
0000
,
0010
0000
0000
0000
,
0001
0000
0000
0000
,
1000
0000
0000
0000
,
0010
0000
0000
0000
,
0200
0000
0300
0000
,
0001
0000
0001
0000
,
1000
0000
1000
0000
,
0001
0000
0001
0000
,
1000
0000
0001
0000
,
0010
0000
0010
0000
,
0100
0000
0100
0000
,
0010
0000
0010
0000
,
0100
0000
0000
0000
,
1000
1000
1000
0000
,
0001
0001
0001
0000
,
1000
0000
0010
0000
,
1000
1000
1000
0000
,
0100
0100
0100
0000
,
0010
0010
0010
0000
,
0001
0000
1000
0000
,
0200
0000
0300
0000
,
0001
0001
0001
0000
,
1000
1000
1000
0000
,
0001
0000
0010
0000
,
0001
0001
0001
0000
,
0100
0100
0100
0000
,
0010
0010
0010
0000
,
1000
0000
0001
0000
,
0200
0000
0300
0000
,
1000
1000
1000
0000
,
1000
0000
1001
0000
,
0001
0001
0001
0000
,
0001
0000
1001
0000
,
1000
1000
1000
0000
,
0001
0001
0001
0000
,
1000
0000
0001
0000
,
0010
0000
0000
0000
,
0001
0000
0010
0000
,
0001
1000
0001
0000
,
1000
0000
0010
0000
,
1000
0001
1000
0000
,
0001
0000
0010
0000
,
0001
1000
0001
0000
,
0100
0000
1001
0000
,
2002
0000
3003
0000
,
1000
0000
0100
0000
,
0010
0100
0010
0000
,
0001
0000
1000
0000
,
2002
0000
3003
0000
,
0001
0000
0100
0000
,
0010
0100
0010
0000
,
1000
0000
1001
0000
,
2002
0000
3003
0000
,
0000
0000
0000
0000
,
0001
0001
0001
0000
,
1000
1000
1000
0000
,
0100
0000
0010
0000
,
0100
0100
0100
0000
,
1000
0001
1000
0000
,
0001
1000
0001
0000
,
0100
0000
0010
0000
,
0200
0000
0000
0300
;
