#VERSION:0.83;
#TITLE:RakiRaki Rebuilders!!!;
#SUBTITLE:;
#ARTIST:MYUKKE.;
#TITLETRANSLIT:;
#SUBTITLETRANSLIT:;
#ARTISTTRANSLIT:;
#GENRE:Happy Hardcore;
#ORIGIN:;
#CREDIT:;
#BANNER:RakiRaki Rebuilders!!!.png;
#BACKGROUND:RakiRaki Rebuilders!!!-bg.png;
#PREVIEWVID:;
#JACKET:RakiRaki Rebuilders!!!-jacket.png;
#CDIMAGE:;
#DISCIMAGE:;
#LYRICSPATH:;
#CDTITLE:cdtitle.png;
#MUSIC:RakiRaki Rebuilders!!!.ogg;
#OFFSET:-0.706620;
#SAMPLESTART:71.294861;
#SAMPLELENGTH:11.294113;
#SELECTABLE:YES;
#DISPLAYBPM:85.000000:170.000000;
#BPMS:0.000=170.000,
132.000=85.000,
148.000=170.000;
#STOPS:;
#DELAYS:;
#WARPS:;
#TIMESIGNATURES:0.000=4=4;
#TICKCOUNTS:0.000=4;
#COMBOS:0.000=1;
#SPEEDS:0.000=1.000=0.000=0;
#SCROLLS:0.000=1.000;
#FAKES:;
#LABELS:0.000=Song Start;
#BGCHANGES:;
#KEYSOUNDS:;
#ATTACKS:
;

//---------------dance-single - ----------------
#NOTEDATA:;
#CHARTNAME:;
#STEPSTYPE:dance-single;
#DESCRIPTION:;
#CHARTSTYLE:;
#DIFFICULTY:Challenge;
#METER:18;
#RADARVALUES:1.025611,1.313372,0.523873,0.479602,1.276479,973.000000,902.000000,71.000000,65.000000,38.000000,0.000000,0.000000,0.000000,0.000000,1.025611,1.313372,0.523873,0.479602,1.276479,973.000000,902.000000,71.000000,65.000000,38.000000,0.000000,0.000000,0.000000,0.000000;
#CREDIT:;
#DISPLAYBPM:85.000000:170.000000;
#NOTES:
// measure 0
0000
0000
0000
0000
,  // measure 1
0000
0000
0000
0000
,  // measure 2
0000
0000
0000
0000
,  // measure 3
0000
0000
0000
0000
,  // measure 4
0000
0000
0000
0000
,  // measure 5
1000
0000
0010
0M00
0010
0000
0001
1000
0001
0000
0010
0M00
0010
0000
1000
0001
,  // measure 6
1000
0000
0100
0000
0001
0000
0100
0000
1000
0000
0001
0100
0010
0000
1000
0000
,  // measure 7
0001
0010
0100
1000
0001
0010
0100
1000
0001
0100
0010
1000
0100
0010
0001
1000
,  // measure 8
0010
0000
0101
0000
1002
0013
0011
0000
,  // measure 9
0001
0100
0001
0100
0010
000M
0010
0000
0001
0100
0001
0100
0010
000M
0010
0000
,  // measure 10
0001
0100
0001
0100
0010
000M
0010
0000
0001
1000
0001
0000
0100
0000
0100
0000
,  // measure 11
0001
0010
0001
0010
0100
000M
0100
0000
0001
1000
0100
1000
0001
0000
1000
0001
,  // measure 12
0100
0010
0100
0010
1000
0001
0100
0010
0001
0010
0200
0300
0002
0003
1000
0001
,  // measure 13
1000
0100
1000
0100
0010
M000
0010
0000
1000
0100
1000
0100
0010
M000
0010
0000
,  // measure 14
1000
0100
1000
0100
0010
M000
0010
0000
1000
0001
1000
0000
0100
0000
0100
0000
,  // measure 15
1000
0010
1000
0010
0100
M000
0100
0000
1000
0001
0100
0001
1000
0000
0001
0000
,  // measure 16
1002
0000
1003
0100
1000
0100
0010
0100
0002
0000
0203
0000
0310
0100
1000
0000
,  // measure 17
1001
1010
1001
0011
,  // measure 18
1001
0000
0000
0000
1010
0000
0000
0000
0110
0000
0001
1000
0100
0000
0100
0000
,  // measure 19
0010
0000
0110
0000
0100
0010
1000
0010
0100
0000
0010
0001
1000
0000
0010
0000
,  // measure 20
0100
0000
0110
0000
0100
0010
0001
0010
0100
0000
0010
1000
0001
0000
1000
0100
,  // measure 21
0010
0000
0011
0000
0010
0100
0001
0100
0010
0000
0100
1000
0001
0000
0100
0000
,  // measure 22
0010
0000
1010
0000
0010
0100
1000
0100
0010
0000
0100
0001
1000
0000
0100
0010
,  // measure 23
0002
0000
0003
0000
0011
0000
0011
0000
2000
0000
3000
0000
1010
0000
0010
1000
,  // measure 24
0100
0000
0100
0000
0010
0001
1000
0010
0100
0000
0010
0000
0110
0000
0000
0000
,  // measure 25
2000
0000
0010
0000
3000
0001
0010
0001
0010
0000
0100
0010
0001
0000
1000
0000
,  // measure 26
0002
0000
0100
0000
0003
1000
0010
0100
0001
0000
1000
0000
0100
0000
0010
0000
,  // measure 27
0002
0000
0010
0000
0003
1000
0010
1000
0010
0000
0100
0010
1000
0000
0001
0000
,  // measure 28
0010
0000
0100
0010
0000
0010
1000
0010
0001
0000
1000
0001
0100
0000
0010
1000
,  // measure 29
0002
0000
0010
0000
0003
1000
0010
0100
0010
0000
0100
0010
1000
0000
0001
0000
,  // measure 30
2000
0000
0100
0000
3000
0001
0010
0100
1000
0000
0001
0000
0100
0000
0010
0000
,  // measure 31
2000
0000
0010
0000
3000
0001
0010
0100
0010
0000
0100
0010
0001
0000
1000
0000
,  // measure 32
0001
0000
1000
0010
0200
0000
0000
0000
0310
0000
0011
0000
1010
0000
0000
0000
,  // measure 33
2001
0000
0000
0000
3100
0000
0010
0000
0100
0000
0010
0000
0001
0000
1000
0000
0100
0000
0000
0000
0000
0000
0010
0001
1000
0000
1000
0000
0001
0000
0001
0000
,  // measure 34
1000
0000
0010
0000
0100
0000
0001
0000
1000
0000
0010
0000
0100
0000
0001
0000
1000
0000
1000
0000
1000
0000
0001
1000
0100
0000
0010
0000
0110
0000
0000
0000
,  // measure 35
0001
0000
0010
0M00
0010
0000
1000
0001
1000
0000
0010
0M00
0010
0000
0001
1000
0001
0000
0100
0000
1000
0000
0100
0000
0001
0000
1000
0100
0010
0000
0001
1000
,  // measure 36
0001
0000
0100
00M0
0100
0000
1000
0001
1000
0000
0010
0M00
0010
0000
0001
1000
0001
0000
0100
0000
0100
0000
0001
1000
0200
0000
0000
0000
0320
0000
0000
0000
,  // measure 37
0031
0000
0011
0000
1000
0000
1010
1000
,  // measure 38
0001
0000
0000
0000
0101
0000
0000
0000
1000
0000
0000
0000
1100
0000
1000
0001
,  // measure 39
1000
0000
0000
0000
1010
0000
0000
0000
0001
0000
0000
0000
0011
0000
1000
0010
,  // measure 40
0100
0010
1000
0000
1000
0000
0100
0010
0001
0100
0010
0000
1010
0000
0000
0000
,  // measure 41
1000
0100
1000
0100
0010
0000
0001
0000
1000
0010
1000
0010
0100
0000
0001
0000
,  // measure 42
1000
0100
0010
0100
1000
0000
0001
0000
1000
0010
0100
0010
1000
0000
0001
0000
,  // measure 43
0010
0001
0100
0001
0020
0000
MM3M
0000
0010
1000
0100
1000
0020
0000
MM3M
0000
,  // measure 44
0010
0001
1000
0010
0100
0001
1000
0000
1100
0000
0110
0000
0011
0000
0000
0000
,  // measure 45
2002
0000
0000
0000
3003
0000
1001
1001
,  // measure 46
1000
0001
0100
0000
0100
00M0
0100
1000
0001
1000
0100
0000
0100
00M0
0100
0001
,  // measure 47
1000
0100
0000
0010
0001
0000
0011
0000
1000
0010
0100
0000
0010
0000
0001
0000
,  // measure 48
0020
1000
0030
M010
0001
1000
0100
0010
0001
0000
0001
0100
0010
0000
1010
0000
,  // measure 49
0001
0010
0100
0010
0001
0000
1000
0000
0001
0100
0010
0100
0001
0000
1000
0000
,  // measure 50
0001
1000
0100
0000
0100
00M0
0100
0001
1000
0001
0100
0000
0100
00M0
0100
1000
,  // measure 51
0001
0100
0000
0010
2000
3000
2000
3000
0001
0010
0100
0000
0020
0030
2000
3000
,  // measure 52
0020
0001
0030
001M
1000
0000
0001
0000
0101
0000
0110
0000
1010
0000
0000
0000
,  // measure 53
0001
0010
0100
1000
0002
0000
1003
0010
0100
1000
0100
0010
2000
0000
3100
0010
,  // measure 54
1000
0010
0100
0010
0001
1000
0010
0200
0001
0300
010M
1000
0010
1000
0100
0000
,  // measure 55
0010
0001
1000
0010
0100
0001
1000
0100
0020
0000
0031
0010
0100
1000
0001
1000
,  // measure 56
0010
0M00
0010
0001
0100
00M0
0100
1000
0010
0M00
0010
0001
0100
0001
0010
0001
,  // measure 57
1000
0010
0100
0001
2000
0000
3001
0010
0100
0001
0100
0010
0002
0000
0103
0010
,  // measure 58
0001
0010
0100
0010
1000
0001
0010
0200
1000
0300
M100
0001
0010
0001
0100
0010
,  // measure 59
2000
0000
3001
0010
0001
0010
0100
0010
2000
0000
3001
0100
0010
0100
1000
0000
,  // measure 60
2100
0000
3001
0000
2001
0000
3010
0000
0110
0000
0100
0001
2000
0000
0000
0000
,  // measure 61
3001
0010
0100
1000
0001
0000
0000
0000
1000
0010
0100
0001
1000
0000
0000
0000
,  // measure 62
0001
0000
0000
0010
0000
0000
0100
0000
0000
1000
0000
0000
0001
0000
0000
0000
0000
0000
0100
0000
0000
0010
0000
0000
2000
0000
0000
0000
0000
0000
0000
0000
3001
0000
0000
0000
0010
0000
0100
0000
0010
0000
0000
0000
0001
0000
0000
0000
,  // measure 63
1000
0010
0100
1000
0100
0001
1000
0100
0010
1000
0010
0001
,  // measure 64
1000
0000
0010
0000
0100
0000
1000
0000
0001
0000
0010
0000
0100
0000
0001
0000
1000
0000
0100
0010
0100
0000
0010
0000
,  // measure 65
0001
0010
0100
0001
0100
1000
0001
0100
0010
0001
0010
1000
,  // measure 66
0100
0000
0010
0000
1000
0000
0010
0000
0001
0000
1000
0001
1000
0000
0010
0000
0100
0000
0001
0000
0000
1001
0000
0000
,  // measure 67
0001
0010
0100
1000
0002
0000
1003
0010
0100
1000
0100
0001
2000
0000
3001
0010
,  // measure 68
1000
0010
0100
0010
0001
1000
0010
0200
0001
0300
010M
1000
0010
1000
0100
0010
,  // measure 69
0002
0000
1003
0010
1000
0010
0100
0010
0002
0000
1003
0100
0010
0100
0001
0000
,  // measure 70
0102
0000
1003
0000
2010
0000
3001
0000
2001
0000
3100
0010
0200
0000
0000
0000
,  // measure 71
0310
0001
1000
0001
0010
0000
0011
0M00
0010
1000
0001
1000
0010
0000
1010
0M00
,  // measure 72
0010
0001
1000
0001
0010
0000
0011
0000
1000
0010
0100
0000
0010
0000
0010
0000
,  // measure 73
0100
0001
1000
0001
0010
0000
0011
0000
1000
0001
0100
0010
1000
0000
0001
1000
,  // measure 74
0100
0010
0100
0010
0001
1000
0100
0010
1000
0010
0200
0300
2000
3000
0001
0100
,  // measure 75
0010
1000
0001
1000
0010
0000
1010
0M00
0010
0001
1000
0001
0010
0000
0011
0M00
,  // measure 76
0010
1000
0001
1000
0010
0000
1010
0000
0001
0010
0100
0000
0010
0000
0010
0000
,  // measure 77
0100
1000
0001
1000
0010
0000
1010
0000
0001
1000
0100
0010
0001
0000
1000
0000
,  // measure 78
2001
0000
3001
0100
0001
0100
0010
0100
2000
0000
3200
0000
0310
0100
0001
0000
,  // measure 79
1002
0010
0000
0010
,  // measure 80
0000
0000
0010
0000
0000
0000
0103
0010
,  // measure 81
2001
0010
0000
0010
,  // measure 82
3100
0010
0001
0000
0010
0100
1000
0000
0001
0000
1001
0000
1010
0000
0000
0000
,  // measure 83
0001
0000
0011
0M00
1010
0000
1000
0001
1000
0000
1010
0M00
0011
0000
0001
1000
,  // measure 84
0001
0000
0101
0000
1000
0000
1010
0000
0001
0000
1000
0100
0010
0000
0011
0000
,  // measure 85
1000
0010
0100
0001
1000
0100
0010
0001
0100
0010
1000
0100
0010
0001
0100
0010
,  // measure 86
2000
3010
1002
0013
2200
3300
0202
0303
,  // measure 87
2000
0000
0000
0000
3000
0000
0001
0010
0100
0000
1000
0000
1000
0000
0001
0100
,  // measure 88
0010
0000
0010
0000
0100
0000
0001
1000
0200
0000
0000
0000
0000
0000
0000
0000
,  // measure 89
0300
0000
0000
0000
;

//---------------dance-single - ----------------
#NOTEDATA:;
#CHARTNAME:;
#STEPSTYPE:dance-single;
#DESCRIPTION:;
#CHARTSTYLE:;
#DIFFICULTY:Hard;
#METER:16;
#RADARVALUES:0.845365,1.346206,0.405817,0.619794,0.723092,802.000000,747.000000,55.000000,84.000000,0.000000,0.000000,0.000000,0.000000,0.000000,0.845365,1.346206,0.405817,0.619794,0.723092,802.000000,747.000000,55.000000,84.000000,0.000000,0.000000,0.000000,0.000000,0.000000;
#CREDIT:;
#DISPLAYBPM:85.000000:170.000000;
#NOTES:
// measure 0
0000
0000
0000
0000
,  // measure 1
0000
0000
0000
0000
,  // measure 2
0000
0000
0000
0000
,  // measure 3
0000
0000
0000
0000
,  // measure 4
0000
0000
0000
0000
,  // measure 5
1000
0000
1000
0000
1000
0000
0100
0010
0001
0000
0001
0000
0001
0000
0100
0010
,  // measure 6
1000
0000
0010
0000
0001
0000
0010
0000
1000
0000
0001
1000
0100
0000
0010
0000
,  // measure 7
0100
0000
0100
0000
0100
0000
1000
0001
0100
0000
0010
0000
0100
0000
0001
1000
,  // measure 8
0100
0000
0011
0000
1002
0100
0103
0000
,  // measure 9
2010
0000
3100
1000
2010
0000
3100
1000
,  // measure 10
2010
0000
0000
0000
3100
0000
1000
0000
0010
1000
0010
0000
0100
0000
0001
0000
,  // measure 11
1002
0000
0000
0000
0013
0000
0001
0000
1000
0010
0100
0010
1000
0000
1000
0000
,  // measure 12
0001
0010
0001
0010
0100
0000
1000
0010
0100
0001
2000
3000
2000
3000
0001
0000
,  // measure 13
0012
0000
0103
0001
0012
0000
0103
0001
,  // measure 14
0012
0000
0000
0000
0103
0000
0001
0000
0010
0001
0010
0000
0100
0000
1000
0000
,  // measure 15
2001
0000
0000
0000
3010
0000
1000
0000
0001
0010
0100
0010
0001
0000
0001
0000
,  // measure 16
2000
0000
3020
0000
1030
0010
0100
0001
0020
0000
0032
0000
0013
0100
1000
0000
,  // measure 17
0001
0001
1000
1000
,  // measure 18
0001
0000
0000
0000
0001
0000
0000
0000
1000
0000
0001
1000
0001
0000
0100
0000
,  // measure 19
0010
0000
2010
0000
0000
0000
3010
1000
0100
0000
1000
0001
0100
0000
0001
0000
,  // measure 20
0010
0000
0012
0000
0000
0000
0013
0001
0100
0000
0001
1000
0100
0000
1000
0001
,  // measure 21
1000
0000
1020
0000
0000
0000
0130
0010
0001
0000
0010
0100
0010
0000
1000
0000
,  // measure 22
0001
0000
0021
0000
0000
0000
0130
0010
1000
0000
0010
0100
0010
0000
0001
0000
,  // measure 23
2000
0000
3000
0000
1010
0000
1010
0000
0002
0000
0003
0000
0011
0000
0010
0001
,  // measure 24
0100
0000
0000
0000
0001
0100
0010
1000
0001
0000
1000
0000
1001
0000
0000
0000
,  // measure 25
0002
0000
0010
0000
0003
0000
1000
0010
1000
0000
0010
0100
0001
0000
1000
0000
,  // measure 26
0200
0000
0010
0000
0300
0000
1000
0001
1000
0000
0010
0000
1000
0000
0100
0000
,  // measure 27
2000
0000
0010
0000
3000
0000
0001
0010
0001
0000
0010
0100
1000
0000
0001
0000
,  // measure 28
0100
0000
0010
1000
0000
0010
1000
0000
0100
0000
0010
0000
0001
0000
1000
0001
,  // measure 29
2000
0000
0010
0000
3000
0000
0100
0010
0001
0000
1000
0001
1000
0000
0010
0000
,  // measure 30
0200
0000
0010
0000
0300
0000
0001
1000
0001
0000
0010
0000
0001
0000
0100
0000
,  // measure 31
0002
0000
0010
0000
0003
0000
0100
0010
1000
0000
0001
1000
0001
0000
0010
0000
,  // measure 32
0100
0000
0010
0100
2000
0000
0000
0000
3010
0000
0100
0000
0101
0000
0000
0000
,  // measure 33
2001
0000
3100
0010
0100
0010
0001
1000
0100
0000
0000
0010
0001
0001
1000
1000
,  // measure 34
0001
0000
0100
0000
0010
0000
1000
0000
0001
0000
0100
0000
0010
0000
1000
0000
0001
0000
0001
0000
0001
0000
0000
0000
2001
0000
0000
0000
3100
0010
0100
0010
,  // measure 35
0001
0000
0001
0000
0001
0000
0100
0010
1000
0000
1000
0000
1000
0000
0100
0010
0001
0000
0010
0000
1000
0000
0010
0000
0001
0000
1000
0001
0100
0000
0010
0000
,  // measure 36
0100
0000
0100
0000
0100
0000
0001
1000
0100
0000
0010
0000
0100
0000
1000
0001
0100
0000
0010
0000
0010
0000
1000
0001
2000
0000
0000
0000
3002
0000
0000
0000
,  // measure 37
1003
0000
1100
0000
0001
0000
0011
0001
,  // measure 38
0100
0000
0101
0000
1000
0000
1010
1000
,  // measure 39
0100
0000
1100
0000
0001
0000
0011
0001
,  // measure 40
1000
0010
1000
0000
0010
0000
1000
0100
0010
0001
1000
0000
1001
0000
0000
0000
,  // measure 41
0001
0100
0010
0100
1000
0100
0010
0100
,  // measure 42
0001
0010
0100
0010
1000
0010
0100
0010
,  // measure 43
0001
1000
0001
1000
0020
0000
0000
0000
1030
0001
1000
0001
0020
0000
0000
0000
,  // measure 44
0031
0010
0100
1000
0001
0100
0010
0000
1000
0000
1000
0000
1010
0000
0000
0000
,  // measure 45
2002
0000
0000
0000
3003
0000
1001
1001
,  // measure 46
0001
0010
0001
0010
0001
0000
0100
0000
0010
1000
0010
1000
0010
0000
0100
0000
,  // measure 47
0001
0010
0000
0100
0001
0000
0100
0000
0010
0001
0010
0000
0001
0000
1000
0000
,  // measure 48
0010
0001
0000
0010
1000
0000
0100
0000
0010
0000
0010
0100
1000
0000
0001
0000
,  // measure 49
1000
0010
1000
0010
0100
0000
0001
0000
1000
0100
1000
0100
0010
0000
0001
0000
,  // measure 50
1000
0010
1000
0010
1000
0000
0100
0000
0010
0001
0010
0001
0010
0000
0100
0000
,  // measure 51
1000
0010
0000
0100
2000
0000
3200
0000
0310
1000
0010
0000
2000
3000
0002
0003
,  // measure 52
0010
1000
0000
0010
0100
0000
0010
0001
1000
0000
0001
0000
2002
0000
3003
0000
,  // measure 53
1000
0010
1000
0010
0100
0000
2000
0000
3100
0010
0100
0010
1000
0000
0002
0000
,  // measure 54
1003
0100
1000
0100
0010
0000
1000
0010
1000
0000
0010
0000
0100
1000
0100
0000
,  // measure 55
0010
0001
1000
0001
0100
0000
0020
0000
2030
0000
3002
0000
0023
0000
0130
0010
,  // measure 56
0001
0000
0100
0010
1000
0000
0100
0010
0001
0000
0200
0000
0320
0000
2030
0000
,  // measure 57
3001
0010
0001
0010
0100
0000
0002
0000
0103
0010
0100
0010
0001
0000
2000
0000
,  // measure 58
3001
0100
0001
0100
0010
0000
0001
0010
0001
0000
0010
0000
0100
0001
0100
0001
,  // measure 59
1000
0000
0100
0000
0100
0000
0010
0100
1000
0000
0001
1000
0010
0000
0100
0000
,  // measure 60
0101
0000
0000
0000
1001
0000
0000
0000
0011
0000
0010
0100
2000
0000
0000
0000
,  // measure 61
3001
0100
0010
0000
1000
0001
0010
0000
,  // measure 62
0100
0000
0000
1000
0000
0000
0010
0000
0000
0100
0000
0000
0002
0000
0000
0000
0003
0000
1001
0000
0000
0000
0000
0000
,  // measure 63
0001
0010
0100
1000
0000
0100
1000
0010
0100
0001
0000
0100
,  // measure 64
0001
0010
0100
1000
0000
0001
0100
0010
1000
0100
0010
0001
,  // measure 65
1000
0010
0100
0010
0000
0001
0010
0100
0010
1000
0000
0001
,  // measure 66
1000
0000
0100
0000
0010
0000
0100
0000
0001
0000
0100
0000
0010
0000
0100
0000
1000
0000
0001
0000
0000
0001
0000
0000
,  // measure 67
1000
0001
1000
0010
0100
0000
2000
0000
3100
0010
0100
0001
1000
0000
0002
0000
,  // measure 68
1003
0001
1000
0100
0010
0000
1000
0010
1000
0000
0010
0000
0100
1000
0001
0100
,  // measure 69
0010
0000
0100
0000
0100
0000
0010
0100
0001
0000
1000
0001
0010
0000
0100
0000
,  // measure 70
1100
0000
0000
0000
1001
0000
0000
0000
1010
0000
0010
1000
0100
0000
0000
0000
,  // measure 71
0021
0000
0130
0010
1020
0000
0130
0010
,  // measure 72
0021
0000
0000
0000
0130
0000
0010
0000
1000
0010
1000
0000
0010
0000
0001
0000
,  // measure 73
2001
0000
0000
0000
3010
0000
0100
0000
0001
1000
0100
0010
0100
0000
0100
0000
,  // measure 74
1000
0010
1000
0010
0100
0000
0001
0010
0100
1000
0002
0003
0002
0003
1000
0000
,  // measure 75
1020
0000
0130
0010
0021
0000
0130
0010
,  // measure 76
1020
0000
0000
0000
0130
0000
0010
0000
0001
0010
0001
0000
0010
0000
1000
0000
,  // measure 77
1002
0000
0000
0000
0013
0000
0100
0000
1000
0001
0100
0010
0100
0000
0100
0000
,  // measure 78
0002
0000
0023
0000
0031
0010
0100
1000
0020
0000
2030
0000
3010
0100
0001
0000
,  // measure 79
0020
0000
0000
0000
,  // measure 80
0030
0000
0000
0000
0000
0000
0100
0010
,  // measure 81
2002
3003
0000
0000
,  // measure 82
2000
0000
3200
0000
0310
0001
1001
0000
,  // measure 83
1000
0000
1000
0000
2010
0000
3100
0010
0001
0000
0001
0000
0012
0000
0103
0010
,  // measure 84
1000
0000
0001
0000
0010
0000
0100
0000
1000
0000
0001
1000
0001
0000
0100
0000
,  // measure 85
0010
0000
1000
0000
1002
0000
0013
0100
0010
0000
0001
0000
2001
0000
3010
0100
,  // measure 86
0001
1000
0100
0010
0210
0000
2300
0000
,  // measure 87
3002
0000
0000
0000
0003
0000
1000
0010
0100
0000
0001
0000
0001
0000
1000
0100
,  // measure 88
0010
0000
0010
0000
0100
0000
1000
0001
0200
0000
0000
0000
0000
0000
0000
0000
,  // measure 89
0300
0000
0000
0000
;

//---------------dance-single - ----------------
#NOTEDATA:;
#CHARTNAME:;
#STEPSTYPE:dance-single;
#DESCRIPTION:;
#CHARTSTYLE:;
#DIFFICULTY:Medium;
#METER:14;
#RADARVALUES:0.665119,1.083532,0.368925,0.486981,0.236112,631.000000,581.000000,50.000000,66.000000,0.000000,0.000000,0.000000,0.000000,0.000000,0.665119,1.083532,0.368925,0.486981,0.236112,631.000000,581.000000,50.000000,66.000000,0.000000,0.000000,0.000000,0.000000,0.000000;
#CREDIT:;
#DISPLAYBPM:85.000000:170.000000;
#NOTES:
// measure 0
0000
0000
0000
0000
,  // measure 1
0000
0000
0000
0000
,  // measure 2
0000
0000
0000
0000
,  // measure 3
0000
0000
0000
0000
,  // measure 4
0000
0000
0000
0000
,  // measure 5
1000
0010
1010
0000
0001
0010
0011
0000
,  // measure 6
1000
0010
0001
0010
1000
0001
1001
0000
,  // measure 7
0001
0010
0100
1000
0010
0100
0001
1000
,  // measure 8
1100
0000
0011
0000
1002
0100
0103
0000
,  // measure 9
1002
0000
0013
0100
0002
0000
0103
0010
,  // measure 10
0002
0000
0000
0000
0013
0000
0100
0000
1000
0001
1000
0000
0010
0000
1000
0000
,  // measure 11
1020
0000
0130
0010
0001
0010
1000
0000
,  // measure 12
0001
0000
0010
0000
0100
0000
0001
0000
0100
0000
2000
3000
0002
0003
0000
0000
,  // measure 13
2001
0000
3010
0100
2000
0000
3100
0010
,  // measure 14
2000
0000
0000
0000
3010
0000
0100
0000
0001
1000
0001
0000
0010
0000
0001
0000
,  // measure 15
0021
0000
0130
0010
1000
0010
0001
0000
,  // measure 16
1000
0000
0010
0000
0100
0000
0001
0000
0010
0000
0100
0000
1000
0001
1000
0000
,  // measure 17
0001
0001
1000
1000
,  // measure 18
0001
0000
0001
0000
1000
0001
1001
0000
,  // measure 19
0001
0200
0000
0310
0001
0010
1000
0001
,  // measure 20
1000
0200
0000
0310
1000
0010
0001
1000
,  // measure 21
0001
0200
0000
1300
0001
0010
1000
0001
,  // measure 22
1000
0200
0000
0301
1000
0010
0001
1000
,  // measure 23
0020
0000
0000
0000
1030
0000
0001
0000
0020
0000
0000
0000
0031
0000
1000
0001
,  // measure 24
1000
0000
1001
0010
0100
0010
1001
0000
,  // measure 25
2000
0010
3000
0001
0100
0010
1000
0001
,  // measure 26
2000
0100
3000
0001
0010
0100
1000
0001
,  // measure 27
2000
0010
3000
0001
0010
0100
0010
0001
,  // measure 28
1000
0000
0010
0100
0000
0010
0100
0000
0010
0000
1000
0000
0010
0000
0100
0000
,  // measure 29
0002
0010
0003
1000
0100
0010
0001
1000
,  // measure 30
0002
0100
0003
1000
0010
0100
0001
1000
,  // measure 31
0002
0010
0003
1000
0010
0100
0010
1000
,  // measure 32
0001
0000
0010
0001
0020
0000
0000
0000
0130
0000
1000
0000
0010
0000
0000
0000
,  // measure 33
2001
0000
3100
0010
0100
0010
0001
1000
0100
0000
0000
0010
0100
1000
0001
0000
,  // measure 34
1000
0010
0100
0001
1000
0010
0100
0001
1000
0100
0010
0001
0100
0010
1000
0000
,  // measure 35
0001
0010
0011
0000
1000
0010
1010
0000
0001
0010
1000
0010
0001
1000
1001
0000
,  // measure 36
0001
0100
0101
0000
1000
0100
1100
0000
0001
0100
1000
0100
0002
0000
2003
0000
,  // measure 37
3001
0011
0001
0101
,  // measure 38
1000
1010
1000
1100
,  // measure 39
0001
0011
0001
0101
,  // measure 40
1000
0010
1000
0010
0100
0001
0010
0000
,  // measure 41
0002
0010
2003
0100
,  // measure 42
3002
0100
2003
0010
,  // measure 43
3001
0010
0001
0010
0002
0000
0000
0000
1003
0010
1000
0010
2000
0000
0000
0000
,  // measure 44
3001
0010
0100
1000
0010
0100
0101
0000
,  // measure 45
2002
0000
0000
3003
,  // measure 46
0001
0010
0100
0010
0001
0010
0100
0010
,  // measure 47
0001
1000
0000
0001
0100
0000
0010
0000
0001
0000
0010
0000
0100
0000
0001
0000
,  // measure 48
1000
0100
0000
0010
1000
0000
0010
0000
0001
0000
1000
0001
1000
0000
0010
0000
,  // measure 49
0100
0001
0010
0001
0100
0001
0010
0100
,  // measure 50
1000
0010
0100
0010
1000
0010
0100
0010
,  // measure 51
1000
0001
0000
1000
0200
0000
0320
0000
1030
0000
0010
0000
0200
0000
2300
0000
,  // measure 52
3001
0100
0000
0010
0001
0000
0010
0000
0100
0000
0010
0000
1010
0000
0000
0000
,  // measure 53
0001
0010
0001
0010
0100
0001
0100
0001
,  // measure 54
1000
0000
0010
0000
1000
0000
0010
0000
0100
0000
0010
0000
0001
0010
0001
0000
,  // measure 55
1000
0010
0100
1000
0100
0010
1000
0001
,  // measure 56
0020
0100
0230
1000
2300
3001
1001
0000
,  // measure 57
1000
0010
1000
0010
0100
1000
0100
1000
,  // measure 58
0001
0000
0010
0000
0001
0000
0010
0000
0100
0000
0010
0000
1000
0010
1000
0000
,  // measure 59
0001
0010
0010
0100
1000
0010
0010
0100
,  // measure 60
0101
0000
1010
0000
1100
0100
0011
0000
,  // measure 61
2000
3000
0002
0003
,  // measure 62
2000
3000
0001
1001
,  // measure 63
0001
0000
0100
0010
0000
0100
1000
0000
0100
0010
0000
0100
,  // measure 64
0001
0000
0100
0010
0000
1000
0001
0000
0010
0100
0010
0100
,  // measure 65
1000
0000
0100
0010
0000
0100
0001
0000
0100
0010
0000
0100
,  // measure 66
1000
0000
0000
0000
0001
0000
0100
0000
0000
0000
0010
0000
1000
0000
0000
0000
0001
0000
1000
0000
0000
1000
0000
0000
,  // measure 67
0001
0010
0100
0001
1000
0010
0100
1000
,  // measure 68
0001
0000
0100
0000
1000
0000
0001
0000
0010
0000
1000
0000
0001
1000
0001
0000
,  // measure 69
1000
0100
0100
0010
0001
0100
0100
0010
,  // measure 70
1010
0000
0101
0000
0011
0010
1100
0000
,  // measure 71
2001
0000
3001
0100
2000
0000
3001
0010
,  // measure 72
2000
0000
0000
0000
3001
0000
0100
0000
0010
1000
0010
0000
1000
0000
0100
0000
,  // measure 73
0120
0000
0130
0010
1000
0010
0001
0000
,  // measure 74
1000
0000
0010
0000
0100
0000
1000
0000
0100
0000
0002
0003
2000
3000
0000
0000
,  // measure 75
1002
0000
1003
0100
0002
0000
1003
0010
,  // measure 76
0002
0000
0000
0000
1003
0000
0100
0000
0010
0001
0010
0000
0001
0000
0100
0000
,  // measure 77
0120
0000
0130
0010
0001
0010
1000
0000
,  // measure 78
0001
0000
0010
0000
0100
0000
1000
0000
0010
0000
0100
0000
0001
1000
0001
0000
,  // measure 79
0020
0000
0000
0000
,  // measure 80
0030
0000
0000
0000
0000
0000
0100
0010
,  // measure 81
2002
3003
0000
0000
,  // measure 82
2000
0000
3200
0000
0310
0001
1001
0000
,  // measure 83
0101
0001
0011
0000
1100
1000
1010
0000
,  // measure 84
0001
0010
1000
0010
0001
1000
1001
0000
,  // measure 85
1000
0010
0100
0001
0010
0100
1000
0001
,  // measure 86
2000
3010
0200
0301
2001
0000
3200
0000
,  // measure 87
0320
0000
0030
0100
1000
0001
0001
1000
,  // measure 88
0010
0000
0010
0000
0100
0000
0001
1000
0002
0000
0000
0000
0000
0000
0000
0000
,  // measure 89
0003
0000
0000
0000
;

//---------------dance-single - ----------------
#NOTEDATA:;
#CHARTNAME:;
#STEPSTYPE:dance-single;
#DESCRIPTION:;
#CHARTSTYLE:;
#DIFFICULTY:Easy;
#METER:12;
#RADARVALUES:0.524927,0.853692,0.309897,0.509116,0.059028,498.000000,456.000000,42.000000,69.000000,0.000000,0.000000,0.000000,0.000000,0.000000,0.524927,0.853692,0.309897,0.509116,0.059028,498.000000,456.000000,42.000000,69.000000,0.000000,0.000000,0.000000,0.000000,0.000000;
#CREDIT:;
#DISPLAYBPM:85.000000:170.000000;
#NOTES:
// measure 0
0000
0000
0000
0000
,  // measure 1
0000
0000
0000
0000
,  // measure 2
0000
0000
0000
0000
,  // measure 3
0000
0000
0000
0000
,  // measure 4
0000
0000
0000
0000
,  // measure 5
1000
0010
0100
0000
0010
0100
0001
0000
,  // measure 6
1000
0100
1000
0100
0010
0001
1000
0000
,  // measure 7
0001
0100
0001
0000
1000
0100
1000
0000
,  // measure 8
0020
0230
0302
1003
,  // measure 9
1002
0013
1002
0013
,  // measure 10
1002
0000
0013
0001
0100
0001
0010
0000
,  // measure 11
1002
0000
0103
0001
0010
0001
0100
0000
,  // measure 12
0010
0000
1000
0000
0100
0000
0000
0000
0010
0000
0002
0003
0200
0300
0000
0000
,  // measure 13
2001
3010
2001
3010
,  // measure 14
2001
0000
3010
1000
0100
1000
0010
0000
,  // measure 15
2001
0000
3100
1000
0010
1000
0100
0000
,  // measure 16
0010
0001
0010
0001
0100
0010
1000
0000
,  // measure 17
0001
0001
1000
1000
,  // measure 18
0001
0001
1000
1001
,  // measure 19
0001
0010
0000
0010
0100
0010
0001
0000
,  // measure 20
1000
0010
0000
0010
0100
0010
1000
0000
,  // measure 21
0100
0010
0000
0010
1000
0010
0001
0000
,  // measure 22
0100
0010
0000
0010
0001
0010
1000
0000
,  // measure 23
0002
0003
0011
0000
2000
3000
1010
0000
,  // measure 24
1001
0000
1000
0100
0001
0100
1000
0000
,  // measure 25
0002
0000
0003
0100
0010
0100
0001
0000
,  // measure 26
0020
0000
0030
0001
0010
0100
0010
0000
,  // measure 27
0002
0000
0003
1000
0010
0100
0001
0000
,  // measure 28
2000
0100
3002
0010
,  // measure 29
2003
0000
3000
0100
0010
0100
1000
0000
,  // measure 30
0020
0000
0030
1000
0010
0100
0010
0000
,  // measure 31
2000
0000
3000
0001
0010
0100
1000
0000
,  // measure 32
0001
0100
0020
0000
1030
0100
0020
0000
,  // measure 33
0032
0000
0000
0000
0013
0000
0001
0000
0100
0000
0000
0000
0001
0100
0010
0000
,  // measure 34
2000
0000
3010
1000
0001
0011
1000
1010
,  // measure 35
0001
0010
0100
0000
0010
0100
1000
0000
0001
0100
0001
0100
0010
1000
0001
0000
,  // measure 36
1000
0100
1000
0000
0001
0100
0001
0000
0020
0000
0230
0000
2300
0000
3002
0000
,  // measure 37
1003
0000
0001
0000
,  // measure 38
1000
0010
0001
0100
,  // measure 39
1000
0000
0001
0000
,  // measure 40
0001
0010
0100
0010
0001
0000
1001
0000
,  // measure 41
2000
0010
3002
0100
,  // measure 42
2003
0100
3002
0010
,  // measure 43
1003
0010
1010
0000
0001
0010
0011
0000
,  // measure 44
1000
0001
0200
0000
0310
0010
1001
0000
,  // measure 45
0200
0000
0300
1001
,  // measure 46
0001
0010
0100
0000
0100
0010
0001
0000
,  // measure 47
0001
0010
1000
0000
1000
0010
0100
0010
,  // measure 48
0002
0000
0010
0000
1003
0001
0100
0010
,  // measure 49
1000
0001
0010
0000
0100
1000
0001
0000
,  // measure 50
1000
0010
0100
0000
0100
0010
1000
0000
,  // measure 51
1000
0010
0001
0000
0001
0010
0100
0010
,  // measure 52
2000
0000
0001
0000
3100
0010
0110
0000
,  // measure 53
0001
0010
0100
1000
0001
0010
0100
0000
,  // measure 54
1000
0010
1000
0010
0001
0010
1000
0000
,  // measure 55
0001
0010
0100
1000
0001
0100
0010
0000
,  // measure 56
1010
1001
1100
0011
,  // measure 57
1000
0010
0100
0001
1000
0010
0100
0000
,  // measure 58
0001
0010
0001
0010
1000
0010
0001
0000
,  // measure 59
2000
0010
3010
0000
0002
0100
0103
0000
,  // measure 60
1010
0000
1001
0000
1000
0100
0110
0000
,  // measure 61
0002
0003
2000
3000
,  // measure 62
0002
0003
1000
1001
,  // measure 63
0001
0000
0100
0010
0000
0000
0100
0000
0001
0010
0000
0000
,  // measure 64
0001
0000
0100
0010
0000
0000
0110
0000
0001
0100
0000
0001
,  // measure 65
1000
0000
0100
0010
0000
0000
0100
0000
1000
0010
0000
0000
,  // measure 66
1000
0000
0100
0010
0000
0000
0110
0000
0000
1001
0000
0000
,  // measure 67
0001
0010
0100
1000
0001
0100
0010
0000
,  // measure 68
1000
0010
1000
0010
0001
0010
1000
0000
,  // measure 69
0002
0010
0013
0000
2000
0100
3100
0000
,  // measure 70
0011
0000
0010
0001
1000
0001
0100
0000
,  // measure 71
1020
0130
0021
0130
,  // measure 72
1020
0000
0130
0010
0001
0010
0100
0000
,  // measure 73
2010
0000
3100
1000
0010
1000
0100
0000
,  // measure 74
0010
0000
0001
0000
0100
0000
0000
0000
0010
0000
2000
3000
0200
0300
0000
0000
,  // measure 75
0021
0130
1020
0130
,  // measure 76
0021
0000
0130
0010
1000
0010
0100
0000
,  // measure 77
0012
0000
0103
0001
0010
0001
0100
0000
,  // measure 78
0010
1000
0010
1000
0100
0010
0001
0000
,  // measure 79
2002
0000
0000
0000
,  // measure 80
3003
0000
0000
0100
,  // measure 81
2002
3003
0000
0000
,  // measure 82
0002
0000
0203
0000
0320
1000
1030
0000
,  // measure 83
0001
0010
1000
0000
0010
0001
0100
0000
,  // measure 84
0010
1000
0010
1000
0100
0010
0001
0000
,  // measure 85
1000
0010
0001
0000
0010
1000
0100
0000
,  // measure 86
0020
0032
2003
3020
,  // measure 87
0230
0000
0300
0000
0100
0010
1000
0000
,  // measure 88
0100
0010
0001
1000
0200
0000
0000
0000
,  // measure 89
0300
0000
0000
0000
;

//---------------dance-single - ----------------
#NOTEDATA:;
#CHARTNAME:;
#STEPSTYPE:dance-single;
#DESCRIPTION:;
#CHARTSTYLE:;
#DIFFICULTY:Beginner;
#METER:9;
#RADARVALUES:0.380519,0.480340,0.258247,0.693578,0.000000,361.000000,326.000000,35.000000,94.000000,0.000000,0.000000,0.000000,0.000000,0.000000,0.380519,0.480340,0.258247,0.693578,0.000000,361.000000,326.000000,35.000000,94.000000,0.000000,0.000000,0.000000,0.000000,0.000000;
#CREDIT:;
#OFFSET:-0.706620;
#BPMS:0.000000=170.000000
;
#STOPS:;
#DELAYS:;
#WARPS:;
#TIMESIGNATURES:0.000000=4=4
;
#TICKCOUNTS:0.000000=4
;
#COMBOS:0.000000=1
;
#SPEEDS:0.000000=1.000000=0.000000=0
;
#SCROLLS:0.000000=1.000000
;
#FAKES:;
#LABELS:0.000000=Song Start
;
#DISPLAYBPM:85.000000:170.000000;
#NOTES:
// measure 0
0000
0000
0000
0000
,  // measure 1
0000
0000
0000
0000
,  // measure 2
0000
0000
0000
0000
,  // measure 3
0000
0000
0000
0000
,  // measure 4
0000
0000
0000
0000
,  // measure 5
1000
1000
0100
0100
,  // measure 6
0010
0001
1000
0001
,  // measure 7
0100
0100
0010
0010
,  // measure 8
2000
3200
0320
0032
,  // measure 9
2003
3010
2000
3010
,  // measure 10
2000
0000
3010
0000
1000
0100
1000
0000
,  // measure 11
0020
0000
1030
0000
0010
0100
0001
0000
,  // measure 12
0012
1003
2010
3001
,  // measure 13
0002
0013
0002
0013
,  // measure 14
0002
0000
0013
0000
0001
0100
0001
0000
,  // measure 15
0020
0000
0031
0000
0010
0100
1000
0000
,  // measure 16
0001
0000
0001
0000
1000
0010
0100
0000
,  // measure 17
0001
0000
1000
0000
,  // measure 18
0001
0000
1000
0001
,  // measure 19
1000
0100
0010
0011
,  // measure 20
0010
0100
1000
1001
,  // measure 21
0001
0100
0010
1010
,  // measure 22
0010
0100
0001
1001
,  // measure 23
0020
0030
0020
0030
,  // measure 24
1002
0203
0320
1030
,  // measure 25
0001
0000
0001
0010
,  // measure 26
1000
0000
1000
0010
,  // measure 27
0001
0000
0001
0100
,  // measure 28
1000
0100
0001
0001
,  // measure 29
1000
0000
1000
0010
,  // measure 30
0001
0000
0001
0010
,  // measure 31
1000
0000
1000
0100
,  // measure 32
0001
0000
0110
0000
,  // measure 33
2001
0000
0010
0000
,  // measure 34
3010
0000
0010
0010
,  // measure 35
1002
0000
0010
0000
,  // measure 36
0103
0001
0010
0000
,  // measure 37
0001
0001
0100
0100
,  // measure 38
0010
1000
0001
1000
,  // measure 39
0100
0100
0010
0010
,  // measure 40
0002
0203
0320
2030
,  // measure 41
3001
0000
0001
0000
,  // measure 42
1000
0000
1000
0000
,  // measure 43
0001
0000
0001
0000
,  // measure 44
1000
0001
1000
2001
,  // measure 45
3100
0010
0001
0000
,  // measure 46
0100
0010
1000
0000
,  // measure 47
2020
3030
0202
0303
,  // measure 48
0022
0033
1100
1001
,  // measure 49
0002
0000
0003
1001
,  // measure 50
1000
0010
1000
0010
,  // measure 51
0001
0000
0010
0000
1000
0001
1000
0000
,  // measure 52
0100
0000
0010
0001
1000
0000
1001
0000
,  // measure 53
0002
0100
2003
0100
,  // measure 54
3001
0010
0001
0010
,  // measure 55
1000
0000
0010
0000
0001
1000
0001
0000
,  // measure 56
0100
0000
0100
0010
1000
0000
1001
0000
,  // measure 57
0002
0010
2003
0100
,  // measure 58
3002
0000
0010
0000
0103
0010
1000
0000
,  // measure 59
0002
0000
0100
0000
1003
0100
0010
0000
,  // measure 60
0011
1100
1010
0101
,  // measure 61
2000
0010
3002
0100
,  // measure 62
2003
0000
0010
0000
3100
0010
0001
0000
,  // measure 63
1000
1010
0001
0011
,  // measure 64
2000
3020
0230
0302
,  // measure 65
2003
3000
0002
0003
,  // measure 66
2000
3000
0001
1001
,  // measure 67
2000
3200
0320
0230
,  // measure 68
0302
0203
1300
1001
,  // measure 69
0002
0203
0320
0230
,  // measure 70
2300
0000
3200
0000
0301
0000
0001
1000
,  // measure 71
0002
0010
2003
0100
,  // measure 72
3002
0000
0010
0000
0103
0010
1000
0000
,  // measure 73
0001
0011
1000
1010
,  // measure 74
0002
0023
0230
2300
,  // measure 75
3002
0103
2000
3100
,  // measure 76
0002
0000
0103
0000
0010
1000
0100
0000
,  // measure 77
0020
0000
0031
0000
0010
0100
1000
0000
,  // measure 78
2010
3001
0012
1003
,  // measure 79
2000
3100
0002
0103
,  // measure 80
2000
0000
3100
0000
0010
0001
0100
0000
,  // measure 81
0020
0000
1030
0000
0010
0100
0001
0000
,  // measure 82
1000
0000
1000
0000
0001
0010
0100
0000
,  // measure 83
0220
0000
0000
0000
,  // measure 84
0330
0000
0000
0000
,  // measure 85
1001
0000
0000
0000
,  // measure 86
2000
3020
0230
0302
,  // measure 87
2003
0010
3200
0010
,  // measure 88
1300
1010
0001
0011
,  // measure 89
0002
0010
0203
0010
,  // measure 90
0302
0023
0230
2300
,  // measure 91
3002
0000
0000
0000
1003
0010
1000
0000
,  // measure 92
0001
0010
0001
0000
0200
0000
0000
0000
,  // measure 93
0300
0000
0000
0000
;
