#VERSION:0.83;
#TITLE:女王アルエット;
#SUBTITLE:;
#ARTIST:LeaF;
#TITLETRANSLIT:Queen Aluett;
#SUBTITLETRANSLIT:;
#ARTISTTRANSLIT:;
#GENRE:Marchen;
#ORIGIN:;
#CREDIT:;
#BANNER:Queen Aluett.png;
#BACKGROUND:Queen Aluett-bg.png;
#PREVIEWVID:;
#JACKET:Queen Aluett-jacket.png;
#CDIMAGE:;
#DISCIMAGE:;
#LYRICSPATH:;
#CDTITLE:cdtitle.png;
#MUSIC:Queen Aluett.ogg;
#OFFSET:0.280720;
#SAMPLESTART:72.160385;
#SAMPLELENGTH:9.056610;
#SELECTABLE:YES;
#BPMS:0.000=212.000;
#STOPS:;
#DELAYS:;
#WARPS:;
#TIMESIGNATURES:0.000=4=4;
#TICKCOUNTS:0.000=4;
#COMBOS:0.000=1;
#SPEEDS:0.000=1.000=0.000=0;
#SCROLLS:0.000=1.000;
#FAKES:;
#LABELS:0.000=Song Start;
#BGCHANGES:1.563=Queen Aluett.mp4=1.000=1=0=1===CrossFade==,
99999=-nosongbg-=1.000=0=0=0 // don't automatically add -songbackground-
;
#KEYSOUNDS:;
#ATTACKS:
;

//---------------dance-single - ----------------
#NOTEDATA:;
#CHARTNAME:;
#STEPSTYPE:dance-single;
#DESCRIPTION:;
#CHARTSTYLE:;
#DIFFICULTY:Challenge;
#METER:19;
#RADARVALUES:1.200957,1.442539,0.733009,1.030794,1.233135,1101.000000,1005.000000,96.000000,135.000000,4.000000,0.000000,0.000000,0.000000,0.000000,1.200957,1.442539,0.733009,1.030794,1.233135,1101.000000,1005.000000,96.000000,135.000000,4.000000,0.000000,0.000000,0.000000,0.000000;
#CREDIT:;
#NOTES:
0000
0000
0000
0000
,
0000
0000
0000
0000
,
0000
0000
0000
0000
,
0000
0000
0000
0000
,
0000
0000
0000
0000
,
0000
0000
0000
0000
,
0000
0000
0000
0000
0000
1000
0010
0100
,
0002
0010
2003
0100
3002
0010
2003
0100
,
3001
0000
0100
0000
0010
0000
1000
0000
0001
0000
0010
0100
0010
0000
0100
0000
,
2000
0010
3002
0100
2003
0010
3002
0100
,
1003
0000
0100
0000
0010
0000
0001
0000
1000
0000
0001
0100
0010
0000
1000
0000
,
0001
0000
0001
0010
0100
0000
0100
0010
0001
0000
0001
0010
0100
0000
0010
0000
,
0001
0010
0100
0010
0001
0100
0010
0100
0001
0000
0100
0010
1000
0000
0001
0000
,
1000
0000
1000
0100
0010
0000
0010
0001
0100
0000
0100
0010
1000
0000
0001
0000
,
1000
0000
0100
0000
0100
0000
0001
0000
0010
0000
0010
0000
1000
0000
0000
0000
0000
1000
0010
0000
0000
0000
0000
0000
,
0001
0000
0000
0010
0000
0000
0001
0000
0000
0010
0000
0000
0100
0000
0000
0000
1000
0000
0000
0000
0001
0000
0000
0000
1000
0000
0000
0010
0000
0000
1000
0000
0000
0010
0000
0000
0100
0000
0000
0000
0001
0000
0000
0000
1000
0000
0000
0000
,
0001
0000
0000
0010
0000
0000
0001
0000
0000
0010
0000
0000
0100
0000
0000
0000
1000
0000
0000
0000
0001
0000
0000
0000
1000
0000
0000
0010
0000
0000
1000
0000
0000
0010
0000
0000
0100
0000
0000
0000
0001
0000
0000
0000
1000
0000
0000
0000
,
0001
0010
0100
1000
0001
1000
0100
0010
0001
0010
0100
1000
0001
1000
0100
1000
,
0020
0000
0000
0000
1030
0000
0000
1000
0010
0000
1000
0010
1000
0000
0001
0000
,
0020
0000
0031
1000
0020
0000
1030
0000
,
0001
0000
0010
0100
0010
0000
0100
0000
0001
0000
0100
0000
0010
0000
0100
0000
,
0001
0100
0001
0100
2000
0000
3001
0000
,
1000
0000
0010
0100
0010
0000
0100
0000
1000
0000
0100
0000
0010
0000
0100
0000
,
1000
0100
1000
0100
0002
0000
1003
0000
,
1100
1100
0011
0011
,
1001
0101
0110
1010
,
0001
0000
0010
0000
1000
0000
0001
0000
0100
0000
1000
0000
0001
0000
0100
0010
,
0100
0010
0100
0000
0010
0000
1000
0000
0001
0000
0011
0000
1001
0000
0101
0000
,
0001
0000
0100
1000
0100
0000
0001
0000
1000
0000
0100
0000
0001
0000
0100
0000
,
1000
0010
1000
0000
0010
0000
0100
0000
0010
0000
1010
0000
1001
0000
1100
0000
,
1000
0000
0100
0001
0100
0000
1000
0000
0001
0000
0100
0000
1000
0000
0100
0000
,
0001
0010
0001
0000
0010
0000
0100
0000
0010
0001
1000
0010
0100
0001
1000
0100
,
0010
0000
0220
0330
0010
0001
0100
1000
,
0001
0010
0100
0010
1010
0000
1000
0001
,
2000
0100
3002
0100
2003
0010
3002
0010
,
1003
0000
0001
0100
0010
0000
1000
0000
0100
0000
0001
0000
0100
0000
1000
0000
,
2100
0000
3001
0000
0102
0000
1003
0000
2010
0000
3001
0000
0012
0000
1003
0010
,
0100
0000
0000
0000
0000
0000
0100
0000
0000
0000
0000
0000
0100
0000
0000
0000
0000
0000
0100
0000
0000
0000
0000
0000
0110
0000
0000
0000
0000
0000
0000
0000
0000
0001
0000
0000
1000
0000
0000
0000
0000
0000
0000
0000
0001
0000
0010
0000
,
0001
0010
0001
0010
0100
0010
0100
1000
0001
0100
0010
1000
,
1010
0000
0000
0000
0000
0000
0001
0000
0001
0000
0010
0000
0100
0000
0100
0000
0010
0000
0001
0000
0001
0000
1000
0010
,
1000
0010
1000
0010
0100
0010
0100
0001
1000
0100
0010
0001
,
0011
0000
0000
1000
1000
0010
0100
0100
0010
1000
1000
0001
,
0010
0100
1000
0010
0100
0001
1000
0100
0010
0001
0100
0010
,
0000
0000
0010
0100
0010
0000
0010
0000
0010
0000
1000
0010
0100
0001
0010
0100
,
1000
0000
1000
0010
0100
0000
0100
0010
1000
0000
1000
0010
0100
0000
0010
0000
,
1000
0000
0000
0010
0000
0000
0100
0000
0000
0010
0000
0000
1000
0000
0000
0100
0000
0000
0010
0000
0000
0100
0000
0000
1000
0000
0000
0000
0000
0000
1001
0000
0000
0000
0000
0000
1001
0000
0000
0000
0000
0000
0000
0000
1000
0000
0010
0000
,
1000
0010
0100
1000
0100
0010
1000
0001
1000
0100
0010
0001
,
0011
0000
0000
0000
0000
0000
1000
0000
1000
0000
0001
0000
0010
0000
0010
0000
0001
0000
0100
0000
0100
0000
0001
0010
,
0001
0010
0100
0001
0100
0010
0001
1000
0001
0100
0010
1000
,
1010
0000
0000
0001
0001
1000
0010
0010
1000
0100
0100
1000
,
0001
0100
0010
0001
0010
0100
0001
1000
0010
0100
0001
0001
,
1000
0100
0010
1000
0010
0100
1000
0001
0100
0010
1000
1000
,
0001
1000
0100
0001
0100
1000
0001
0100
1000
0100
0001
1000
,
0100
0001
0100
1000
0001
0100
0110
0000
0000
0000
0000
0000
,
1000
0010
1000
0010
0100
0001
0100
0001
1000
0100
1000
0100
0010
0001
0010
0001
,
1000
0010
0100
0001
0010
0001
0100
0010
1000
0100
1000
0010
0100
0001
0010
0100
,
1000
0001
1000
0001
0010
0000
0000
0000
0001
1000
0001
1000
0010
0000
0000
0000
,
1000
0001
0010
0000
0001
1000
0010
0000
1000
0001
0010
0000
0001
1000
0010
0000
,
2020
0000
3030
1001
0022
0000
0033
1001
,
2020
0000
3030
1001
0022
0000
0033
1001
,
1010
0000
0010
0100
0010
0000
1000
0001
1000
0000
0100
0010
0100
0000
0010
0001
,
1000
0010
0100
0001
1000
0100
0001
0100
1000
0010
0001
0010
,
1000
0010
0100
0001
1000
0001
1000
0001
0010
0100
1000
0100
0010
0001
1000
0001
,
0200
0310
M11M
1MM1
,
0022
0033
0000
0000
2200
3300
0001
0000
1000
0000
0001
0100
0010
0100
1000
0000
,
2200
3300
0000
0000
0202
0303
1000
0000
0001
0000
1000
0100
0010
0100
0001
0000
,
0202
0303
0000
0000
2200
3300
1000
0000
0001
0000
0100
0010
0100
0000
0010
0000
,
1020
0000
0000
0000
0130
0001
1000
0001
0020
0000
0130
0000
0110
0000
0110
0000
,
2200
3300
0000
0000
0022
0033
1000
0000
0001
0000
1000
0010
0100
0010
0001
0000
,
0022
0033
0000
0000
2020
3030
0001
0000
1000
0000
0001
0010
0100
0010
1000
0000
,
2020
3030
0000
0000
0022
0033
0001
0000
1000
0001
0100
0010
1000
0000
0001
0000
,
0220
0330
0000
0000
2002
3003
0000
0000
0011
0000
1100
0000
1010
0000
0101
0000
,
2002
3003
0000
0000
2002
0000
0000
0000
0000
0000
0000
0000
0000
0000
0000
0000
,
0000
0000
0000
3003
,
0001
0010
1000
0010
0100
0001
0100
0010
,
1000
0010
0001
1000
0001
0100
0010
0100
,
1000
0100
0010
0100
0001
0100
0001
0100
,
0102
0013
2200
3300
,
0000
0000
1000
0100
1000
0000
0001
0000
0000
0000
0001
0100
0001
0000
1000
0000
,
0000
0000
1000
0010
1000
0000
0001
0000
0000
0000
0001
0010
0001
0000
1000
0000
,
0001
0000
0100
0010
1000
0000
0001
0000
0010
0000
0100
1000
0001
0000
1000
0000
,
0010
0000
0100
0010
1000
0000
0100
0000
0010
0000
0100
0010
0001
0000
1000
0000
,
0001
0000
0100
1000
0100
0000
0001
0000
1000
0000
0100
0001
0100
0000
1000
0000
,
0001
0000
0010
1000
0010
0000
0001
0000
1000
0000
0010
0001
0010
0000
1000
0000
,
0002
0100
0103
0001
2000
0100
3100
1000
,
0002
0000
0103
0010
1000
0000
1000
0000
2002
0000
0000
0000
3003
0000
0000
0000
,
0002
0000
0010
0000
0203
0000
0010
0000
0302
0000
0013
0001
0100
0000
0010
0000
,
2010
0000
3001
0000
0010
0000
0100
0000
0100
0000
0001
0100
0010
0000
0001
0000
,
2000
0000
0010
0000
3200
0000
0010
0000
2300
0000
3010
1000
0100
0000
0010
0000
,
0012
0000
1003
0000
0010
0000
0100
0000
0100
0000
1000
0100
0010
0000
1000
0000
,
0001
0010
0100
1000
0010
1000
0100
0010
0001
0010
0100
1000
0001
1000
0010
0100
,
0001
1000
0100
1000
0010
1000
0100
1000
0001
0100
0010
0100
0001
1000
0100
0010
,
0100
1000
0010
1000
0001
0100
0001
0010
0100
1000
0001
0100
0010
1000
0100
0010
,
0001
0000
0100
0000
0100
0000
1000
0000
0010
0000
0010
0000
0001
0000
0000
0000
0000
0001
0010
0000
0000
0000
0000
0000
,
1000
0000
0010
0000
0001
0000
1000
0000
0100
0000
0001
0000
1000
0000
0000
0000
0000
1000
0010
0000
0000
0000
0000
0000
,
1000
0010
0100
0001
1000
0001
0010
0100
1000
0001
1000
0010
0100
0001
1000
0001
,
0020
0000
0000
0000
0031
0000
0000
0001
0010
0000
0001
0010
0001
0000
1000
0000
,
0020
0000
1030
0001
0020
0030
1001
0000
,
0020
0030
1001
0000
0020
0030
1001
0000
,
0020
0000
0130
0000
0020
0000
0130
0000
0020
0000
0130
0010
0100
0000
1001
0000
,
0001
0100
0010
1000
0100
1000
0010
0100
0001
0010
0100
1000
0200
0000
0000
0000
,
1300
0000
0001
0100
0001
0000
1000
0100
1000
0000
0001
0010
0100
0010
0100
0010
,
0001
1000
1000
0010
0100
0100
0001
0010
0010
0001
0100
0010
,
2020
3030
0000
0000
0202
0303
1000
0000
0001
0000
0010
0100
1000
0100
0001
0000
,
0202
0303
0000
0000
0022
0033
1000
0001
1000
0000
0010
0100
0001
0100
1000
0000
,
2200
3300
0000
0000
2020
3030
0001
0000
1000
0000
0100
0010
0100
0000
0100
0000
,
0021
0000
0000
0000
0130
1000
0001
1000
0020
0000
0130
0000
0110
0000
0110
0000
,
0202
0303
0000
0000
2020
3030
0001
0000
1000
0000
0100
0010
0001
0010
1000
0000
,
2020
3030
0000
0000
2200
3300
0001
1000
0001
0000
0100
0010
1000
0010
0001
0000
,
0022
0033
0000
0000
0202
0303
1000
0000
0001
0000
0010
0100
0010
0000
0010
0000
,
2200
3300
0000
0000
0022
0033
0001
0010
0100
1000
0010
0100
0001
0000
0101
0000
,
0220
0330
2002
3003
0000
0100
0010
0100
,
0220
0330
2002
3003
0000
0100
0010
0100
,
2002
3003
0000
0000
0022
0033
0000
0000
,
2200
3300
0001
0000
1000
0000
0000
0000
;

//---------------dance-single - ----------------
#NOTEDATA:;
#CHARTNAME:;
#STEPSTYPE:dance-single;
#DESCRIPTION:;
#CHARTSTYLE:;
#DIFFICULTY:Hard;
#METER:18;
#RADARVALUES:1.083152,1.223973,0.740645,1.343850,0.962074,993.000000,896.000000,97.000000,176.000000,4.000000,0.000000,0.000000,0.000000,0.000000,1.083152,1.223973,0.740645,1.343850,0.962074,993.000000,896.000000,97.000000,176.000000,4.000000,0.000000,0.000000,0.000000,0.000000;
#CREDIT:;
#NOTES:
0000
0000
0000
0000
,
0000
0000
0000
0000
,
0000
0000
0000
0000
,
0000
0000
0000
0000
,
0000
0000
0000
0000
,
0000
0000
0000
0000
,
0000
0000
0000
0000
0000
1000
0010
0100
,
0202
0303
0022
0033
0202
0303
0012
1003
,
0001
0000
0100
0000
1000
0000
0100
0000
0001
0000
1000
0001
1000
0000
0100
0000
,
2200
3300
2020
3030
2200
3300
2010
3001
,
1000
0000
0100
0000
0001
0000
0100
0000
1000
0000
0001
0100
0010
0000
1000
0000
,
0001
0000
1000
0100
1000
0000
0001
0100
0001
0000
1000
0100
1000
0000
0001
0000
,
1000
0010
1000
0010
0100
0001
0100
0001
1000
0000
0100
0010
0100
0000
0010
0000
,
0001
0000
1000
0010
1000
0000
0001
0010
0001
0000
1000
0010
1000
0000
0001
0000
,
1000
0100
0010
0001
0100
0010
1000
0000
0000
1010
0000
0000
,
2002
0000
0000
3003
0000
0000
1000
0000
0100
0000
0010
0000
0022
0000
0000
0033
0000
0000
0001
0000
0100
0000
0010
0000
,
2020
0000
0000
3030
0000
0000
1000
0000
0100
0000
0010
0000
0022
0000
0000
0033
0000
0000
0001
0000
0100
0000
0010
0000
,
1000
0010
1000
0010
0100
0001
1000
0000
0001
0010
0001
0010
0100
1000
0001
0000
,
0200
0000
0000
0000
0310
0000
0000
0010
1000
0000
0001
0010
0001
0000
0010
0000
,
0200
0000
1300
0001
0200
0000
0310
0000
,
1000
0001
0100
0001
1000
0001
0100
0001
,
1000
0001
1000
0001
0020
0000
1000
0000
,
0031
1000
0100
1000
0001
1000
0100
1000
,
0001
0000
0000
0000
0000
0000
0000
0000
1000
0000
0000
0000
0000
0000
0000
0000
0001
0000
0000
0000
0000
0000
0000
0000
1000
0000
0000
0000
0000
0000
0000
0000
0020
0000
0000
0000
0000
0000
0000
0000
0000
0000
0000
0000
0000
0000
0000
0000
0001
0000
0000
0000
0000
0000
0000
0000
0000
0000
0000
0000
0000
0000
0000
0030
,
1010
1010
0101
0101
,
1001
1100
0110
0011
,
1000
0000
0010
0000
0001
0000
1000
0000
0100
0000
0001
0000
1000
0000
0100
0010
,
0100
0010
0100
0000
0010
0000
0001
0000
1000
0000
1010
0000
0001
0000
0011
0000
,
1000
0000
0001
0100
0001
0000
1000
0000
0001
0000
0100
0000
0001
0000
1000
0000
,
0001
0010
0001
0000
0100
0000
0100
0000
0001
0000
0011
0000
1000
0000
1010
0000
,
0001
0000
1000
0100
1000
0000
0001
0000
1000
0000
0100
0000
1000
0000
0001
0000
,
1000
0010
1000
0000
0100
0000
0100
0000
1000
0001
0100
0010
1000
0000
0001
1000
,
0100
0000
0220
0330
0010
0001
0100
1000
,
0001
0010
0100
0010
1010
0000
1000
0001
,
0022
0033
2020
3030
2200
3300
0202
0303
,
0001
0000
0100
0001
0010
0000
0001
0000
0010
0000
0001
0000
0100
0000
0010
0000
,
2020
0000
0000
0000
0000
0000
0000
0000
3030
0000
0000
0000
0000
0000
0000
0000
0022
0000
0000
0000
0000
0000
0000
0000
0033
0000
0000
0000
0000
0000
0000
0000
0202
0000
0000
0000
0000
0000
0000
0000
0303
0000
0000
0000
0000
0000
0000
0000
2200
0000
0000
0000
0000
0000
0000
3300
0100
0000
0000
0000
1000
0000
0000
0000
,
0010
0000
1000
0000
0010
0000
1000
0000
0100
0000
0000
0100
0010
0000
0000
0000
,
0001
0010
0001
0010
0100
0010
0100
1000
0100
1000
0001
0200
,
0010
0000
0000
1300
0100
0001
1000
0010
0100
0001
0000
0001
,
1000
0010
1000
0010
0100
0010
0100
0001
0100
0001
1000
0200
,
0010
0000
0000
0301
0100
1000
0001
0010
0100
1000
0000
1000
,
0001
0010
0001
1000
0010
1000
0001
0100
0001
1000
0100
1000
,
0000
0000
0001
1000
0001
0000
1000
0000
0001
0000
1000
0010
1000
0001
0010
0001
,
1000
0000
0001
0100
0001
0000
1000
0100
1000
0000
0001
0100
0001
0000
1000
0000
,
0001
0010
0001
0010
0100
1000
0100
1000
0001
0000
0100
0000
0110
0000
0000
0000
,
0001
0100
0001
0100
0010
0100
0010
1000
0001
1000
0100
0020
,
0100
0000
0000
1030
0010
0001
1000
0010
0100
0001
0000
0001
,
1000
0100
1000
0100
0010
0100
0010
0001
1000
0001
0100
0020
,
0100
0000
0000
0031
0010
1000
0001
0010
0100
1000
0000
1000
,
0001
0100
0001
0100
0010
0200
1000
0000
0000
0301
0100
0010
,
1000
0100
1000
0100
0010
0200
0001
0000
0000
1300
0100
0010
,
0001
0100
0001
1000
0100
1000
0001
0100
0001
1000
0100
1000
,
0001
0100
0010
1000
0100
0010
0110
0000
0000
0000
0000
0000
,
0001
0010
0100
0000
0010
0100
1000
0000
0001
0010
0100
0000
0010
0100
1000
0000
,
0001
0100
0010
0000
1000
0100
0010
0000
0001
0100
0010
1000
0100
0010
0001
0000
,
1000
0010
1000
0010
1000
0000
0000
0000
0001
0010
0001
0010
0001
0000
0000
0000
,
1000
0010
1000
0000
0001
0010
0001
0000
1000
0010
1000
0000
0001
0010
0001
0000
,
0022
0000
0033
1000
2020
0000
3030
0001
,
0022
0000
0033
1000
2020
0000
3030
0001
,
0022
0033
2200
3300
2020
3030
0202
0303
,
1000
0010
0100
0001
1000
0100
0001
0100
1000
0001
0100
0010
,
2000
0000
0000
0000
,
3001
0100
M11M
1MM1
,
0022
0033
0000
0000
2200
3300
0001
0000
0001
0000
0100
0010
0100
0000
1000
0000
,
2200
3300
0000
0000
0202
0303
1000
0000
1000
0000
0100
0010
0100
0000
0001
0000
,
0202
0303
0000
0000
2200
3300
0001
0000
0001
0000
0100
0010
1000
0000
0010
0000
,
1020
0000
0000
0000
0130
0001
1000
0100
0020
0000
0100
0000
0100
0000
0130
0000
,
2200
3300
0000
0000
0022
0033
1000
0000
1000
0000
0010
0100
0010
0000
0001
0000
,
0022
0033
0000
0000
2020
3030
0001
0000
0001
0000
0010
0100
0010
0000
1000
0000
,
2020
3030
0000
0000
0022
0033
1000
0000
1000
0010
0100
0001
1000
0000
0100
0000
,
0022
0033
0000
0000
2200
3300
0000
0000
1010
0000
0001
0000
0101
0000
1000
0000
,
2020
3030
0000
0000
2002
0000
0000
0000
0000
0000
0000
0000
0000
0000
0000
0000
,
0000
0000
0000
3003
,
0001
0010
0001
0010
0100
1000
0100
1000
,
0001
0100
0001
0100
1000
0001
0010
1000
,
0100
0001
0100
0001
0100
1000
0100
1000
,
2100
3010
0202
0303
,
0000
1000
0100
0001
0000
1000
0010
0001
,
0000
0001
0100
1000
0000
0001
0010
1000
,
0000
0000
0001
0010
0001
0000
1000
0000
0000
0000
1000
0010
1000
0000
0001
0000
,
0000
0000
0001
0100
0010
0000
1000
0000
0000
0000
1000
0100
0010
0000
0001
0000
,
0022
0000
0033
0000
0001
0100
0010
0000
2020
0000
3030
0000
1000
0100
0010
0000
,
0022
0000
0033
0000
0001
0100
0010
0000
2020
0000
3030
0000
1000
0001
1000
0001
,
0020
0100
0100
0130
0020
0001
0001
0031
,
1000
0000
0001
0100
0010
0000
1000
0000
2002
0000
0000
0000
3003
0000
0000
0000
,
2000
0000
0100
0000
3002
0000
0010
0000
2003
0000
3100
1000
0010
0000
1000
0000
,
0100
0000
0100
0000
0001
0000
0100
0000
1000
0000
0001
0100
0010
0000
1000
0000
,
0002
0000
0100
0000
2003
0000
0010
0000
3002
0000
0103
0001
0010
0000
0001
0000
,
0100
0000
0100
0000
1000
0000
0100
0000
0001
0000
1000
0001
1000
0000
0001
0000
,
1000
0100
0010
0001
0010
0100
1000
0000
0001
0100
0010
1000
0010
0100
0001
0000
,
1000
0100
1000
0000
0001
0100
0001
0000
1000
0010
1000
0000
0001
0010
0001
1000
,
0010
0100
0001
0000
1000
0010
1000
0001
0010
0100
1000
0000
0001
1000
0001
1000
,
0001
0100
0010
1000
0100
0010
0001
0000
0000
0011
0000
0000
,
1000
0010
0001
1000
0100
0001
1000
0000
0000
1010
0000
0000
,
1000
0010
0100
0000
0001
0010
0100
0000
1000
0001
0100
0000
0001
1000
0001
1000
,
0200
0000
0000
0000
0310
0000
0000
0010
0001
0000
1000
0010
1000
0000
0010
0000
,
0200
0000
0301
1000
0200
0000
0310
0000
,
0200
0310
0200
0310
,
0200
0000
0310
0000
0200
0000
0310
0000
0200
0000
0310
0100
0010
0000
0001
0000
,
1000
0010
0100
0010
0100
0001
1000
0000
0001
0010
0100
1000
0002
0000
0000
0000
,
1003
0000
0001
0100
0010
0000
0000
0010
1000
0000
0001
0000
1000
0100
1000
0100
,
0010
0001
0100
1000
0100
0001
0010
1000
0010
0001
0100
0010
,
2020
3030
0000
0000
0202
0303
1000
0000
0001
0000
1000
0100
0010
0000
0100
0000
,
0202
0303
0000
0000
0022
0033
1000
0001
1000
0000
0001
0100
0010
0000
0100
0000
,
2200
3300
0000
0000
2020
3030
0001
1000
0001
0000
1000
0100
0010
0000
0001
0000
,
0021
0000
0000
0000
0130
1000
0001
0100
0020
0000
0100
0000
0100
0000
0130
0000
,
0202
0303
0000
0000
2020
3030
0001
0000
1000
0000
0001
0010
0100
0000
0010
0000
,
2020
3030
0000
0000
2200
3300
0001
1000
0001
0000
1000
0010
0100
0000
0010
0000
,
0022
0033
0000
0000
0202
0303
1000
0001
1000
0000
0001
0010
0100
0000
0010
0000
,
0220
0330
0000
0000
2002
3003
0000
0000
1000
0001
0100
0010
1000
0000
0010
0000
,
0220
0330
2002
3003
0000
0010
0100
0010
,
0220
0330
2002
3003
0000
0010
0100
0010
,
2002
3003
0000
0000
0022
0033
0000
0000
,
2200
3300
0001
0000
1000
0000
0000
0000
;

//---------------dance-single - ----------------
#NOTEDATA:;
#CHARTNAME:;
#STEPSTYPE:dance-single;
#DESCRIPTION:;
#CHARTSTYLE:;
#DIFFICULTY:Medium;
#METER:15;
#RADARVALUES:0.795184,0.874266,0.794093,1.695083,0.194706,729.000000,625.000000,104.000000,222.000000,4.000000,0.000000,0.000000,0.000000,0.000000,0.795184,0.874266,0.794093,1.695083,0.194706,729.000000,625.000000,104.000000,222.000000,4.000000,0.000000,0.000000,0.000000,0.000000;
#CREDIT:;
#NOTES:
0000
0000
0000
0000
,
0000
0000
0000
0000
,
0000
0000
0000
0000
,
0000
0000
0000
0000
,
0000
0000
0000
0000
,
0000
0000
0000
0000
,
0000
0000
0000
0000
0000
1000
0010
0100
,
0202
0303
0022
0033
0202
0303
0022
0033
,
0001
0100
1000
0100
0001
0000
1000
0100
,
2200
3300
2020
3030
2200
3300
2020
3030
,
1000
0000
0100
0000
0001
0000
0100
0000
1000
0000
0000
0001
0100
0000
0010
0000
,
1000
0100
0001
0100
1000
0001
0100
1000
,
0100
0001
0010
0100
2000
0000
3001
1000
,
0010
0001
0010
1000
0001
0010
1000
0010
,
0002
0000
0000
1003
0010
0100
0001
0000
0000
1001
0000
0000
,
0021
1030
0201
1300
,
1020
0031
1200
0301
,
0001
0010
1000
0001
0100
1000
0001
0100
,
0020
0000
1000
0000
1030
0010
0100
0001
,
0020
0000
0130
0010
0002
0000
1003
0000
,
0002
0203
0302
0203
,
0301
1000
0001
1000
0200
0000
0001
0000
,
2300
3200
2300
3200
,
1300
0000
0000
0000
0000
0000
0000
0000
0001
0000
0000
0000
0000
0000
0000
0000
1000
0000
0000
0000
0000
0000
0000
0000
0001
0000
0000
0000
0000
0000
0000
0000
0200
0000
0000
0000
0000
0000
0000
0000
0000
0000
0000
0000
0000
0000
0000
0000
1000
0000
0000
0000
0000
0000
0000
0000
0000
0000
0000
0000
0000
0000
0000
0300
,
0101
0101
1010
1010
,
1001
0011
0110
1100
,
0001
0100
0010
1000
0100
0010
0001
1000
,
0001
0010
0100
1000
0010
0100
0010
0100
,
2020
3030
2002
3003
2020
3030
2002
3003
,
0001
0000
0100
0010
0100
0000
0001
0000
0010
0000
0100
0000
0010
0000
0100
0000
,
0022
0033
2002
3003
0022
0033
2002
3003
,
1000
0000
0100
0010
0100
0000
1000
0000
0010
0000
1000
0000
0010
0000
0100
0000
,
0001
0000
2002
0000
3003
0001
1000
0100
,
0001
1000
0010
0001
1000
0000
0001
0100
,
0202
0303
2200
3300
2020
3030
0022
0033
,
0001
0000
0100
0010
0100
0000
0010
0000
1000
0000
0001
0000
0010
0000
0100
0000
,
2200
0000
3300
0000
0202
0000
0303
0000
0022
0000
0033
0000
2020
0000
3030
1000
,
0010
0000
0100
0000
0100
0000
0010
0000
1000
0000
0000
0001
1000
0000
0000
0000
,
2001
3200
0302
0203
,
1300
0000
0000
1010
0000
0000
0001
0100
0010
1000
0000
0000
,
1002
0203
2300
3200
,
0301
0000
0000
0011
0000
0000
1000
0100
0010
0001
0000
0000
,
1010
0110
0101
1001
,
0000
0000
0001
1000
0001
0000
1000
0000
0001
0000
0010
0000
1000
0000
0010
0000
,
0001
0100
1000
0100
0001
1000
0100
0001
,
0100
1000
0010
0100
0002
1000
1003
0000
,
1002
0023
2030
3020
,
0130
0000
0000
0011
0000
0000
1000
0010
0100
0001
0000
0000
,
2001
3020
0032
0023
,
0130
0000
0000
1010
0000
0000
0001
0010
0100
1000
0000
0000
,
1010
0000
0000
0110
0000
0000
0101
0000
0000
0001
1000
0001
,
0010
0000
0000
0110
0000
0000
1100
0000
0000
1000
0001
1000
,
0020
0230
0302
2003
,
3200
0000
0000
0310
0100
0010
0001
0000
0000
0000
0000
0000
,
0001
0100
0001
0100
1000
0100
1000
0100
,
0010
0001
0010
1000
0100
0001
0100
1000
,
0002
1003
2000
3001
,
0002
1000
2003
0001
3002
1000
2003
3001
,
0202
0000
0303
1000
2200
0000
3300
0001
,
0202
0000
0303
1000
2200
0000
3300
0001
,
0022
0033
2002
3003
2020
3030
2002
3003
,
0002
0000
0000
0023
0000
0000
0230
0000
0000
1300
0001
0100
,
0020
0000
0000
0000
,
0130
0010
M11M
1MM1
,
0022
0033
0000
0000
2200
3300
0000
0000
0000
0000
0001
0100
0001
0000
0100
0000
,
2000
3000
0000
0000
0202
0303
0000
0000
0000
0000
1000
0100
1000
0000
0100
0000
,
0002
0003
0000
0000
2200
3300
0000
0000
0001
0000
0100
0010
0100
0000
0010
0000
,
2020
3030
0000
0000
2002
3003
0000
0000
1000
0000
0100
0000
0010
0000
0001
0000
,
2200
3300
0000
0000
0022
0033
0000
0000
0000
0000
1000
0010
1000
0000
0010
0000
,
0002
0003
0000
0000
2020
3030
0000
0000
0000
0000
0001
0010
0001
0000
0010
0000
,
2000
3000
0000
0000
0022
0033
0000
0000
1000
0000
0010
0100
0010
0000
0100
0000
,
0202
0303
0000
0000
2002
3003
0000
0000
0002
0000
0010
0000
2003
0000
0010
0000
,
3001
2002
0000
0000
,
0000
0000
0000
3003
,
0002
0010
0203
0010
,
0302
0000
1000
0000
0013
0100
0010
1000
,
0020
0032
0203
0310
,
0102
1003
2200
3300
,
0000
0001
0100
0001
0000
1000
0100
1000
,
0000
0001
0010
0001
0000
1000
0010
1000
,
0000
0001
0010
1000
0000
0001
0100
1000
,
0000
1000
0010
0001
0000
1000
0100
0001
,
2000
0000
0010
0010
3002
0000
0010
0010
,
2003
0000
0100
0100
3002
0000
0100
0100
,
2003
0010
3002
0010
,
1003
0000
0001
1000
0001
0000
1000
0000
2002
0000
0000
0000
3003
0000
0000
0000
,
1000
0000
0010
0000
0001
0000
0010
0000
1000
0000
0001
1000
0001
0000
0100
0000
,
1000
0100
0001
1000
2000
0000
3100
0010
,
0001
0000
0010
0000
1000
0000
0010
0000
0001
0000
1000
0001
1000
0000
0100
0000
,
0001
0100
1000
0001
0002
0000
0103
0010
,
1000
0000
0010
0000
1000
0010
1000
0000
0100
0000
0010
0000
0001
0010
0001
0000
,
0100
1000
0100
0001
0010
1000
0010
0001
,
0100
0001
0100
0000
0010
0000
1000
0000
0100
1000
0100
0000
0010
0000
0001
0000
,
0011
0000
0000
0001
0010
0100
1000
0000
0000
1001
0000
0000
,
1010
0000
0000
1000
0010
0100
0001
0000
0000
1001
0000
0000
,
1000
0010
0001
1000
0100
0001
1000
0001
,
0020
0000
0001
0000
0031
0010
0100
1000
,
0020
0000
0130
0010
2000
0000
3001
0000
,
2000
3001
2000
3001
,
2000
0000
3001
0000
2000
0000
3001
0000
2000
0000
3001
1000
0001
0000
1000
0000
,
2002
0000
0000
3003
,
1000
0100
0001
0000
0100
0000
0001
0100
,
2000
0000
0000
3001
0100
0010
2000
0000
0000
3010
0000
0000
,
2020
3030
0000
0000
0202
0303
0000
0000
0000
0000
1000
0001
1000
0000
0100
0000
,
0002
0003
0000
0000
0022
0033
0000
0000
0000
0000
0001
1000
0001
0000
0100
0000
,
2000
3000
0000
0000
2020
3030
0000
0000
1000
0000
0100
0010
0100
0000
0010
0000
,
0022
0033
0000
0000
2002
3003
0000
0000
0001
0000
0100
0000
0010
0000
1000
0000
,
0202
0303
0000
0000
2020
3030
0000
0000
0000
0000
0001
1000
0001
0000
0010
0000
,
2000
3000
0000
0000
2200
3300
0000
0000
0000
0000
1000
0010
1000
0000
0010
0000
,
0002
0003
0000
0000
0202
0303
0000
0000
0001
0000
0010
0100
0010
0000
0100
0000
,
2200
3300
0000
0000
2002
3003
0000
0000
2000
0000
0010
0000
3002
0000
0010
0000
,
1003
0000
2002
3003
0000
0010
0100
0010
,
0220
0330
2002
3003
0000
0010
0100
0010
,
2002
3003
0000
0000
0022
0033
0000
0000
,
2200
3300
0001
0000
1000
0000
0000
0000
;

//---------------dance-single - ----------------
#NOTEDATA:;
#CHARTNAME:;
#STEPSTYPE:dance-single;
#DESCRIPTION:;
#CHARTSTYLE:;
#DIFFICULTY:Easy;
#METER:12;
#RADARVALUES:0.618476,0.699413,0.694832,1.298037,0.000000,567.000000,476.000000,91.000000,170.000000,4.000000,0.000000,0.000000,0.000000,0.000000,0.618476,0.699413,0.694832,1.298037,0.000000,567.000000,476.000000,91.000000,170.000000,4.000000,0.000000,0.000000,0.000000,0.000000;
#CREDIT:;
#NOTES:
// measure 0
0000
0000
0000
0000
,  // measure 1
0000
0000
0000
0000
,  // measure 2
0000
0000
0000
0000
,  // measure 3
0000
0000
0000
0000
,  // measure 4
0000
0000
0000
0000
,  // measure 5
0000
0000
0000
0000
,  // measure 6
0000
0000
0000
0000
0000
0001
0010
0100
,  // measure 7
2000
0100
3002
0100
,  // measure 8
1003
0001
1000
0001
1000
0000
0100
0010
,  // measure 9
0002
0010
2003
0010
,  // measure 10
3001
1000
0001
1000
0001
0000
1000
0100
,  // measure 11
0020
1000
0230
0001
,  // measure 12
0310
0100
0010
0100
1000
0000
0001
0100
,  // measure 13
0020
0001
0230
1000
,  // measure 14
0310
0010
0110
0000
,  // measure 15
2010
3001
2100
3001
,  // measure 16
0012
1003
0102
1003
,  // measure 17
0002
0023
0230
2300
,  // measure 18
3002
0000
1000
0000
1000
0000
0103
0010
,  // measure 19
2000
0000
3010
0100
0002
0000
1003
0000
,  // measure 20
0001
0000
0001
0000
,  // measure 21
0001
0001
0010
0110
,  // measure 22
1000
0000
1000
0000
,  // measure 23
1000
1000
0010
0110
,  // measure 24
0101
0000
1001
0000
,  // measure 25
1100
0010
0001
1000
,  // measure 26
1010
0000
1001
0000
,  // measure 27
0011
0000
0100
0000
1000
0001
1000
0001
,  // measure 28
1000
1010
0001
0101
,  // measure 29
1000
0010
1000
0000
0010
1000
0100
0010
,  // measure 30
0001
0011
1000
1100
,  // measure 31
0001
0010
0001
0000
0010
0001
0100
0010
,  // measure 32
1000
0000
2002
0000
3003
0000
1000
0100
,  // measure 33
0010
0001
0100
0010
1000
0000
0001
1000
,  // measure 34
0200
0302
2003
3020
,  // measure 35
0031
0010
0100
1000
0001
0000
1000
0001
,  // measure 36
0200
2300
3002
0023
,  // measure 37
1030
0010
0100
0001
0010
0000
0110
0000
,  // measure 38
2100
3002
0203
0320
,  // measure 39
1030
1001
0011
1001
,  // measure 40
0102
2003
3200
0320
,  // measure 41
0031
1001
1010
1001
,  // measure 42
2000
0000
0000
3200
0000
0000
0320
0000
0000
0032
0000
0003
,  // measure 43
0000
0001
1000
0001
1000
0000
0001
0100
,  // measure 44
0020
0001
0230
1000
,  // measure 45
0310
0100
0010
0100
0001
1000
0100
0000
,  // measure 46
0120
2030
3020
0230
,  // measure 47
1300
0011
1001
0101
,  // measure 48
0120
0032
0023
0230
,  // measure 49
0301
1010
1001
1100
,  // measure 50
0021
0230
2300
3010
,  // measure 51
1020
0230
0302
0013
,  // measure 52
0200
0010
0010
0010
,  // measure 53
0010
0310
1001
0000
,  // measure 54
0001
0100
0001
0000
1000
0100
1000
0000
,  // measure 55
0001
0100
0010
1000
0100
0010
0001
0000
,  // measure 56
0022
0033
2020
3030
,  // measure 57
0011
1010
0011
1010
,  // measure 58
0022
0000
0033
0001
2000
0000
3000
1000
,  // measure 59
0002
0000
0003
0001
2000
0000
3000
1000
,  // measure 60
0020
0032
0023
2030
,  // measure 61
3200
0302
2003
3020
,  // measure 62
0032
0000
0000
0000
,  // measure 63
0103
0010
M11M
1MM1
,  // measure 64
0022
0033
0000
0000
2200
3300
0000
0000
0000
0000
0001
0000
0100
0000
0001
0000
,  // measure 65
0020
0030
0000
0000
0202
0303
0000
0000
0000
0000
1000
0000
0100
0000
1000
0000
,  // measure 66
0020
0030
0000
0000
2200
3300
0000
0000
0001
0000
0100
0000
0010
0000
1000
0000
,  // measure 67
0200
0000
0320
0000
0031
0100
0010
0000
,  // measure 68
2020
3030
0000
0000
0202
0303
0000
0000
0000
0000
1000
0000
0010
0000
1000
0000
,  // measure 69
0200
0300
0000
0000
2020
3030
0000
0000
0000
0000
0001
0000
0010
0000
0001
0000
,  // measure 70
0200
0300
0000
0000
0022
0033
0000
0000
1000
0000
0010
0000
0100
0000
0001
0000
,  // measure 71
0020
0000
0230
0000
1300
0100
0001
0100
,  // measure 72
1000
2002
0000
0000
,  // measure 73
0000
0000
0000
3003
,  // measure 74
0001
0100
0001
0100
,  // measure 75
1000
0100
0001
0010
,  // measure 76
1000
0010
0001
0100
,  // measure 77
0010
1000
2020
3030
,  // measure 78
0000
0002
0003
0020
,  // measure 79
0030
0200
0300
2000
,  // measure 80
3001
0200
0310
2000
,  // measure 81
3100
0020
0031
2000
,  // measure 82
0010
3002
0100
2003
,  // measure 83
0100
3002
0010
1003
,  // measure 84
1002
0103
2001
3100
,  // measure 85
0010
0100
0010
0100
0010
0000
0000
0000
,  // measure 86
0011
0101
0011
0101
,  // measure 87
0001
0010
0001
0100
0001
0000
1000
0000
,  // measure 88
1010
1100
1010
1100
,  // measure 89
1000
0010
1000
0100
1000
0000
0001
0000
,  // measure 90
1000
0010
0001
0000
0001
0010
1000
0000
,  // measure 91
1000
0100
0001
0000
0001
0100
1000
0000
,  // measure 92
0001
0100
0001
1000
0100
1000
0001
0000
,  // measure 93
0101
0110
2020
3030
,  // measure 94
1100
0110
0022
0033
,  // measure 95
2000
3020
0230
0302
,  // measure 96
2003
0000
0001
0000
0001
0000
3100
0010
,  // measure 97
0002
0000
0013
0100
2000
0000
3001
0000
,  // measure 98
2000
3001
2000
3001
,  // measure 99
2000
3001
2000
3001
2000
3001
2000
3001
,  // measure 100
0200
0000
0000
0300
,  // measure 101
0001
0100
0010
1000
,  // measure 102
1100
1001
0101
1001
,  // measure 103
2020
3030
0000
0000
0202
0303
0000
0000
0000
0000
0001
0000
0100
0000
1000
0000
,  // measure 104
0100
0000
0000
0000
0202
0303
0000
0000
0000
0000
1000
0000
0100
0000
0001
0000
,  // measure 105
0200
0300
0000
0000
2200
3300
0000
0000
1000
0000
0100
0000
0010
0000
0001
0000
,  // measure 106
0200
0000
0320
0000
1030
0100
0010
0000
,  // measure 107
0022
0033
0000
0000
2200
3300
0000
0000
0000
0000
0001
0000
0010
0000
1000
0000
,  // measure 108
0020
0030
0000
0000
0022
0033
0000
0000
0000
0000
1000
0000
0010
0000
0001
0000
,  // measure 109
0020
0030
0000
0000
2020
3030
0000
0000
0001
0000
0010
0000
0100
0000
1000
0000
,  // measure 110
0020
0000
0230
0000
0301
0100
1000
0100
,  // measure 111
0001
0000
2002
3003
0000
0000
0010
0000
,  // measure 112
2002
3003
2002
3003
0000
0000
0010
0000
,  // measure 113
2002
3003
0000
0000
0220
0330
0000
0000
,  // measure 114
2002
3003
0010
0000
0100
0000
0000
0000
;

//---------------dance-single - ----------------
#NOTEDATA:;
#CHARTNAME:;
#STEPSTYPE:dance-single;
#DESCRIPTION:;
#CHARTSTYLE:;
#DIFFICULTY:Beginner;
#METER:9;
#RADARVALUES:0.387230,0.524560,0.557392,0.542121,0.000000,355.000000,282.000000,73.000000,71.000000,0.000000,0.000000,0.000000,0.000000,0.000000,0.387230,0.524560,0.557392,0.542121,0.000000,355.000000,282.000000,73.000000,71.000000,0.000000,0.000000,0.000000,0.000000,0.000000;
#CREDIT:;
#NOTES:
// measure 0
0000
0000
0000
0000
,  // measure 1
0000
0000
0000
0000
,  // measure 2
0000
0000
0000
0000
,  // measure 3
0000
0000
0000
0000
,  // measure 4
0000
0000
0000
0000
,  // measure 5
0000
0000
0000
0000
,  // measure 6
0000
0000
0000
0000
,  // measure 7
1000
0000
1000
0000
,  // measure 8
1000
0010
1000
0000
,  // measure 9
0001
0000
0001
0000
,  // measure 10
0001
0010
0001
0000
,  // measure 11
1000
0000
0010
0000
,  // measure 12
1000
0010
0100
0000
,  // measure 13
0001
0000
0010
0000
,  // measure 14
0001
0010
0100
0000
,  // measure 15
2200
3300
0022
0033
,  // measure 16
0202
0303
2020
3030
,  // measure 17
0002
0023
0230
2300
,  // measure 18
3002
0000
1003
0000
,  // measure 19
0001
0100
0010
1000
,  // measure 20
0001
0000
0001
0000
,  // measure 21
0001
0001
0001
0000
,  // measure 22
1000
0000
1000
0000
,  // measure 23
1000
1000
1000
0000
,  // measure 24
1010
0000
0110
0000
,  // measure 25
0101
0000
0001
0000
,  // measure 26
0011
0000
0110
0000
,  // measure 27
1100
0000
1000
0001
,  // measure 28
2000
3000
2000
3000
,  // measure 29
1000
1000
0010
0100
,  // measure 30
0002
0003
0002
0003
,  // measure 31
0001
0001
0010
0100
,  // measure 32
1000
2000
3000
1000
,  // measure 33
0010
0100
0001
0000
,  // measure 34
1001
0000
0011
0000
,  // measure 35
0001
0100
0010
0000
,  // measure 36
1001
0000
1010
0000
,  // measure 37
1000
0100
0010
0000
,  // measure 38
0220
0000
0330
0000
,  // measure 39
0010
0001
0100
0010
,  // measure 40
0220
0000
0330
0000
,  // measure 41
0010
1000
0100
0010
,  // measure 42
0110
0000
0110
1001
,  // measure 43
0000
0001
1000
0000
,  // measure 44
0001
0000
0010
0000
,  // measure 45
0100
1000
0010
0000
,  // measure 46
2020
0000
3030
0000
,  // measure 47
0001
0100
0010
1000
,  // measure 48
0022
0000
0033
0000
,  // measure 49
1000
0100
0010
0001
,  // measure 50
2020
3030
0010
1000
,  // measure 51
0022
0033
0010
0001
,  // measure 52
2002
0000
0000
0000
,  // measure 53
0000
0000
3003
0000
,  // measure 54
1000
0000
0001
0000
,  // measure 55
1000
0001
1000
0001
,  // measure 56
0020
0030
0020
0030
,  // measure 57
0010
0010
0010
0010
,  // measure 58
0220
0330
0220
0330
,  // measure 59
0220
0330
0220
0330
,  // measure 60
0001
0010
0001
1000
,  // measure 61
0010
1000
0001
0000
,  // measure 62
0020
0000
0000
0000
,  // measure 63
0030
0000
0110
0000
,  // measure 64
0011
1001
0000
1000
,  // measure 65
1010
1001
0000
0001
,  // measure 66
0011
1001
0000
1000
,  // measure 67
1001
0000
1000
0001
,  // measure 68
0101
1001
0000
1000
,  // measure 69
1100
1001
0000
0001
,  // measure 70
0101
1001
0000
1000
,  // measure 71
1001
0000
0100
0010
,  // measure 72
1001
2002
0000
0000
,  // measure 73
0000
0000
0000
3003
,  // measure 74
0001
0000
0010
0000
,  // measure 75
0100
0000
1000
0100
,  // measure 76
0010
0000
0001
0000
,  // measure 77
0100
0010
1000
0000
,  // measure 78
0002
0003
0020
0030
,  // measure 79
0200
0300
2000
3000
,  // measure 80
0002
0003
0200
0300
,  // measure 81
0020
0030
2000
3000
,  // measure 82
2020
3030
2002
3003
,  // measure 83
0022
0033
2002
3003
,  // measure 84
1000
0000
0001
0000
,  // measure 85
1000
0001
1001
0000
,  // measure 86
0001
0010
0100
0000
,  // measure 87
0010
0001
0100
0000
,  // measure 88
0010
1000
0100
0000
,  // measure 89
1000
0010
0100
0000
,  // measure 90
0001
0010
0100
1000
,  // measure 91
0100
0010
0001
0000
,  // measure 92
0010
0100
1000
0001
,  // measure 93
0100
0010
2020
3030
,  // measure 94
0100
0010
0022
0033
,  // measure 95
2000
3020
0230
0302
,  // measure 96
2003
0000
3001
0000
,  // measure 97
1000
0100
0010
0001
,  // measure 98
1000
0000
1000
0000
,  // measure 99
1000
1000
1000
1000
,  // measure 100
2000
0000
0000
0000
,  // measure 101
3001
0000
0100
0000
,  // measure 102
0010
0100
0010
0000
,  // measure 103
1010
0101
0000
0001
,  // measure 104
0011
1100
0000
1000
,  // measure 105
1010
0101
0000
0001
,  // measure 106
1001
0000
0001
1000
,  // measure 107
1100
0011
0000
0001
,  // measure 108
0101
1010
0000
1000
,  // measure 109
1100
0011
0000
0001
,  // measure 110
1001
0000
0100
0010
,  // measure 111
1001
1001
0000
0010
,  // measure 112
1001
1001
0000
0010
,  // measure 113
1001
0000
0110
0000
,  // measure 114
1001
0010
0100
0000
;
