#TITLE:Pursuing My True Self;
#SUBTITLE:;
#ARTIST:Shoji Meguro feat. Shihoko Hirata;
#TITLETRANSLIT:;
#SUBTITLETRANSLIT:;
#ARTISTTRANSLIT:;
#GENRE:Midnight Pop;
#CREDIT:;
#BANNER:Pursuing My True Self.png;
#BACKGROUND:Pursuing My True Self-bg.png;
#LYRICSPATH:;
#CDTITLE:cdtitle.png;
#MUSIC:Pursuing My True Self.ogg;
#OFFSET:-0.654217;
#SAMPLESTART:57.124805;
#SAMPLELENGTH:18.151268;
#SELECTABLE:YES;
#BPMS:0.000000=119.000000
;
#STOPS:
;
#BGCHANGES:-1.000=Pursuing My True Self.mp4=1.000=1=0=1===CrossFade==,
161.750=Pursuing My True Self-bg.png=1.000=1=0=1===CrossFade==,
99999=-nosongbg-=1.000=0=0=0 // don't automatically add -songbackground-
;
#KEYSOUNDS:;
#ATTACKS:;

//---------------dance-single - ----------------
#NOTES:
     dance-single:
     :
     Challenge:
     12:
     0.486411,0.516905,0.069724,0.453209,0.522934,293.000000,287.000000,6.000000,39.000000,0.000000,0.000000,0.486411,0.516905,0.069724,0.453209,0.522934,293.000000,287.000000,6.000000,39.000000,0.000000,0.000000:
0000
0000
0000
0000
,
0000
0000
0000
0000
,
0000
0000
0000
0000
,
0000
0000
0000
0000
0000
0000
0001
0010
,
1000
0010
0000
0001
0000
0000
2000
0000
0000
0000
0001
0000
0000
0001
0000
0000
,
3020
0000
0000
0000
1000
0000
0000
0000
0000
0000
0100
0000
0000
0130
0000
0010
,
1000
0000
1000
0000
0010
1000
0000
1010
0000
0000
1000
0000
0100
0000
0000
0010
,
0001
0000
0001
0000
0010
0001
0000
0011
0000
0000
0001
0000
1000
0000
0010
0000
,
0001
0000
0010
1000
0000
0010
1000
0000
0002
0000
1000
0000
0000
1000
0000
0000
,
0023
0000
0000
0000
0001
0000
0000
0000
0000
0000
0100
0000
0000
0130
0000
0010
,
0001
0000
0001
0000
0010
0001
0000
0011
0000
0000
0001
0000
0100
0000
0000
0010
,
1000
0000
1000
0000
0010
1000
0000
1010
0000
0000
1000
0000
0001
0000
0000
1000
,
0100
0000
0010
0000
0001
1000
0000
0001
1000
0000
0100
0000
1000
0001
0000
1000
,
0010
0000
1000
0000
0010
0100
0000
0010
0100
0000
0001
1000
0000
1000
0000
0001
,
1000
0000
0100
0000
0010
0001
0000
1000
0100
0000
0010
0000
0001
0100
0001
0100
,
0020
0000
0000
0230
0000
0000
2300
0000
0000
0000
3100
0000
0100
0000
0000
0001
,
0100
0000
0010
0000
1000
0001
0000
1000
0001
0000
0100
0000
0001
1000
0000
0001
,
0010
0000
0001
0000
0010
0100
0000
0010
0100
0000
1000
0001
0000
0001
0000
1000
,
0001
0000
0100
0000
0010
1000
0000
0001
0100
0000
0010
0000
1000
0100
1000
0100
,
0020
0000
0000
0230
0000
0000
0302
0000
0000
0000
0103
0000
1001
0000
0000
0001
,
0100
0000
0100
0000
0020
0000
0032
0000
0023
0000
0000
0100
0000
0000
0032
0000
,
0023
0000
0000
0000
0230
0000
0000
0320
0000
0000
1030
0000
0001
0000
0010
0100
,
0010
0000
0010
0000
0200
0000
0302
0000
0203
0000
0000
0010
0000
0000
2300
0000
,
0000
0000
3001
0000
1000
0010
0200
0000
0000
0000
0301
0000
1000
0000
0100
0010
,
0100
0000
0100
0000
0020
0000
2030
0000
3020
0000
0000
0100
0000
0000
2030
0000
,
3010
0000
0010
0000
0200
0000
0000
0320
0000
0000
0031
0000
1000
0000
0010
0100
,
0010
0000
0010
0000
0200
0000
2300
0000
3200
0000
0000
0000
0310
0100
0010
0100
,
0002
0000
0000
2003
0000
0000
3200
0000
0000
0000
0010
0000
0310
0000
0000
0000
,
0001
0000
0010
0000
1000
0000
0001
0000
0100
0000
1000
0001
0000
1000
0001
0000
,
0010
0000
1000
0001
0000
1000
0001
0000
1000
0000
0010
0000
0001
0000
0100
0000
,
1000
0000
0000
0000
0100
0000
0001
0000
1000
0000
0001
0010
0000
0100
1000
0000
,
0010
0000
0100
0000
0002
0000
0000
0000
1003
0000
0000
0001
0000
0000
1000
0001
,
1000
0000
0010
0000
0001
0000
1000
0000
0100
0000
0001
1000
0000
0001
1000
0000
,
0010
0000
0001
1000
0000
0001
1000
0000
0001
0000
0010
0000
1000
0000
0100
0000
,
0001
0100
0010
0100
1000
1000
0000
0001
,
0001
0000
0100
0000
0010
0000
1000
0001
0000
0000
1000
0000
2002
0000
0000
0000
,
0000
0000
0000
0000
0000
0000
0000
0000
0000
0000
0000
0000
3003
0000
0000
0001
,
0100
0000
0100
0000
0001
0100
0000
0020
0000
0000
1030
0001
1000
0000
0000
0001
,
0010
0000
0100
0000
1000
0001
0000
0100
0000
0000
0001
0000
0001
0000
0000
1000
,
0100
0000
0100
0000
1000
0100
0000
0020
0000
0000
0031
1000
0001
0000
0000
1000
,
0010
0000
0100
0000
0001
1000
0000
0100
0000
0000
0000
0000
0000
0000
0000
0000
;

//---------------dance-single - ----------------
#NOTES:
     dance-single:
     :
     Hard:
     11:
     0.418347,0.422922,0.116207,0.418347,0.255656,252.000000,242.000000,10.000000,36.000000,0.000000,0.000000,0.418347,0.422922,0.116207,0.418347,0.255656,252.000000,242.000000,10.000000,36.000000,0.000000,0.000000:
0000
0000
0000
0000
,
0000
0000
0000
0000
,
0000
0000
0000
0000
,
0000
0000
0000
0000
0000
0000
0001
0100
,
0010
0000
0000
0100
0000
0000
0002
0000
0000
0000
0010
0000
0000
0010
0000
0000
,
2003
0000
0000
0000
0010
0000
0000
0000
0000
0000
0001
0000
0000
3001
0000
1000
,
0100
0000
0100
0000
1000
0100
0000
0010
0000
0000
0001
0000
1000
0000
0000
0001
,
0100
0000
0100
0000
0001
0100
0000
0010
0000
0000
0000
0000
1000
0000
0100
0000
,
0010
0000
0000
0100
0000
0000
2000
0000
0000
0000
0010
0000
0000
0010
0000
0000
,
3002
0000
0000
0000
0010
0000
0000
0000
0000
0000
1000
0000
0000
1003
0000
0001
,
0100
0000
0100
0000
0001
0100
0000
0010
0000
0000
1000
0000
0001
0000
0000
1000
,
0100
0000
0100
0000
1000
0100
0000
0010
0000
0000
0001
0000
1000
0000
0000
0000
,
0001
0100
0010
0100
0001
1000
0001
1000
,
0001
0100
0010
1000
0100
0010
0001
0010
,
0001
0100
0010
0100
0001
1000
0200
0320
,
2030
0000
0000
3002
0000
0000
0203
0000
0000
0000
1000
0000
1300
0000
0000
0000
,
1000
0100
0010
0100
1000
0001
1000
0001
,
1000
0100
0010
0001
0100
0010
1000
0010
,
1000
0100
0010
0100
1000
0001
0200
0320
,
0032
0000
0000
2003
0000
0000
3200
0000
0000
0000
0300
0000
1001
0000
0000
0000
,
0001
0000
0010
0000
0100
0000
0010
0000
0100
0000
0000
1000
0000
0000
0010
0000
,
0100
0000
0010
0000
0110
0000
0000
1010
0000
0000
0011
0000
1000
0000
0000
0000
,
0001
0000
0100
0000
0010
0000
0100
0000
0010
0000
0000
1000
0000
0000
0200
0000
,
0000
0301
0100
2000
0000
0001
3001
0000
,
1000
0000
0010
0000
0100
0000
0010
0000
0100
0000
0000
0001
0000
0000
0010
0000
,
0100
0000
0010
0000
0110
0000
0000
0011
0000
0000
1010
0000
0001
0000
0000
0000
,
1000
0100
0010
0001
1000
0001
0200
2300
,
3002
0000
0000
0023
0000
0000
2030
0000
0000
0000
0001
0000
3001
0000
0000
0000
,
1000
0000
0100
0000
0010
0000
0100
0000
0002
0000
0000
0203
0000
0000
0310
0000
,
0002
0000
0000
0203
0000
0000
0310
0000
0001
0000
0010
0000
0100
0000
0010
0000
,
1000
0000
0000
0000
0010
0000
1000
0000
0200
0000
0000
0320
0000
0000
0230
0000
,
0000
0000
0310
0000
0010
0000
0000
0000
0011
0000
0000
1100
0000
0000
0001
0000
,
0001
0000
0100
0000
0010
0000
0100
0000
2000
0000
0000
3200
0000
0000
0310
0000
,
2000
0000
0000
3200
0000
0000
0310
0000
1000
0000
0010
0000
0100
0000
0010
0000
,
0001
1000
0010
0100
0001
0001
0000
1000
,
1000
0001
0010
0100
1000
0000
2002
0000
,
0000
0000
0000
0000
0000
0000
0000
0000
0000
0000
0000
0000
3003
0000
0000
0001
,
0100
0000
0001
0000
0100
0010
0000
0200
0000
0000
0010
0000
0010
0000
0300
0001
,
1000
0000
0001
0000
1000
0100
0000
0010
0000
0000
0001
0000
0001
0000
0000
1000
,
0100
0000
1000
0000
0100
0010
0000
0200
0000
0000
0010
0000
0010
0000
0300
1000
,
0001
0000
1000
0000
0001
0100
0000
0010
0000
0000
0000
0000
0000
0000
0000
0000
;

//---------------dance-single - ----------------
#NOTES:
     dance-single:
     :
     Medium:
     8:
     0.283878,0.328940,0.162690,0.255656,0.063914,171.000000,157.000000,14.000000,22.000000,0.000000,0.000000,0.283878,0.328940,0.162690,0.255656,0.063914,171.000000,157.000000,14.000000,22.000000,0.000000,0.000000:
0000
0000
0000
0000
,
0000
0000
0000
0000
,
0000
0000
0000
0000
,
0000
0000
0000
0000
0000
0000
0001
0010
,
0002
0010
2000
0003
,
0010
0010
0001
3000
,
1000
0000
0100
0000
1000
0000
0000
1000
0000
0000
0000
0000
0000
0000
0000
0000
,
0001
0000
0100
0000
0001
0000
0000
0001
0000
0000
0000
0000
1000
0000
0010
0000
,
2000
0010
0002
3000
,
0010
0010
1000
0003
,
0001
0000
0100
0000
0001
0000
0000
0001
0000
0000
0000
0000
0000
0000
0000
0000
,
1000
0000
0100
0000
1000
0000
0000
1000
0000
0000
0000
0000
1001
0000
0000
0000
,
1000
0010
0100
0100
,
0010
1000
0100
0100
,
1000
0000
0010
0000
0100
0000
0010
1000
,
0100
0000
0000
0010
0000
0000
0220
0000
0000
0000
0000
0000
0330
0000
0000
0000
,
0001
0010
0100
0100
,
0010
0001
0100
0100
,
0001
0000
0010
0000
0100
0000
0010
0001
,
0100
0000
0000
0010
0000
0000
0220
0000
0000
0000
0330
0000
1001
0000
0000
0000
,
0001
0000
1000
0100
0020
0000
0001
0000
,
0230
0000
1000
0000
0310
0001
1000
0000
,
0001
0000
1000
0010
0100
0000
0001
0000
,
0022
0033
2200
3300
,
1000
0000
0001
0100
0020
0000
1000
0000
,
0230
0000
0001
0000
0310
1000
0001
0000
,
1000
0000
0100
0010
0100
0000
0010
0001
,
0100
0000
0000
0010
0000
0000
0220
0000
0000
0000
0000
0000
0330
0000
0000
0000
,
1000
0010
0001
0000
0010
0000
0001
0010
,
1000
0000
0010
1000
0100
0000
0001
0000
,
0101
0000
0000
1000
1000
0000
0001
0100
,
0010
1000
1001
1001
,
0001
0010
1000
0000
0010
0000
1000
0010
,
0001
0000
0010
0001
0100
0000
1000
0000
,
1100
0000
0001
0000
0001
0000
0000
0001
,
1000
0001
0010
0000
0000
0000
2002
0000
,
0000
0000
0000
3003
,
1000
0000
0010
0000
1000
0000
0000
0020
0000
0000
0000
0000
0030
0000
0000
0000
,
0010
0000
1000
0000
0010
0000
0000
1001
0000
0000
0000
0000
0000
0000
0000
0000
,
0001
0000
0010
0000
0001
0000
0000
0020
0000
0000
0000
0000
0030
0000
0000
0000
,
0010
0000
0001
0000
0010
0000
0000
1001
0000
0000
0000
0000
0000
0000
0000
0000
;

//---------------dance-single - ----------------
#NOTES:
     dance-single:
     :
     Easy:
     4:
     0.161030,0.188256,0.011621,0.185932,0.000000,97.000000,96.000000,1.000000,16.000000,0.000000,0.000000,0.161030,0.188256,0.011621,0.185932,0.000000,97.000000,96.000000,1.000000,16.000000,0.000000,0.000000:
// measure 0
0000
0000
0000
0000
,  // measure 1
0000
0000
0000
0000
,  // measure 2
0000
0000
0000
0000
,  // measure 3
0000
0000
0000
0000
,  // measure 4
0001
0010
0200
0000
,  // measure 5
0020
0000
0000
0330
,  // measure 6
0001
0010
0001
0000
,  // measure 7
0001
0100
0001
0000
,  // measure 8
1000
0010
0200
0000
,  // measure 9
0020
0000
0000
0330
,  // measure 10
1000
0010
1000
0000
,  // measure 11
1000
0100
1000
0000
,  // measure 12
0001
0000
0100
0000
,  // measure 13
0010
0000
1000
0000
,  // measure 14
0100
0000
0010
0002
,  // measure 15
2003
0000
0002
3003
,  // measure 16
1000
0000
0010
0000
,  // measure 17
0100
0000
0001
0000
,  // measure 18
0010
0000
0100
2000
,  // measure 19
3002
0000
2000
3003
,  // measure 20
1000
1000
0010
0000
,  // measure 21
0010
1000
0100
0000
,  // measure 22
0010
0001
0100
0000
,  // measure 23
0020
0030
2000
3000
,  // measure 24
0001
0001
0010
0000
,  // measure 25
0010
0001
0100
0000
,  // measure 26
0010
1000
0100
0020
,  // measure 27
0032
0000
0000
1003
,  // measure 28
0001
0100
1000
0000
,  // measure 29
1000
0000
1000
0010
,  // measure 30
0001
0000
1000
0010
,  // measure 31
0100
0001
1000
0000
,  // measure 32
1000
0100
0001
0000
,  // measure 33
0001
0000
0001
0010
,  // measure 34
1000
0000
0001
0000
,  // measure 35
0010
0010
0000
2002
,  // measure 36
0000
0000
0000
3003
,  // measure 37
0001
0001
0001
0000
,  // measure 38
0001
0010
0001
0000
,  // measure 39
1000
0010
1000
0000
,  // measure 40
1000
1000
0010
0000
;

//---------------dance-single - ----------------
#NOTES:
     dance-single:
     :
     Beginner:
     1:
     0.064744,0.116207,0.046483,0.069724,0.000000,39.000000,35.000000,4.000000,6.000000,0.000000,0.000000,0.064744,0.116207,0.046483,0.069724,0.000000,39.000000,35.000000,4.000000,6.000000,0.000000,0.000000:
// measure 0
0000
0000
0000
0000
,  // measure 1
0000
0000
0000
0000
,  // measure 2
0000
0000
0000
0000
,  // measure 3
0000
0000
0000
0000
,  // measure 4
0020
0000
0000
0000
,  // measure 5
0030
0000
0000
0000
,  // measure 6
1000
0000
0000
0000
,  // measure 7
0001
0000
0000
0000
,  // measure 8
0020
0000
0000
0000
,  // measure 9
0030
0000
0000
0000
,  // measure 10
0001
0000
0000
0000
,  // measure 11
1000
0000
0000
0000
,  // measure 12
0010
0000
0000
0000
,  // measure 13
0010
0000
0000
0000
,  // measure 14
0100
0000
0000
0000
,  // measure 15
0002
0000
0003
0000
,  // measure 16
0010
0000
0000
0000
,  // measure 17
0010
0000
0000
0000
,  // measure 18
0100
0000
0000
0000
,  // measure 19
2000
0000
3000
0000
,  // measure 20
0001
0000
0000
0000
,  // measure 21
0001
0000
0000
0000
,  // measure 22
0100
0000
0000
0000
,  // measure 23
0100
0000
0000
0000
,  // measure 24
0010
0000
0000
0000
,  // measure 25
0010
0000
0000
0000
,  // measure 26
1000
0000
0000
0000
,  // measure 27
0002
0000
0003
0000
,  // measure 28
1001
0000
0000
0000
,  // measure 29
1001
0000
0000
0000
,  // measure 30
0010
0000
0000
0000
,  // measure 31
1000
0000
0000
0000
,  // measure 32
1001
0000
0000
0000
,  // measure 33
1001
0000
0000
0000
,  // measure 34
0010
0000
0000
0000
,  // measure 35
0001
0000
0000
0000
,  // measure 36
0200
0000
0300
0000
,  // measure 37
0001
0000
0000
0000
,  // measure 38
1000
0000
0000
0000
,  // measure 39
1000
0000
0000
0000
,  // measure 40
0001
0000
0000
0000
;
