#VERSION:0.83;
#TITLE:Poseidon;
#SUBTITLE:;
#ARTIST:Massive New Krew;
#TITLETRANSLIT:;
#SUBTITLETRANSLIT:;
#ARTISTTRANSLIT:;
#GENRE:Hardstyle;
#ORIGIN:;
#CREDIT:;
#BANNER:Poseidon.png;
#BACKGROUND:Poseidon-bg.png;
#PREVIEWVID:;
#JACKET:Poseidon-jacket.png;
#CDIMAGE:;
#DISCIMAGE:;
#LYRICSPATH:;
#CDTITLE:cdtitle.png;
#MUSIC:Poseidon.ogg;
#OFFSET:-1.569002;
#SAMPLESTART:91.375458;
#SAMPLELENGTH:12.387093;
#SELECTABLE:YES;
#BPMS:0.000=155.000;
#STOPS:;
#DELAYS:;
#WARPS:;
#TIMESIGNATURES:0.000=4=4;
#TICKCOUNTS:0.000=4;
#COMBOS:0.000=1;
#SPEEDS:0.000=1.000=0.000=0;
#SCROLLS:0.000=1.000;
#FAKES:;
#LABELS:0.000=Song Start;
#BGCHANGES:;
#KEYSOUNDS:;
#ATTACKS:
;

//---------------dance-single - ----------------
#NOTEDATA:;
#CHARTNAME:;
#STEPSTYPE:dance-single;
#DESCRIPTION:;
#CHARTSTYLE:;
#DIFFICULTY:Challenge;
#METER:13;
#RADARVALUES:0.636299,0.713108,0.446165,0.483976,0.219302,589.000000,530.000000,59.000000,64.000000,0.000000,0.000000,0.000000,0.000000,0.000000,0.636299,0.713108,0.446165,0.483976,0.219302,589.000000,530.000000,59.000000,64.000000,0.000000,0.000000,0.000000,0.000000,0.000000;
#CREDIT:;
#NOTES:
0000
0000
0000
0000
,
0000
0000
0000
0000
,
0000
0000
0000
0000
,
0000
0000
0000
0000
,
0001
0010
0002
0000
0013
0100
1000
0002
,
0000
1003
0010
0100
0002
0000
0003
0000
,
1000
0010
2000
0000
3010
0100
0001
2000
,
0000
3001
0010
0100
2000
0000
3000
0000
,
0001
0010
1000
0000
0011
0000
0011
0000
,
1000
0010
0001
0000
1010
0000
1010
0000
,
0001
0100
1000
0000
0101
0000
0101
0000
,
1000
0100
0001
0000
1100
0000
1100
0000
,
0001
0010
1000
0010
0001
0100
1000
0100
,
0001
0010
1000
0010
0001
0100
1000
0100
,
0001
0010
0001
0000
1000
0010
1000
0000
0001
0100
0001
0000
1000
0100
1000
0000
,
0002
0000
0000
0000
0000
1000
1000
1003
,
1010
0000
0110
0000
0101
0000
1000
0010
,
0001
0000
0010
0000
1000
0000
0000
0000
1001
0000
0000
1000
0100
0000
0010
0000
,
0011
0000
0110
0000
1100
0000
0001
0010
,
1000
0000
0010
0000
0001
1000
0000
0001
0100
0000
0010
0000
1000
0000
0000
0000
,
1001
0000
0000
0000
0110
0000
0000
0000
1001
0000
0000
0000
1000
0001
1000
0001
,
0010
0000
0100
0000
1000
0000
0000
0000
1001
0000
0000
1000
0010
0000
0100
0000
,
0001
0000
1000
0100
1000
0000
0001
0100
0002
0000
0000
0000
2003
0000
0000
0000
,
3100
0000
0100
0000
0010
0001
0001
0001
,
0011
0000
0000
0000
0011
0000
1000
0000
1010
0000
0000
1000
0001
0000
0000
0000
,
1001
0000
0000
0001
0010
0000
0100
0000
1000
0000
0000
0001
0100
0000
0010
0000
,
1010
0000
0000
0000
1010
0000
0001
0000
0011
0000
0000
0001
1000
0000
0010
0000
,
0001
0000
0010
0000
1000
0000
0100
0000
0001
0000
0000
0100
0000
0000
0010
0000
,
0110
0000
0000
0000
0110
0000
1000
0000
1001
0000
0000
0001
0100
0000
0010
0000
,
1000
0000
1000
0000
0001
0000
0001
0000
1000
0000
0000
1000
0100
0000
0010
0000
,
0001
0000
1000
0010
1000
0000
0001
0010
0001
0000
0100
0000
1000
0000
0100
0000
,
0002
0000
0000
0000
0000
0000
0000
0000
0103
0000
0001
1000
0001
0000
0010
0000
,
2002
0000
0000
0000
,
0000
0000
0000
3003
,
1000
0010
0200
0000
0310
0100
0001
2000
,
0000
3001
0100
0010
2000
0000
3000
0000
,
0001
0010
0200
0000
0310
0100
1000
0002
,
0000
1003
0100
0010
0002
0000
0003
0000
,
1000
0010
0200
0000
0301
1000
0100
0020
,
0000
0031
1000
0010
0200
0000
0300
0000
,
0001
1000
0200
0000
0310
0001
0010
2000
,
0000
0000
3001
0000
0100
0000
1000
0000
0002
0000
0000
0000
1003
0010
1000
0010
,
1000
0010
0002
0000
0013
0100
0010
2000
,
0000
0000
3001
0000
0100
0000
1000
0000
0200
0000
0000
0000
0300
0000
0001
0010
,
0001
0010
2000
0000
3010
0100
0010
0002
,
0000
0000
1003
0000
0100
0000
0001
0000
0200
0000
0000
0000
0300
0000
1000
0001
,
1000
0001
0200
0000
1300
0100
0001
2000
,
0000
3100
0001
0100
2000
0000
3000
0000
,
0001
0100
0020
0000
1030
0100
0010
0002
,
0000
0000
0103
0000
0010
0000
1000
0000
0002
0000
0000
0000
1003
0100
1000
0100
,
1000
0100
0001
0000
1100
0000
1100
1000
,
0001
0100
1000
0000
0101
0000
0101
0001
,
1000
0010
0001
0000
1010
0000
1010
1000
,
0001
0010
1000
0000
0011
0000
0011
0001
,
1000
0010
0001
0010
1000
0100
0001
0100
,
1000
0010
0001
0010
1000
0100
0001
0100
,
1000
0010
1000
0000
0001
0010
0001
0000
1000
0001
0100
0000
0001
1000
0100
0000
,
0020
0000
0000
0000
0000
0001
0001
0031
,
0011
1000
2010
0000
3010
0100
0001
0020
,
0001
0000
0130
0000
1000
0000
0010
0000
2000
0000
0000
0000
3001
0000
1000
0100
,
0010
0001
0012
0000
0013
0100
1000
0020
,
1000
0000
0130
0000
0001
0000
0010
0000
0002
0000
0000
0000
1003
0000
0001
0100
,
0010
0100
0210
0000
1300
0100
0001
2000
,
0001
3100
0001
0100
2000
0000
3001
0000
,
0101
1000
1200
0000
0310
0100
0010
1002
,
0000
0000
0103
0000
0010
0000
0100
0000
1002
0000
0000
0000
1003
0100
0010
0001
,
0000
1000
0100
0010
0100
0010
0001
0200
,
0000
0000
0310
0000
0100
0000
0010
0000
2000
0000
0000
0000
3001
0010
0100
1000
,
0001
0010
0021
0000
1030
0010
0001
0200
,
1000
0000
0310
0000
1000
0000
0100
0000
0020
0000
0000
0000
0031
0000
0100
0010
,
1000
0010
1020
0000
0031
0010
1000
0200
,
0001
0310
0001
0100
0020
0000
1030
0000
,
0010
1000
1000
1000
0001
0010
0100
1200
,
0000
0000
1300
0000
0010
0000
0100
0001
0200
0000
0000
0000
0301
1000
0001
1000
,
0100
0000
0000
0011
0000
0000
2100
0000
0001
0000
0001
0000
3010
0000
0100
0001
,
0100
0000
0000
1010
0000
0000
0102
0000
1000
0000
1000
0000
0013
0000
0100
0010
,
0001
0000
0000
1001
0000
0000
1020
0000
0130
0000
0010
0100
0010
0000
0100
0000
,
1010
0000
0000
1001
0000
0000
0021
0000
0130
0000
0010
0100
1000
0000
0001
0000
,
1000
0000
0010
1000
0010
0000
0100
0000
0001
0000
0010
0001
0010
0000
0100
0000
,
1000
0000
0010
1000
0010
0000
0100
0000
0001
0000
0010
0001
0010
0000
0100
0000
,
1000
0001
0100
0000
0001
1000
0100
0000
0010
0001
1000
0000
0010
1000
0001
0000
,
0020
0000
0000
0000
0000
0100
0100
0130
,
0110
0000
0000
0000
;

//---------------dance-single - ----------------
#NOTEDATA:;
#CHARTNAME:;
#STEPSTYPE:dance-single;
#DESCRIPTION:;
#CHARTSTYLE:;
#DIFFICULTY:Hard;
#METER:11;
#RADARVALUES:0.501261,0.558085,0.347858,0.559597,0.056716,464.000000,418.000000,46.000000,74.000000,0.000000,0.000000,0.000000,0.000000,0.000000,0.501261,0.558085,0.347858,0.559597,0.056716,464.000000,418.000000,46.000000,74.000000,0.000000,0.000000,0.000000,0.000000,0.000000;
#CREDIT:;
#NOTES:
0000
0000
0000
0000
,
0000
0000
0000
0000
,
0000
0000
0000
0000
,
0000
0000
0000
0000
,
0001
0000
0001
0000
0010
0000
0100
2000
,
0000
3001
0100
0000
0020
0000
0030
0000
,
1000
0000
1000
0000
0010
0000
0100
0002
,
0000
1003
0100
0000
0020
0000
0030
0000
,
0001
0010
0100
0000
0011
0000
0011
0000
,
1000
0010
0100
0000
1010
0000
1010
0000
,
0001
0100
0010
0000
0101
0000
0101
0000
,
1000
0100
0010
0000
1100
0000
1100
0000
,
0001
0100
0001
0000
0100
1000
0100
0000
,
1000
0010
1000
0000
0010
0001
0010
0000
,
0002
0203
2300
3020
,
0032
0000
0000
0000
0000
1000
1000
1003
,
1001
0000
0101
0000
1001
0000
0001
0010
,
1000
0000
0010
0000
0001
0000
0000
0000
1001
0000
0000
0001
1000
0000
0001
0000
,
0101
0000
1001
0000
0011
0000
0001
1000
,
0100
0010
0001
0000
0100
0010
1000
0000
,
1001
0000
1100
0000
1001
0000
1000
0010
,
0001
0000
0010
0000
1000
0000
0000
0000
1001
0000
0000
1000
0001
0000
1000
0000
,
1100
0000
0011
0000
1000
0100
0010
0001
,
0200
0010
0020
0330
,
2000
0000
0000
0000
3010
0000
1000
0000
0100
0000
0000
1001
0000
0000
0000
0000
,
0002
0000
0000
1003
0010
0000
0100
0000
0001
0000
0000
1001
0000
0000
0000
0000
,
0002
0000
0000
0000
0013
0000
0001
0000
0100
0000
0000
1001
0000
0000
0001
0000
,
0010
0000
1000
0000
0010
0000
0001
0000
1000
0000
0000
1000
0000
0000
0001
0000
,
1001
0000
0000
0000
0001
0000
0100
0000
1000
0000
0000
0100
0000
0000
0001
0000
,
1000
0000
0100
0000
0001
0000
0100
0000
1000
0000
0000
0001
0000
0000
1000
0000
,
0010
0000
0000
0010
0100
0000
0000
0100
0001
0000
1000
0000
0100
0000
0010
0000
,
0002
0000
0000
0000
0103
0010
1000
0000
,
2002
0000
0000
0000
,
0000
0000
0000
3003
,
1000
0000
1000
0000
0100
0000
0010
0002
,
0000
1003
0100
0000
0020
0000
0030
0000
,
0001
0000
0001
0000
0100
0000
0010
2000
,
0000
3001
0100
0000
0020
0000
0030
0000
,
1000
0000
1000
0000
0001
0000
0010
0200
,
0000
1300
0001
0000
0200
0000
0300
0000
,
0010
0000
0010
0000
0100
0000
0001
2000
,
0000
3001
0010
0100
2000
0000
3001
0001
,
1000
0010
2000
0000
3010
0100
0001
2000
,
0000
3001
0010
0100
2000
0000
3000
0001
,
0001
0010
0002
0000
0013
0100
1000
0002
,
0000
1003
0010
0100
0002
0000
0003
1000
,
1000
0010
0200
0000
0301
1000
0100
0020
,
0000
0031
0100
0010
2000
0000
3000
0000
,
0001
1000
0200
0000
1300
0001
0100
0020
,
0000
1030
0001
0010
0200
0000
0310
0001
,
1000
0010
0001
0000
1010
0000
1010
0000
,
0001
0010
1000
0000
0011
0000
0011
0000
,
1000
0100
0001
0000
1100
0000
1100
0000
,
0001
0100
1000
0000
0101
0000
0101
0000
,
1000
0010
0001
0000
0010
0001
0100
0000
,
0001
0100
1000
0000
0100
1000
0010
0000
,
2000
3020
0032
0203
,
2300
0000
0000
0000
0000
0001
0001
3001
,
1000
0010
0200
0000
0310
1000
0010
0002
,
0000
0013
0100
0010
2000
0000
3010
1000
,
0001
0010
0200
0000
0310
0001
0010
2000
,
0000
3010
0100
0010
0002
0000
1003
1000
,
0001
0100
0020
0000
0130
0001
0100
2000
,
0000
3100
0010
0100
0002
0000
1003
0001
,
1000
0100
0020
0000
0031
0100
0010
2010
,
0000
0000
3100
0000
0010
0000
0001
0000
0012
0000
0000
0000
2000
0000
0000
3003
,
0000
0001
0100
0010
0100
0010
1000
0200
,
0000
0310
0100
0010
0002
0000
1003
0001
,
1000
0010
0002
0000
1003
0100
0001
2000
,
0000
3001
0100
0010
2000
0000
3001
1000
,
0001
0010
2000
0000
3001
0100
1000
0002
,
0000
1003
0100
0010
0002
0000
1003
0000
,
0000
0010
0010
0010
0010
0010
0000
2001
,
0000
3100
0100
0100
0200
0000
0300
0000
,
0011
0000
0000
0110
0000
0000
2000
0000
0001
0000
0001
0000
3001
0000
0000
0000
,
1010
0000
0000
0110
0000
0000
0002
0000
1000
0000
1000
0000
1003
0000
0000
0000
,
1100
0000
0000
0011
0000
0000
2000
0000
3010
0000
0100
0000
0001
0000
0000
0000
,
0101
0000
0000
1010
0000
0000
0002
0000
1003
0000
0100
0000
0010
0000
0001
0000
,
1000
0100
0001
0000
0100
0001
0010
0000
,
0001
0010
1000
0000
0010
1000
0100
0000
,
2000
3200
0302
0023
,
2030
0000
0000
0000
0000
0001
0001
3001
,
1001
0000
0000
0000
;

//---------------dance-single - ----------------
#NOTEDATA:;
#CHARTNAME:;
#STEPSTYPE:dance-single;
#DESCRIPTION:;
#CHARTSTYLE:;
#DIFFICULTY:Medium;
#METER:8;
#RADARVALUES:0.354339,0.403061,0.264674,0.839396,0.000000,328.000000,293.000000,35.000000,111.000000,0.000000,0.000000,0.000000,0.000000,0.000000,0.354339,0.403061,0.264674,0.839396,0.000000,328.000000,293.000000,35.000000,111.000000,0.000000,0.000000,0.000000,0.000000,0.000000;
#CREDIT:;
#NOTES:
0000
0000
0000
0000
,
0000
0000
0000
0000
,
0000
0000
0000
0000
,
0000
0000
0000
0000
,
0001
0000
0001
0000
0020
0000
0000
0230
,
0000
2300
3002
0003
,
1000
0000
1000
0000
0020
0000
0000
0230
,
0000
0302
2003
3000
,
0001
0001
0020
0032
,
1003
1000
0020
2030
,
3001
0001
0200
0302
,
1003
1000
0200
2300
,
3001
0101
1000
1100
,
0001
0011
1000
1010
,
0002
0023
0230
2300
,
0002
0000
0000
3003
,
2010
0001
0010
3001
,
1000
0001
2000
0000
0001
0000
3100
0000
,
2100
0001
0100
3001
,
0100
0001
1000
0000
0100
0000
0010
0000
,
0012
1000
0010
1003
,
0001
1000
0002
0000
1000
0000
0103
0000
,
0110
0110
0002
2003
,
3200
0010
0020
0330
,
0002
0000
0013
0001
0020
0000
0130
0000
,
2000
0000
3010
1000
0020
0000
0130
0000
,
0002
0000
0013
0100
0020
0000
0130
0000
,
1000
0001
1000
0001
,
0200
0000
0310
1000
0200
0000
0310
0000
,
0200
0000
0310
0001
0200
0000
0310
0000
,
1000
0000
1000
0000
0001
1000
0001
1000
,
0002
0000
0000
0000
0013
0100
1000
0000
,
2002
0000
0000
0000
,
0000
0000
0000
3003
,
1000
0000
1000
0000
0200
0000
0000
0320
,
0000
0032
2003
3000
,
0001
0000
0001
0000
0200
0000
0000
0320
,
0000
2030
3002
0003
,
0010
0000
0010
0000
0200
0000
0000
2300
,
0000
3002
0203
0300
,
0010
0000
0010
0000
0100
0000
0001
2000
,
0000
0001
0002
3003
,
1000
0000
1000
0000
0100
0000
0010
0002
,
0000
1003
0010
0000
0200
0000
0300
0000
,
0001
0000
0001
0000
0100
0000
0010
2000
,
0000
3001
0010
0000
0200
0000
0300
0000
,
0010
0000
0010
0000
0100
0000
1000
0002
,
0000
0103
0010
0000
0200
0000
0300
0000
,
0001
0000
1000
0000
0100
0000
0010
0002
,
0000
1003
0010
0000
0200
0000
0301
0000
,
0010
0010
0200
2300
,
3010
0010
0200
0302
,
1003
1000
0200
0320
,
0031
0001
0200
0320
,
1030
1010
0001
0011
,
1000
1100
0001
0101
,
2000
3200
0320
0032
,
2000
0000
0000
3003
,
2010
0000
0010
0000
0001
0000
3100
0010
,
0000
0100
0010
0000
0220
0000
0330
0000
,
0012
0000
0010
0000
1000
0000
0103
0010
,
0000
0100
0010
0000
0220
0000
0330
0000
,
0102
0000
0100
0000
1000
0000
0013
0100
,
0000
0010
0100
0000
0220
0000
0330
0000
,
2100
0000
0100
0000
0001
0000
3010
0020
,
0000
0100
0130
0000
2002
0000
0000
0000
,
3003
0000
0000
0000
,
0000
0000
0000
1001
,
0001
0010
0002
0000
0010
0000
0103
0010
,
0000
0100
0010
0000
2020
0000
3030
0000
,
1000
0010
2000
0000
0010
0000
3100
0010
,
0000
0100
0010
0000
0022
0000
0033
0000
,
0000
0001
1000
0001
1000
0001
0000
1002
,
0000
0000
0103
0010
0100
0000
0010
0000
,
2020
0000
3030
0000
0010
1000
0100
0000
,
0022
0000
0033
0000
0010
0001
0100
0000
,
2002
0000
3003
0000
0100
0010
0100
0000
,
2002
0000
3003
0000
1000
0100
0010
0000
,
0001
0011
1000
1100
,
0001
0101
1000
1010
,
0002
0023
0230
2300
,
0002
0000
0000
3003
,
1001
0000
0000
0000
;

//---------------dance-single - ----------------
#NOTEDATA:;
#CHARTNAME:;
#STEPSTYPE:dance-single;
#DESCRIPTION:;
#CHARTSTYLE:;
#DIFFICULTY:Easy;
#METER:5;
#RADARVALUES:0.272236,0.434066,0.226864,0.529349,0.000000,252.000000,222.000000,30.000000,70.000000,0.000000,0.000000,0.000000,0.000000,0.000000,0.272236,0.434066,0.226864,0.529349,0.000000,252.000000,222.000000,30.000000,70.000000,0.000000,0.000000,0.000000,0.000000,0.000000;
#CREDIT:;
#NOTES:
0000
0000
0000
0000
,
0000
0000
0000
0000
,
0000
0000
0000
0000
,
0000
0000
0000
0000
,
0001
0001
0001
0000
,
0020
0000
0130
0000
,
1000
1000
1000
0000
,
0020
0000
0130
0000
,
0002
2000
0003
3000
,
2000
0002
3000
0003
,
0020
0200
0030
0300
,
0200
0020
0300
0030
,
0001
0001
1000
1000
,
0001
0001
1000
1000
,
0002
0203
0320
2030
,
0002
0000
0000
3003
,
0001
0010
0022
0033
,
1000
0010
2020
3030
,
0001
1000
2002
3003
,
1000
1000
0001
0001
,
1000
0100
2200
3300
,
0001
0100
0202
0303
,
0001
0001
1000
0001
,
0020
0200
0330
0000
,
0002
0010
1003
0000
,
2000
0010
3001
0000
,
0002
0100
1003
0000
,
1000
0100
0010
0001
,
2000
0010
3100
0000
,
0002
0010
0103
0000
,
1000
1000
0001
1000
,
0200
0000
0010
0310
,
2002
0000
0000
0000
,
0000
0000
0000
3003
,
1000
1000
1000
0000
,
0020
0000
0130
0000
,
0001
0001
0001
0000
,
0020
0000
0130
0000
,
1000
1000
1000
0000
,
0002
0000
0103
0000
,
0001
0001
0001
0000
,
1000
0001
1000
0000
,
0001
0010
0100
0000
,
0020
0100
0130
0000
,
1000
0010
0100
0000
,
0020
0100
0130
0000
,
0001
1000
0100
0000
,
0020
0100
0130
0000
,
1000
0001
0100
0000
,
0020
0100
0130
0000
,
0002
0200
0003
0300
,
0020
2000
0030
3000
,
0002
0020
0003
0030
,
0200
2000
0300
3000
,
0001
0001
1000
1000
,
0001
0001
1000
1000
,
0001
0010
0100
2000
,
0002
0000
0000
3003
,
1000
1000
0010
0100
,
0001
1000
2020
3030
,
0001
0001
0010
0100
,
1000
0001
0022
0033
,
1000
1000
0001
0100
,
0010
0100
2002
3003
,
0001
1000
0100
0020
,
0030
0110
2002
0000
,
3003
0000
0000
0000
,
0000
0000
0000
1001
,
0001
0100
0010
1000
,
0100
0010
0022
0033
,
1000
0100
0010
0001
,
0100
0010
2020
3030
,
0000
0110
1001
0000
,
0200
0310
2002
3003
,
0011
0011
0011
0000
,
1100
1100
1100
0000
,
1010
1010
1010
0000
,
0101
0101
0101
0000
,
1000
1000
0001
0001
,
1000
1000
0001
0001
,
0010
0100
1000
0020
,
0200
0000
0000
0330
,
1001
0000
0000
0000
;

//---------------dance-single - ----------------
#NOTEDATA:;
#CHARTNAME:;
#STEPSTYPE:dance-single;
#DESCRIPTION:;
#CHARTSTYLE:;
#DIFFICULTY:Beginner;
#METER:3;
#RADARVALUES:0.156644,0.217033,0.045373,0.120994,0.000000,145.000000,139.000000,6.000000,16.000000,0.000000,0.000000,0.000000,0.000000,0.000000,0.156644,0.217033,0.045373,0.120994,0.000000,145.000000,139.000000,6.000000,16.000000,0.000000,0.000000,0.000000,0.000000,0.000000;
#CREDIT:;
#NOTES:
// measure 0
0000
0000
0000
0000
,  // measure 1
0000
0000
0000
0000
,  // measure 2
0000
0000
0000
0000
,  // measure 3
0000
0000
0000
0000
,  // measure 4
0001
0000
0001
0000
,  // measure 5
2000
0000
3000
0000
,  // measure 6
1000
0000
1000
0000
,  // measure 7
0002
0000
0003
0000
,  // measure 8
1000
1000
0000
0000
,  // measure 9
0001
0001
0000
0000
,  // measure 10
1000
1000
0000
0000
,  // measure 11
0001
0001
0000
0000
,  // measure 12
1000
0000
0001
0000
,  // measure 13
1000
0000
0001
0000
,  // measure 14
0020
0000
0000
0000
,  // measure 15
0030
0000
0000
0000
,  // measure 16
0001
0000
0001
0000
,  // measure 17
1000
0000
1000
0000
,  // measure 18
0001
0000
0001
0000
,  // measure 19
0100
0000
0010
0000
,  // measure 20
1000
0000
1000
0000
,  // measure 21
0001
0000
0001
0000
,  // measure 22
0010
0000
0100
0000
,  // measure 23
0010
0020
0030
0000
,  // measure 24
0010
0000
0010
0000
,  // measure 25
0001
0000
0001
0000
,  // measure 26
1000
0000
1000
0000
,  // measure 27
0010
0010
0010
0000
,  // measure 28
0100
0000
0100
0000
,  // measure 29
0001
0000
0001
0000
,  // measure 30
1000
1000
1000
0000
,  // measure 31
0200
0000
0300
0000
,  // measure 32
1001
0000
0000
0000
,  // measure 33
0000
0000
0000
0000
,  // measure 34
1000
0000
1000
0000
,  // measure 35
0002
0000
0003
0000
,  // measure 36
0001
0000
0001
0000
,  // measure 37
2000
0000
3000
0000
,  // measure 38
0100
0000
0100
0000
,  // measure 39
0020
0000
0030
0000
,  // measure 40
0010
0000
0010
0000
,  // measure 41
0200
0000
0300
0000
,  // measure 42
1000
1000
1000
0000
,  // measure 43
0020
0000
0030
0000
,  // measure 44
0100
0100
0100
0000
,  // measure 45
0002
0000
0003
0000
,  // measure 46
0010
0010
0010
0000
,  // measure 47
0200
0000
0300
0000
,  // measure 48
1000
1000
1000
0000
,  // measure 49
0002
0000
0003
0000
,  // measure 50
1000
1000
0000
0000
,  // measure 51
0001
0001
0000
0000
,  // measure 52
1000
1000
0000
0000
,  // measure 53
0001
0001
0000
0000
,  // measure 54
1000
0000
0001
0000
,  // measure 55
1000
0000
0001
0000
,  // measure 56
0020
0000
0000
0000
,  // measure 57
0030
0000
0000
0000
,  // measure 58
0001
0001
0001
0000
,  // measure 59
0010
0000
0100
0000
,  // measure 60
1000
1000
1000
0000
,  // measure 61
0010
0000
0100
0000
,  // measure 62
0001
0001
0001
0000
,  // measure 63
1000
0000
0100
0000
,  // measure 64
1000
1000
1000
0000
,  // measure 65
0001
0000
0200
0000
,  // measure 66
0300
0000
0000
0000
,  // measure 67
0000
0000
0000
0000
,  // measure 68
0010
0010
0010
0000
,  // measure 69
0100
0000
0001
0000
,  // measure 70
0010
0010
0010
0000
,  // measure 71
0100
0000
1000
0000
,  // measure 72
0010
0010
0010
0000
,  // measure 73
0100
0000
0010
0000
,  // measure 74
1001
0000
0000
0000
,  // measure 75
1001
0000
0000
0000
,  // measure 76
0110
0000
0000
0000
,  // measure 77
0110
0000
0000
0000
,  // measure 78
0001
0000
1000
0000
,  // measure 79
0001
0000
1000
0000
,  // measure 80
0200
0000
0000
0000
,  // measure 81
0300
0000
0000
0000
,  // measure 82
1001
0000
0000
0000
;
