#TITLE:Partenza;
#SUBTITLE:;
#ARTIST:Y-SHIN;
#TITLETRANSLIT:;
#SUBTITLETRANSLIT:;
#ARTISTTRANSLIT:;
#GENRE:Neo Age Waltz;
#CREDIT:;
#BANNER:Partenza.png;
#BACKGROUND:Partenza-bg.png;
#LYRICSPATH:;
#CDTITLE:cdtitle.png;
#MUSIC:Partenza.ogg;
#OFFSET:-2.574000;
#SAMPLESTART:82.754997;
#SAMPLELENGTH:13.091000;
#SELECTABLE:YES;
#BPMS:0.000000=110.000000
;
#STOPS:
;
#BGCHANGES:;
#KEYSOUNDS:;
#ATTACKS:;

//---------------dance-single - ----------------
#NOTES:
     dance-single:
     :
     Challenge:
     15:
     0.687878,0.695032,0.351962,0.644016,0.939814,643.000000,596.000000,47.000000,86.000000,0.000000,0.000000,0.687878,0.695032,0.351962,0.644016,0.939814,643.000000,596.000000,47.000000,86.000000,0.000000,0.000000:
// measure 0
0000
0000
0000
0000
,  // measure 1
0000
0000
0000
0000
,  // measure 2
0000
0000
0000
0000
,  // measure 3
1000
0000
0000
0000
0000
0000
0000
0000
0000
0100
0000
0000
0000
0000
0000
0100
0000
0000
0010
0000
0000
0000
0000
0000
0001
0000
0000
0000
0000
0000
1000
0000
0000
0000
0000
0000
0010
0000
0000
0000
0000
0000
0100
0000
0010
0000
0100
0000
,  // measure 4
0001
0000
1000
0000
0000
0001
1000
0100
0010
0000
0000
0001
0000
0100
0010
0000
,  // measure 5
1000
0001
1000
0000
2002
3003
0000
0001
1000
0100
0010
1000
0010
1000
0001
0100
,  // measure 6
0020
0030
0000
0010
0100
1000
0001
0100
0001
0100
0010
1000
0002
0003
0000
1000
,  // measure 7
0001
0100
0010
0001
0010
0001
1000
0100
0020
0030
0000
0010
0100
0001
1000
0100
,  // measure 8
1000
0100
0010
0001
0200
0300
0000
0001
0100
0010
0001
1000
0001
1000
0100
0010
,  // measure 9
2000
3000
0000
1000
0010
0100
0001
1000
0001
1000
0100
0010
0002
0003
0000
1000
,  // measure 10
0100
0010
1000
0001
1000
0001
0100
0010
0002
0003
0001
0100
0010
1000
0100
0010
,  // measure 11
0001
0001
1000
1000
0001
0000
0000
0000
0001
0000
0100
0000
0010
0000
0001
0000
,  // measure 12
0010
0000
0000
0000
0000
0000
0000
0000
0000
0010
0000
0000
0000
0000
0000
0000
0000
0000
0100
0000
0000
0000
0000
0000
0001
0000
0000
0000
0000
0000
0001
0000
0000
0000
0000
0000
0001
0000
0100
0000
0001
0000
0010
0000
0000
0000
0000
0000
,  // measure 13
0001
0010
0100
0001
0100
0001
0100
0010
0001
0000
0001
0010
0100
0010
0001
0100
,  // measure 14
0001
0100
0010
0000
1000
0000
0000
0000
1000
0000
0100
0000
0010
0000
1000
0000
,  // measure 15
0010
0000
0000
0000
0000
0000
0000
0000
0000
0010
0000
0000
0000
0000
0000
0000
0000
0000
0100
0000
0000
0000
0000
0000
1000
0000
0000
0000
0000
0000
1000
0000
0000
0000
0000
0000
1000
0000
0100
0000
1000
0000
0010
0000
0000
0000
0000
0000
,  // measure 16
1000
0000
0000
0000
0000
0000
0000
0000
0000
0000
0000
0000
0010
0000
0000
0000
0000
0000
0000
0000
0000
0000
0000
0000
0100
0000
0000
0000
0000
0000
0000
0000
0000
0000
0000
0000
1000
0000
0000
0000
0000
0000
0000
0000
0000
0000
0000
0000
0100
0000
0000
0000
0000
0000
0000
0000
0000
0000
0000
0000
1000
0000
0000
0000
0000
0000
0000
0000
0000
0000
0000
0000
0100
0000
0000
0000
0000
0000
0000
0000
0000
0000
0000
0000
0010
0000
0000
0000
0000
0000
0000
0000
0000
0000
0000
0000
1000
0000
0000
0000
0000
0000
0000
0000
0000
0000
0000
0000
0000
0000
0000
0000
0000
0000
0000
0000
0000
0000
0000
0000
1000
0000
0000
0000
0000
0000
0000
0000
0000
0000
0000
0000
0010
0000
0000
0000
0000
0000
0000
0000
0000
0000
0000
0000
0100
0000
0000
0000
0000
0000
0000
0000
0000
0000
0000
0000
0020
0000
0030
0000
0000
0000
0000
0000
0000
0000
0000
0000
2000
0000
0000
3000
0000
0000
0000
0000
0000
0000
0000
0000
0200
0000
0000
0000
0300
0000
0000
0000
0000
0000
0000
0000
,  // measure 17
2000
0000
0000
0000
0000
0000
3000
0000
0000
0000
0000
0000
0200
0000
0000
0000
0000
0000
0000
0000
0300
0000
0000
0000
0020
0000
0000
0000
0000
0000
0000
0000
0000
0030
0000
0000
0002
0000
0000
0000
0000
0000
0000
0000
0000
0000
0003
0000
0011
0000
0000
0000
0000
0000
0000
0000
0000
0000
0000
0000
0000
0000
0000
0000
0000
0000
0000
0000
0000
0000
0000
0000
0000
0000
0000
0000
0000
0000
0000
0000
0000
0000
0000
0000
0001
0000
0000
0000
0000
0000
0000
0000
0000
0000
0000
0000
0001
0000
0000
0000
0000
0000
0000
0000
0000
0000
0000
0000
0000
0000
0000
0000
0000
0000
0000
0000
0000
0000
0000
0000
0001
0000
0000
0000
0000
0000
0000
0000
0000
0000
0000
0000
0000
0000
0000
0000
0000
0000
0000
0000
0000
0000
0000
0000
1000
0000
0000
0000
0000
0000
0000
0000
0000
0000
0000
0000
0000
0000
0000
0000
0000
0000
0000
0000
0000
0000
0000
0000
0010
0000
0000
0000
0000
0000
0000
0000
0000
0000
0000
0000
0000
0000
0000
0000
0000
0000
0000
0000
0000
0000
0000
0000
,  // measure 18
0001
0000
0000
0000
0000
0000
0000
0000
0000
0001
0000
0000
0000
0000
0000
0000
0000
0000
0010
0000
0000
0000
0000
0000
1000
0000
0000
0000
0000
0000
1000
0000
0000
0000
0000
0000
1000
0000
0010
0000
1000
0000
0100
0000
0000
0000
0000
0000
,  // measure 19
0010
0000
0000
0000
0000
0000
0000
0000
0000
0000
0000
0000
0100
0000
0000
0000
0000
0000
0000
0000
0000
0000
0000
0000
0001
0000
0000
0000
0000
0000
0000
0000
0000
0000
0000
0000
0100
0000
0000
0000
0000
0000
0000
0000
0000
0000
0000
0000
0001
0000
0000
0000
0000
0000
0000
0000
0000
0000
0000
0000
0100
0000
0000
0000
0000
0000
0000
0000
0000
0000
0000
0000
0010
0000
0000
0000
0000
0000
0000
0000
0000
0000
0000
0000
0001
0000
0000
0000
0000
0000
0000
0000
0000
0000
0000
0000
1000
0000
0000
0000
0000
0000
0000
0000
0000
0000
0000
0000
0000
0000
0000
0000
0000
0000
0000
0000
0000
0000
0000
0000
1000
0000
0000
0000
0000
0000
0000
0000
0000
0000
0000
0000
0100
0000
0000
0000
0000
0000
0000
0000
0000
0000
0000
0000
0010
0000
0000
0000
0000
0000
0000
0000
0000
0000
0000
0000
0002
0000
0003
0000
0000
0000
0000
0000
0000
0000
0000
0000
2000
0000
0000
3000
0000
0000
0000
0000
0000
0000
0000
0000
0002
0000
0000
0000
0003
0000
0000
0000
0000
0000
0000
0000
,  // measure 20
0200
0000
0000
0000
0000
0000
0300
0000
0000
0000
0000
0000
0020
0000
0000
0000
0000
0000
0000
0000
0030
0000
0000
0000
2000
0000
0000
0000
0000
0000
0000
0000
0000
3000
0000
0000
0020
0000
0000
0000
0000
0000
0000
0000
0000
0000
0030
0000
1010
0000
0000
0000
0000
0000
0000
0000
0000
0000
0000
0000
0000
0000
0000
0000
0000
0000
0000
0000
0000
0000
0000
0000
1000
0000
0000
0000
0000
0000
0000
0000
0000
0000
0000
0000
1000
0000
0000
0000
0000
0000
0000
0000
0000
0000
0000
0000
1000
0000
0000
0000
0000
0000
0000
0000
0000
0000
0000
0000
1000
0000
0000
0000
0000
0000
0000
0000
0000
0000
0000
0000
0001
0000
0000
0000
0000
0000
0000
0000
0000
0000
0000
0000
0000
0000
0000
0000
0000
0000
0010
0000
0000
0000
0000
0000
0000
0000
0000
0000
0000
0000
0000
0000
0000
0000
0000
0000
0100
0000
0000
0000
0000
0000
0000
0000
0000
0000
0000
0000
0000
0000
0000
0000
0000
0000
0010
0000
0000
0000
0000
0000
0000
0000
0000
0000
0000
0000
0000
0000
0000
0000
0000
0000
,  // measure 21
1000
0000
0000
0000
0000
0000
0000
0000
0000
1000
0000
0000
0000
0000
0000
0000
0000
0000
0010
0000
0000
0000
0000
0000
0001
0000
0000
0000
0000
0000
0001
0000
0000
0000
0000
0000
0001
0000
0010
0000
0001
0000
0100
0000
0000
0010
0000
0000
,  // measure 22
1000
0000
0010
1000
0100
0010
0001
0000
1000
0010
0100
0010
0001
0000
0001
0010
,  // measure 23
1000
0100
0001
0000
0201
0000
0000
0010
0000
0010
0310
0000
1100
0000
1001
0000
,  // measure 24
1020
0000
0000
0100
0000
0100
0130
0000
1010
0000
1001
0000
0021
0000
0000
0100
,  // measure 25
0000
0000
0000
0100
0000
0000
0230
0000
0000
0000
0000
0000
0320
0000
0000
0000
0000
0000
2030
0000
0000
0000
0000
0000
3002
0000
0000
0000
0000
0000
0203
0000
0000
0000
0000
0000
0320
0000
0000
0000
0000
0000
0031
0000
1000
0000
0001
0000
,  // measure 26
0100
0000
1000
0000
1200
0000
0000
0010
0000
0010
0310
0000
0101
0000
1001
0000
,  // measure 27
0021
0000
0000
0100
0000
0100
0130
0000
0011
0000
1001
0000
1000
0010
0100
0010
,  // measure 28
0000
0000
0000
0001
0000
0000
0010
0000
0000
1000
0000
0000
0100
0000
0000
0001
0000
0000
0000
0000
0000
0100
0000
0000
1000
0000
0000
0010
0000
0000
0001
0000
0000
1000
0000
0000
0100
0000
0000
0001
0000
0000
1000
0000
0001
0000
1000
0000
,  // measure 29
0001
0010
0100
0010
1001
0000
0000
0000
0000
0000
0001
0000
0100
0000
0010
0000
,  // measure 30
1000
0001
1000
0100
0000
0000
0010
0000
0000
0001
0000
0000
0000
0000
0000
0000
0000
0000
1001
0000
0000
0000
0000
0000
,  // measure 31
0000
0000
0000
1000
0000
0000
0010
0000
0000
1000
0000
0000
0001
0010
0001
1000
0000
0000
0001
0000
0000
0100
0000
0000
,  // measure 32
0000
0000
0000
0000
0000
0000
1001
0000
0000
1000
0100
0010
0100
0010
0001
0200
0000
0000
2300
0000
0000
3002
0000
0000
,  // measure 33
0013
0000
0100
0000
0010
0000
0200
0000
0000
0000
0000
0000
0320
0000
0000
0000
0000
0000
2030
0000
0000
0000
0000
0000
3100
0000
0000
0010
0000
0000
0001
0000
0000
0000
0000
0000
1001
0000
0000
0000
0000
0000
0001
0000
0100
0000
0001
0000
,  // measure 34
0100
0000
0000
0000
0000
0000
0000
0000
0010
0000
0000
0000
0000
0000
0000
0000
1000
0000
0000
0000
0000
0000
0000
0000
0200
0000
0000
0000
0000
0000
0000
0000
0000
0000
0000
0000
0000
0000
0000
0000
0000
0000
0000
0000
0000
0000
0000
0000
0302
0000
0000
0000
0000
0000
0000
0000
0000
0000
0000
0000
0000
0000
0000
0000
0000
0000
0000
0000
0000
0000
0000
0000
2003
0000
0000
0000
0000
0000
0000
0000
0000
0000
0000
0000
0000
0000
0000
0000
0000
0000
0000
0000
0000
0000
0000
0000
3010
0000
0000
0000
0000
0000
0000
0000
0100
0000
0000
0000
0000
0000
0000
0000
0010
0000
0000
0000
0000
0000
0000
0000
0002
0000
0000
0000
0000
0000
0000
0000
0000
0000
0000
0000
0000
0000
0000
0000
0000
0000
0000
0000
0000
0000
0000
0000
2003
0000
0000
0000
0000
0000
0000
0000
0000
0000
0000
0000
0000
0000
0000
0000
0000
0000
0000
0000
0000
0000
0000
0000
3002
0000
0003
0000
0000
0000
0000
0000
0000
0000
0000
0000
0200
0000
0000
0000
0300
0000
0000
0000
0000
0000
0000
0000
,  // measure 35
0002
0000
0000
0000
0000
0000
0003
0000
0000
0000
0000
0000
0200
0000
0000
0000
0000
0000
0000
0000
0300
0000
0000
0000
0020
0000
0000
0000
0000
0000
0000
0000
0000
0000
0030
0000
2000
0000
0000
0000
0000
0000
0000
0000
0000
0000
0000
0000
3002
0000
0000
0000
0000
0000
0000
0000
0000
0000
0000
0000
0000
0000
0000
0000
0000
0000
0000
0000
0000
0000
0000
0000
0000
0000
0000
0000
0000
0000
0000
0000
0000
0000
0000
0000
0000
0000
0000
0000
0000
0000
0000
0000
0000
0000
0000
0000
0000
0000
0000
0000
0000
0000
0000
0000
0000
0000
0000
0000
0000
0000
0000
0000
0000
0000
0000
0000
0000
0000
0000
0000
0000
0000
0000
0000
0000
0000
0000
0000
0000
0000
0000
0000
0000
0000
0000
0000
0000
0000
0000
0000
0000
0000
0000
0000
0000
0000
0000
0000
0000
0000
0000
0000
0000
0000
0000
0000
0000
0000
0000
0000
0000
0000
0000
0000
0000
0000
0000
0000
0000
0000
0000
0000
0000
0000
0000
0000
0000
0000
0000
0000
0000
0000
0000
0000
0000
0000
0000
0000
0000
0000
0000
0000
,  // measure 36
1003
0001
0000
1000
0000
0001
1000
0001
0010
0010
0100
0100
2000
0000
0000
3100
,  // measure 37
0000
0000
0000
0100
0000
0000
0010
0000
0000
0000
0000
0000
1010
0000
0000
0000
0000
0000
0110
0000
0000
0000
0000
0000
1100
0000
0000
0000
0000
0000
1000
0000
0010
0000
0100
0000
1000
0000
0000
0000
0000
0000
1200
0000
0000
0000
0000
0000
,  // measure 38
0000
1300
0100
0010
2000
0000
0000
3010
0000
1000
1002
0000
0000
0000
0013
0000
,  // measure 39
1200
0000
0000
0000
0000
0000
0000
0000
0000
0000
0000
0000
0310
0000
0100
0000
1000
0000
0002
0000
0000
0000
0000
0000
0000
0000
0000
0000
0000
0000
0103
0000
0000
0000
0000
0000
0102
0000
0000
0000
0000
0000
0000
0000
0000
0103
0000
0000
,  // measure 40
0000
0000
0000
0100
0000
0000
0010
0000
0000
0000
0000
0000
0011
0000
0000
0000
0000
0000
0110
0000
0000
0000
0000
0000
0101
0000
0000
0000
0000
0000
0001
0000
0010
0000
0100
0000
0001
0000
0000
0000
0000
0000
0201
0000
0000
0000
0000
0000
,  // measure 41
0000
0301
0100
0010
0002
0000
0000
0013
0000
0001
2001
0000
0000
0000
3010
0000
,  // measure 42
1000
0000
0000
0010
0000
0000
0001
0000
0000
1000
0000
0000
0100
0000
0000
0001
0000
0000
1000
0000
0100
0000
0010
0000
0001
0000
0010
0000
0100
0000
1000
0000
0000
0000
0000
0000
1002
0000
0000
0000
0000
0000
0003
0000
0000
0100
0000
0000
,  // measure 43
0000
0000
0000
0100
0000
0000
1002
0000
0000
0000
0000
0000
0013
0000
0000
0000
0000
0000
0010
0000
0000
0000
0000
0000
2001
0000
0000
0000
0000
0000
3010
0000
0100
0000
0010
0000
1000
0000
0000
0000
0000
0000
2001
0000
0000
0000
0000
0000
,  // measure 44
3100
0010
0100
1000
2001
0000
3000
0001
0000
1000
2010
0000
0000
0000
3100
0000
,  // measure 45
0012
0000
0000
0000
0000
0000
0000
0000
0000
0000
0000
0000
0103
0000
0010
0000
1000
0000
0002
0000
0000
0000
0000
0000
0000
0000
0000
0000
0000
0000
0013
0000
0000
0000
0000
0000
1002
0000
0000
0000
0000
0000
0000
0000
0000
0103
0000
0000
,  // measure 46
0000
0000
0000
0100
0000
0000
0010
0000
0000
0000
0000
0000
0011
0000
0000
0000
0000
0000
1010
0000
0000
0000
0000
0000
1001
0000
0000
0000
0000
0000
1000
0000
0100
0000
0010
0000
1000
0000
0000
0000
0000
0000
1010
0000
0000
0000
0000
0000
,  // measure 47
1000
0010
0001
0100
1000
0000
0001
0010
1000
0100
0001
0000
0100
1000
0010
0100
,  // measure 48
0001
0000
1001
0000
0011
0000
0100
1000
0001
1000
0010
0100
0220
0330
0000
1000
,  // measure 49
0001
0100
0010
0001
0010
0001
0010
0100
2000
3000
0000
1000
0100
0001
1000
0100
,  // measure 50
1000
0100
0010
0001
2000
3000
0000
0001
1000
0100
0010
1000
0010
1000
0010
0100
,  // measure 51
0002
0003
0000
0001
0100
1000
0001
0100
0001
0100
0010
1000
0200
0300
0000
1000
,  // measure 52
0100
0010
1000
0001
1000
0001
0100
0010
2000
3000
0000
1000
0010
0100
1000
0001
,  // measure 53
1000
0001
0100
0010
2000
3000
0000
0001
0100
0010
0001
1000
0001
1000
0100
0010
,  // measure 54
0002
0000
0000
0000
0000
0000
0000
0000
0000
0000
0000
0000
0003
0000
0000
0000
0000
0000
0000
0000
0000
0000
0000
0000
0001
0000
0000
0000
0000
0000
0000
0000
0000
0000
0000
0000
0010
0000
0000
0000
0000
0000
0000
0000
0000
0000
0000
0000
1000
0000
0000
0000
0000
0000
0000
0000
0000
0000
0000
0000
0100
0000
0000
0000
0000
0000
0000
0000
0000
0000
0000
0000
0002
0000
0003
0000
0000
0000
0000
0000
0000
0000
0000
0000
0200
0000
0000
0000
0300
0000
0000
0000
0000
0000
0000
0000
0002
0000
0000
0000
0000
0000
0003
0000
0000
0000
0000
0000
2000
0000
0000
0000
0000
0000
0000
0000
3000
0000
0000
0000
0020
0000
0000
0000
0000
0000
0000
0000
0000
0000
0030
0000
0002
0000
0000
0000
0000
0000
0000
0000
0000
0000
0000
0000
1003
0000
0000
0000
0000
0000
0000
0000
0000
0000
0000
0000
0010
0000
0000
0000
0000
0000
0000
0000
0000
0000
0000
0000
1000
0000
0000
0000
0000
0000
0000
0000
0000
0000
0000
0000
0001
0000
0000
0000
0000
0000
0000
0000
0000
0000
0000
0000
,  // measure 55
1000
0010
1000
0010
1000
0001
1000
0010
1000
0010
1000
0001
1000
0010
1000
0010
,  // measure 56
1000
0001
0010
0100
0001
0000
0000
0000
0000
0000
0000
0000
0000
0000
0000
0000
;

//---------------dance-single - ----------------
#NOTES:
     dance-single:
     :
     Hard:
     13:
     0.515641,0.526539,0.254611,0.284565,0.542921,482.000000,448.000000,34.000000,38.000000,0.000000,0.000000,0.515641,0.526539,0.254611,0.284565,0.542921,482.000000,448.000000,34.000000,38.000000,0.000000,0.000000:
0000
0000
0000
0000
,
0000
0000
0000
0000
,
0000
0000
0000
0000
,
1000
0000
0000
0100
0000
0100
0010
0000
0001
0000
1000
0000
0010
0000
0100
0010
,
0100
0000
0001
0000
0000
1000
0100
0010
0001
0000
0000
0100
0000
0010
1000
0000
,
0000
0000
0001
0000
2002
0000
3003
1000
0000
1000
0100
0000
0010
0100
0010
0100
,
0002
0000
0003
0100
0000
0010
0100
0000
0010
0001
0100
0010
2000
0000
3000
0001
,
0000
0001
0100
0000
0010
0100
0010
0100
2000
0000
3000
0100
0000
0010
0100
0000
,
0001
1000
0001
0000
2002
0000
3003
0001
0000
0001
0010
0000
0100
0010
0100
0010
,
2000
0000
3000
0010
0000
0100
0010
0000
0100
1000
0001
1000
0020
0000
0030
1000
,
0000
1000
0010
0000
0100
0010
0100
0010
0002
0000
0013
0000
1000
0000
0001
0000
,
1000
0100
1000
0100
0010
0000
0000
0000
0010
0000
0001
0000
0100
0000
0010
0000
,
0001
0000
0000
0001
0000
0000
0010
0000
0100
0000
0100
0000
0001
0010
0100
0000
,
0000
0000
1000
0010
1000
0000
0010
0000
0100
0000
0001
0000
0010
0000
0100
0010
,
0001
1000
0010
0000
0010
1000
0100
0010
,
1000
0000
0000
1000
0000
0000
0010
0000
0100
0000
0100
0000
1000
0010
0100
0000
,
0000
0000
0001
0010
0001
0000
0010
0000
0100
0000
1000
0001
0100
0000
0020
0000
,
0000
0000
1030
0000
1001
0000
0000
1000
0100
0000
0100
0000
0010
0000
0001
0000
,
1001
0000
0000
0001
0000
0000
0100
0000
0010
0000
0010
0000
0001
0010
0100
0000
,
0000
0000
0010
1000
0010
0000
1000
0000
0100
0000
0010
0000
0001
0000
2000
0000
,
0000
0000
3001
0000
1001
0000
0001
0100
0001
0100
0010
0000
0000
1000
0000
0000
,
1001
0000
0000
1000
0000
0000
0100
0000
0010
0000
0010
0000
1000
0010
0100
0000
,
0000
0000
0010
0001
1000
0000
0000
0000
0001
0100
0010
0000
0010
0000
1000
0100
,
0010
0000
0001
0000
0011
0000
0000
1000
0000
1000
0001
0000
0100
0000
0010
0000
,
1010
0000
0000
0001
0000
0001
1000
0000
0100
0000
0010
0000
0011
0000
0000
1000
,
0000
1000
0010
0000
0001
0000
0010
0000
1000
0000
0100
0000
0001
0000
0100
0010
,
0100
0000
1000
0000
1001
0000
0000
0001
0000
0001
0100
0000
0010
0000
0100
0000
,
1001
0000
0000
1000
0000
1000
0100
0000
0010
0000
0100
0000
1001
0000
1000
0010
,
0000
1000
0010
0000
0001
0010
0000
0001
0010
0000
1000
0000
0100
0000
0010
0100
,
0010
0001
0011
0000
0000
0001
0010
0001
,
1000
0010
1000
0000
0001
0000
0010
0000
0000
0000
0000
0000
1001
0000
0000
0000
,
0000
0000
0001
0000
0100
0000
0010
0000
1000
0100
0010
0000
0001
0000
1000
0000
,
0000
0000
0000
0000
1001
0000
0000
1000
0000
1000
0010
0000
0100
0000
1000
0000
,
0100
0010
0100
0000
0001
0000
0001
0000
0010
0100
1000
0000
1001
0000
0000
0001
,
0000
0001
0010
0000
1000
0000
0010
0000
0100
0010
0001
0000
1001
0000
0202
0000
,
0000
0303
0000
0000
,
0002
0000
0000
0000
0000
0000
0000
0000
0013
0100
0010
0100
2000
0000
0000
3100
,
0000
0100
0010
0000
1000
0000
0010
0000
0100
0000
1000
0010
0100
0000
1200
0000
,
0000
0310
0100
0010
1000
0000
0000
0001
0000
1000
0200
0000
0000
0000
0310
0000
,
0002
0000
0000
0000
0103
0010
2000
0000
0000
0000
3001
0000
1002
0000
0000
0103
,
0000
0100
0010
0000
0001
0000
0010
0000
0100
0000
0001
0010
0100
0000
0201
0000
,
0000
0310
0100
0010
0001
0000
0000
1000
0000
0001
0200
0000
0000
0000
0310
0000
,
1000
0010
0100
0001
0010
0000
0011
0000
0110
0000
1100
0000
1001
0000
0000
0000
,
0000
0000
1010
0000
0000
0000
0000
0000
1001
0000
0000
0011
0000
0000
1001
0000
,
0000
0001
0100
0010
1000
0000
0000
0100
0000
0100
0020
0000
0000
0000
0031
0000
,
2000
0000
0000
0000
3001
0100
0020
0000
0000
0000
1030
0000
0002
0000
0000
1003
,
0000
1000
0100
0000
0001
0000
1000
0000
0010
0000
0001
1000
0001
0000
0100
0000
,
0000
0010
0100
0010
1000
0000
0100
0010
0000
0010
0001
0000
0100
0010
0000
0010
,
1000
0000
0100
0000
0010
0000
1100
0000
0110
0000
0011
0000
2002
0000
3003
0001
,
0000
0001
0100
0000
0001
0100
0010
0100
2000
0000
3000
0100
0000
1000
0100
0000
,
0010
0100
0001
0010
0200
0000
0300
1000
0000
1000
0100
0000
1000
0100
0010
0100
,
0002
0000
0003
0100
0000
0010
0100
0000
1000
0001
1000
0000
2002
0000
3003
1000
,
0000
1000
0010
0000
1000
0010
0100
0010
0002
0000
0003
0010
0000
0001
0010
0000
,
0100
0010
1000
0100
0020
0000
0030
0001
0000
0001
0010
0000
0001
0010
0100
0010
,
2000
0000
3010
0000
0001
0000
1000
0100
0010
0001
0100
0010
0200
0000
0000
0000
,
0010
0010
0000
0010
0010
0000
0010
0010
,
0000
0010
1300
0000
0000
0000
0000
0000
;

//---------------dance-single - ----------------
#NOTES:
     dance-single:
     :
     Medium:
     9:
     0.362660,0.400170,0.202191,0.239634,0.059908,339.000000,312.000000,27.000000,32.000000,0.000000,0.000000,0.362660,0.400170,0.202191,0.239634,0.059908,339.000000,312.000000,27.000000,32.000000,0.000000,0.000000:
0000
0000
0000
0000
,
0000
0000
0000
0000
,
0000
0000
0000
0000
,
1000
0000
0000
0100
0000
0000
0010
0001
,
1000
0010
0000
0000
0100
0000
0000
0001
,
0000
0000
2002
3003
0001
0100
0001
0100
,
2000
3000
1000
0100
0010
1000
0002
0003
,
1000
0100
1000
0100
0002
0003
0001
0100
,
0010
0001
2002
3003
1000
0010
1000
0010
,
0002
0003
0001
0010
0100
0001
0020
0030
,
0001
0010
0001
0010
2000
3010
0100
1000
,
0001
0001
2000
0000
0000
3001
0100
0010
,
0002
0000
0000
0013
0100
0001
1000
1000
,
0000
0001
0010
0100
1000
0000
0000
1000
,
0010
0100
0002
0000
0000
1003
0100
0010
,
2000
0000
0000
3010
0100
1000
0001
0001
,
0000
1000
0010
0100
0001
0000
1000
0200
,
0000
0310
0110
0000
0001
0001
0010
0001
,
0200
0000
0000
1300
0100
0010
0100
0100
,
0000
0001
0010
0100
1000
0000
0001
0200
,
0000
0000
0310
0000
0110
0000
1000
0000
1000
0000
0010
0000
0000
1000
0000
0000
,
0200
0000
0000
0301
0100
0010
0110
0000
,
0000
1001
0000
0000
0001
0001
1000
0001
,
0001
0000
1000
0000
0010
0000
0000
0100
0000
0000
0010
0000
1000
0000
0100
0000
,
0010
0000
0000
0100
0000
0000
0010
0000
0100
0000
1000
0000
0010
0000
0000
0100
,
0000
0001
0010
1000
0010
0001
0100
0010
,
1000
0000
0001
0000
0010
0000
0000
0100
0000
0000
0010
0000
0001
0000
0100
0000
,
0010
0000
0000
0100
0000
0000
0010
0000
0100
0000
0001
0000
0010
0000
0000
0100
,
0000
1000
0001
0001
1000
0010
0001
1000
,
0100
0001
1001
0000
0000
0001
0000
0000
,
0010
0100
0010
0100
0000
0000
1001
0000
,
0000
1000
0000
0000
1000
0010
0100
0001
,
0000
0000
0000
0000
1001
0000
0000
1000
0000
0000
0100
0000
0001
0000
0100
0000
,
1000
0000
0001
0000
0100
0000
0010
0000
0000
0000
1000
0000
1001
0000
0000
0001
,
0000
0010
1000
0010
0001
0100
0010
2000
,
0000
3000
0000
0000
,
2002
0000
0000
0000
0000
0000
3003
0000
0001
0000
0001
0000
1000
0000
0000
0010
,
0000
1000
0100
0010
1000
0010
0100
1000
,
0000
0000
0010
0000
0100
0000
0000
0010
0000
0000
1010
0000
0000
0000
1000
0000
,
0100
0000
0000
0000
0010
0000
0110
0000
0000
0000
0001
0000
0001
0000
0000
0010
,
0000
0001
0100
0010
0001
0010
0100
0001
,
0000
0000
0010
0000
0100
0000
0000
0010
0000
0000
0011
0000
0000
0000
0001
0000
,
0100
0010
1000
0100
0100
0100
1001
0000
,
0000
0000
1010
0000
0000
0000
0000
0000
1001
0000
0000
0011
0000
0000
1001
0000
,
0000
0000
0001
0000
0100
0000
0000
0010
0000
0000
1010
0000
0000
0000
1000
0000
,
0100
0000
0000
0000
0010
0000
0011
0000
0000
0000
1000
0000
1000
0000
0000
0010
,
0000
0001
0010
1000
0100
0001
0100
1000
,
0000
0010
0101
0000
0010
1100
0000
0001
,
0011
0100
1000
1010
0100
0001
2002
3003
,
1000
0100
0010
0100
0002
0003
0001
0100
,
0010
0001
0200
0300
0001
0100
0010
0100
,
2000
3000
0100
0010
1000
0001
2002
3003
,
0001
0010
0100
0010
2000
3000
1000
0010
,
0100
1000
0020
0030
1000
0010
0100
0010
,
0002
0013
0100
0001
0010
0100
2000
0000
,
0000
0001
0000
0000
0001
0000
0000
0001
,
0000
3010
0000
0000
;

//---------------dance-single - ----------------
#NOTES:
     dance-single:
     :
     Easy:
     7:
     0.218238,0.273801,0.127306,0.247123,0.000000,204.000000,187.000000,17.000000,33.000000,0.000000,0.000000,0.218238,0.273801,0.127306,0.247123,0.000000,204.000000,187.000000,17.000000,33.000000,0.000000,0.000000:
0000
0000
0000
0000
,
0000
0000
0000
0000
,
0000
0000
0000
0000
,
1000
0000
0000
0010
0000
0000
0100
0000
,
0000
0001
0000
0000
0020
0000
0000
0200
,
0000
0330
0220
0000
0000
0330
0001
0010
,
0002
0000
0000
0003
0100
0001
0200
0000
,
0000
0300
0001
1000
0200
0000
0000
0300
,
1000
0001
2002
0000
0000
3003
1000
0010
,
2000
0000
0000
3000
0100
1000
0200
0000
,
0000
0300
1000
0001
0200
0000
0000
0320
,
0000
0000
1030
0000
0000
0000
0010
1000
,
0001
0000
0000
0000
1000
1000
0200
0000
,
0000
0310
0000
0000
0100
0000
0000
0010
,
0000
0010
0001
0000
0000
0000
0010
0001
,
1000
0000
0000
0000
0001
0001
0200
0000
,
0000
0310
0000
0000
0100
0000
0000
0020
,
0000
0000
1030
0000
0000
1000
0010
1000
,
0100
0000
0000
0000
0010
0010
0002
0000
,
0000
0013
0000
0000
0100
0000
0000
2000
,
0000
3001
0000
0000
,
1001
0000
0000
0000
0001
1000
0010
0000
,
0000
0010
0000
0000
0100
0000
0000
0001
,
0000
0000
1001
0000
0000
0001
0000
0001
,
0010
0000
0000
1000
0000
1000
0010
0000
,
0000
0001
0000
0000
0010
0100
0010
0100
,
0000
0000
1000
0000
0000
1000
0000
1000
,
0010
0000
0000
0001
0000
0001
0010
0000
,
0000
1000
0000
0000
1000
0100
0010
0100
,
0000
0110
0000
0000
,
0000
0000
0000
1001
,
0000
0000
0000
0000
,
0000
0000
0110
0000
0000
1000
0000
0010
,
0100
0000
0001
1000
0000
0000
1001
0000
,
0000
0001
0000
0010
0100
0000
1000
0020
,
0000
0030
0000
0000
,
2002
0000
0000
3003
0000
0000
1000
0000
,
0000
0100
0000
0000
0010
0100
1000
0010
,
0000
0100
0100
0000
0010
1000
0000
0001
,
0010
0000
0100
1000
0000
0000
0001
0000
,
0000
0100
0000
0000
0010
0100
0001
0010
,
0000
0100
0100
0000
0010
0001
0000
1000
,
0010
0000
0000
0100
0100
0100
1001
0000
,
0000
0110
0000
0000
1001
0000
0000
0110
,
0000
0001
0001
0000
0010
0100
0000
1000
,
0001
0000
0100
0010
0000
0000
1000
0000
,
0000
0001
0000
0000
1000
0100
0010
0001
,
0000
0001
0110
0000
0000
1001
0000
0000
,
1000
0001
0100
0010
0000
0000
0220
0000
,
0000
0330
0010
1000
0200
0000
0000
0300
,
0010
0001
0200
0000
0000
0300
0010
1000
,
0002
0000
0000
0003
1000
0001
2002
0000
,
0000
3003
0010
0001
0200
0000
0000
0300
,
0010
1000
0200
0000
0000
0300
0010
0001
,
2000
0000
0000
3002
0000
0000
0203
0000
,
0000
0000
0000
0000
,
0000
0310
0000
0000
;

//---------------dance-single - ----------------
#NOTES:
     dance-single:
     :
     Beginner:
     1:
     0.081304,0.102500,0.089863,0.149771,0.000000,76.000000,64.000000,12.000000,20.000000,0.000000,0.000000,0.081304,0.102500,0.089863,0.149771,0.000000,76.000000,64.000000,12.000000,20.000000,0.000000,0.000000:
0000
0000
0000
0000
,
0000
0000
0000
0000
,
0000
0000
0000
0000
,
1000
0000
0000
0001
,
0000
0000
1000
0000
,
0000
0000
2002
0000
0000
3003
0000
0000
,
2000
0000
0000
3000
0000
0000
0020
0000
,
0000
0030
0000
0000
0200
0000
0000
0300
,
0000
0000
2002
0000
0000
3003
0000
0000
,
0002
0000
0000
0003
0000
0000
0020
0000
,
0000
0030
0000
0000
0200
0000
0000
0300
,
0000
0010
0000
0000
,
0001
0000
0000
0100
,
0000
0000
0000
0000
,
0000
0010
0000
0000
,
1000
0000
0000
0100
,
0000
0000
0000
0000
,
0000
1001
0000
0000
,
0010
0000
0000
0100
,
0000
0000
0000
0000
,
0000
1001
0000
0000
,
0010
0000
0000
1000
,
0000
0000
0001
0000
,
0000
0010
0000
0000
,
0010
0000
0000
0010
,
0000
0000
1001
0000
,
0000
0100
0000
0000
,
0100
0000
0000
1001
,
0000
0000
1001
0000
,
0000
0010
0000
0000
,
0000
0000
0000
0100
,
0000
0000
0000
0000
,
0000
0001
0000
0000
,
0001
0000
0000
1000
,
0000
0000
1000
0000
,
0000
0100
0000
0000
,
0000
0000
0000
1000
,
0000
0000
0010
0000
,
0000
0001
0000
0000
,
0100
0000
0000
0001
,
0000
0000
0010
0000
,
0000
1000
0000
0000
,
0100
0000
0000
1001
,
0000
0000
1001
0000
,
0000
0001
0000
0000
,
0100
0000
0000
0010
,
0000
0000
1000
0000
,
0000
1001
0000
0000
,
0100
0000
0000
2002
,
0000
3003
0000
0000
0020
0000
0000
0030
,
0000
0000
0002
0000
0000
0003
0000
0000
,
0200
0000
0000
0300
0000
0000
2002
0000
,
0000
3003
0000
0000
0020
0000
0000
0030
,
0000
0000
2000
0000
0000
3000
0000
0000
,
0200
0000
0000
0300
0000
0000
0001
0000
;
