#TITLE:Paralyzer;
#SUBTITLE:;
#ARTIST:Finger Eleven;
#TITLETRANSLIT:;
#SUBTITLETRANSLIT:;
#ARTISTTRANSLIT:;
#GENRE:Rock;
#CREDIT:;
#BANNER:;
#BACKGROUND:;
#LYRICSPATH:;
#CDTITLE:cdtitle.png;
#MUSIC:Paralyzer.ogg;
#OFFSET:-2.693000;
#SAMPLESTART:58.703735;
#SAMPLELENGTH:18.113216;
#SELECTABLE:YES;
#BPMS:0.000000=106.000000
;
#STOPS:
;
#BGCHANGES:-5.000=Paralyzer.mp4=1.000=1=0=1===CrossFade==,
99999=-nosongbg-=1.000=0=0=0 // don't automatically add -songbackground-
;
#KEYSOUNDS:;
#ATTACKS:;

//---------------dance-single - ----------------
#NOTES:
     dance-single:
     :
     Challenge:
     12:
     0.512863,0.524085,0.294870,0.375959,0.445991,487.000000,447.000000,40.000000,51.000000,104.000000,0.000000,0.512863,0.524085,0.294870,0.375959,0.445991,487.000000,447.000000,40.000000,51.000000,104.000000,0.000000:
// measure 0
0000
0000
0000
0000
0000
0000
0000
0000
0000
0000
0000
0000
0000
0000
1000
0001
,  // measure 1
1000
0000
0100
0000
MMMM
0000
0100
0000
1000
0000
0010
1000
0000
0010
1000
0000
,  // measure 2
0001
0000
0100
0000
MMMM
0000
0100
0000
0001
0000
0010
0001
0000
0010
0001
0000
,  // measure 3
0021
0000
0000
0000
0130
0000
0010
1000
0010
0000
0100
0010
0000
0010
0001
0000
,  // measure 4
1000
0000
0010
0000
MMMM
0000
0001
0000
0010
0000
0100
2000
0000
0000
3001
1000
,  // measure 5
0001
0000
0100
0000
MMMM
0000
0100
0000
0001
0000
0010
0001
0000
0010
0001
0000
,  // measure 6
1000
0000
0100
0000
MMMM
0000
0100
0000
1000
0000
0010
1000
0000
0010
1000
0000
,  // measure 7
1020
0000
0100
0000
0130
0000
0010
0001
0010
0000
0100
0010
0000
0010
1000
0000
,  // measure 8
0001
0000
0010
0000
MMMM
0000
1000
0000
0010
0000
0100
0002
0000
0000
1003
0000
,  // measure 9
2002
0000
0000
0000
3003
0000
1000
0000
2000
0000
0000
3200
0000
0000
0301
0000
,  // measure 10
0002
0000
0000
0203
0000
0000
2300
0000
0000
0000
0000
0000
3001
1000
0001
0000
,  // measure 11
1000
0010
0000
0200
0000
0000
0010
0000
0310
0000
0000
0000
1001
0000
0000
0000
,  // measure 12
1000
0000
0100
0010
0000
0100
0010
0000
0011
0000
0000
1100
0000
0000
0002
0000
,  // measure 13
2000
0000
0000
0000
3003
0000
0001
0000
0002
0000
0000
0203
0000
0000
1300
0000
,  // measure 14
2000
0000
0000
3200
0000
0000
0302
0000
0000
0000
0000
0000
1003
0001
1000
0000
,  // measure 15
0001
0000
0000
0020
0000
0000
0100
0000
0130
0000
0000
0000
1000
0001
1000
0000
,  // measure 16
0010
0000
0100
0001
0000
1000
0100
0000
0010
0000
0001
0100
0000
0010
2000
0000
,  // measure 17
0002
0000
0000
0000
3003
0000
0001
0000
0002
0000
0000
0023
0000
0000
1030
0000
,  // measure 18
2000
0000
0000
3020
0000
0000
0032
0000
0000
0000
0000
0000
1003
0001
0100
0000
,  // measure 19
0010
0000
0000
0200
0000
0000
0010
0000
0310
0000
0000
0000
1001
0000
0000
0000
,  // measure 20
0001
0000
0010
0100
0000
0010
0100
0000
1100
0000
0000
0011
0000
0000
2000
0000
,  // measure 21
0002
0000
0000
0000
3003
0000
1000
0000
2000
0000
0000
3020
0000
0000
0032
0000
,  // measure 22
2003
0000
0000
3200
0000
0000
0302
0000
1003
0000
0001
0000
1000
0100
0010
0000
,  // measure 23
0011
0000
0000
1100
0000
0000
0012
0000
0000
0103
0000
0000
0001
0100
0010
0000
,  // measure 24
1010
0000
0000
0101
0000
0000
2010
0000
3100
0000
0000
0000
0100
1000
0001
1000
,  // measure 25
0010
0000
0001
0000
MMMM
0000
0001
0000
0010
0000
1000
0001
0000
1000
0100
0000
,  // measure 26
0010
0000
1000
0000
MMMM
0000
1000
0000
0010
0000
0001
1000
0000
0001
0100
0000
,  // measure 27
0201
0000
0000
0000
0310
0000
0100
1000
0100
0000
0010
0100
0000
0100
0001
0000
,  // measure 28
1000
0000
0100
0000
MMMM
0000
0001
0000
0101
0000
0000
1010
0000
0000
1000
0001
,  // measure 29
0010
0000
1000
0000
MMMM
0000
1000
0000
0010
0000
0001
1000
0000
0001
0100
0000
,  // measure 30
0010
0000
0001
0000
MMMM
0000
0001
0000
0010
0000
1000
0001
0000
1000
0100
0000
,  // measure 31
1200
0000
0010
0000
0310
0000
0100
0001
0100
0000
0010
0100
0000
0100
1000
0000
,  // measure 32
0001
0000
0100
0000
MMMM
0000
1000
0000
1100
0000
0000
0001
0100
0000
0010
0000
,  // measure 33
1000
0000
0010
0000
0010
0000
0010
0000
0010
0000
0010
0000
0010
1000
0001
0000
,  // measure 34
0010
0000
0010
0000
0010
0001
1000
0000
0010
0000
0010
1000
0010
1000
0001
0000
,  // measure 35
1002
0000
0013
0000
MMMM
0000
1000
0000
1020
0000
0130
0001
0000
0100
0001
0000
,  // measure 36
2001
0000
3010
0000
MMMM
0000
0001
0000
0021
0000
0130
1000
0000
0100
1000
0000
,  // measure 37
0010
0000
0100
0000
0100
0000
0010
0000
0100
0000
0010
0001
0010
0100
0001
0000
,  // measure 38
0010
0000
0100
0000
0100
0000
0010
0100
0010
0000
0010
1000
0010
0100
1000
0000
,  // measure 39
1002
0000
0103
0000
0100
0000
0010
0000
0100
0000
0001
0100
1000
0100
0001
0000
,  // measure 40
0101
0000
0000
0011
0000
0000
1100
0000
0000
1010
0000
0000
0010
1000
0001
1000
,  // measure 41
0100
0000
0001
0000
MMMM
0000
0001
0000
0100
0000
1000
0001
0000
1000
0010
0000
,  // measure 42
0100
0000
1000
0000
MMMM
0000
1000
0000
0100
0000
0001
1000
0000
0001
0010
0000
,  // measure 43
0021
0000
0000
0000
0130
0000
0010
1000
0010
0000
0100
0010
0000
0010
0001
0000
,  // measure 44
1000
0000
0010
0000
MMMM
0000
0001
0000
0011
0000
0000
1100
0000
0000
1000
0001
,  // measure 45
0100
0000
1000
0000
MMMM
0000
1000
0000
0100
0000
0001
1000
0000
0001
0010
0000
,  // measure 46
0100
0000
0001
0000
MMMM
0000
0001
0000
0100
0000
1000
0001
0000
1000
0010
0000
,  // measure 47
1020
0000
0100
0000
0130
0000
0010
0001
0010
0000
0100
0010
0000
0010
1000
0000
,  // measure 48
0001
0000
0010
0000
MMMM
0000
1000
0000
1010
0000
0000
0001
0010
0000
0100
0000
,  // measure 49
0010
0000
1000
0000
MMMM
0000
1000
0000
0010
0000
0100
0010
0001
1000
0001
0000
,  // measure 50
0100
0000
1000
0000
MMMM
0000
1000
0000
0100
0000
0010
0100
0001
1000
0001
0000
,  // measure 51
1002
0000
0000
0000
0013
0000
0001
0010
1000
0000
0010
0001
0000
1000
0010
0000
,  // measure 52
0100
0000
0001
0000
MMMM
0000
1010
0000
1010
0000
0000
0001
0010
0000
0001
1000
,  // measure 53
0010
0000
0001
0000
MMMM
0000
0001
0000
0010
0000
0100
0010
1000
0001
1000
0000
,  // measure 54
0100
0000
0001
0000
MMMM
0000
0001
0000
0100
0000
0010
0100
1000
0001
1000
0000
,  // measure 55
2001
0000
0000
0000
3010
0000
1000
0010
0001
0000
0010
1000
0000
0001
0010
0000
,  // measure 56
0100
0000
1000
0000
MMMM
0000
0011
0000
2002
0000
3003
0000
0001
0100
1000
0000
;

//---------------dance-single - ----------------
#NOTES:
     dance-single:
     :
     Hard:
     9:
     0.398074,0.440232,0.324357,0.147435,0.158493,378.000000,334.000000,44.000000,20.000000,0.000000,0.000000,0.398074,0.440232,0.324357,0.147435,0.158493,378.000000,334.000000,44.000000,20.000000,0.000000,0.000000:
// measure 0
0000
0000
0000
0000
0000
0000
0000
1001
,  // measure 1
1000
0000
0100
0000
1000
0000
0100
0000
0010
0000
0000
0100
0000
0000
0010
0000
,  // measure 2
0001
0000
0100
0000
0001
0000
0100
0000
0010
0000
0000
0100
0000
0000
0010
0000
,  // measure 3
2010
0000
0000
0000
3001
0000
0000
0000
0011
0000
0000
1000
0000
0000
1000
0000
,  // measure 4
0000
0000
0010
0000
0100
0000
0010
0000
0100
0000
0000
0001
0000
0000
1000
0000
,  // measure 5
0001
0000
0010
0000
0001
0000
0010
0000
0100
0000
0000
0010
0000
0000
0100
0000
,  // measure 6
1000
0000
0010
0000
1000
0000
0010
0000
0100
0000
0000
0010
0000
0000
0100
0000
,  // measure 7
0102
0000
1000
0000
1003
0000
0000
0000
1100
0000
0000
0001
0000
0000
0001
0000
,  // measure 8
0000
0000
1000
0000
0010
0000
0100
0000
0001
0000
0000
0010
0000
0000
0001
0000
,  // measure 9
2002
0000
3003
1000
1000
0000
0010
0000
,  // measure 10
0100
0000
0001
0000
1000
0000
0100
0010
,  // measure 11
0001
0000
0100
0010
1000
0000
1010
0000
,  // measure 12
0000
0000
0001
0000
0010
0000
0001
0000
0100
0000
0000
0001
0000
0000
0010
0000
,  // measure 13
2002
0000
3003
1000
1000
0000
0100
0000
,  // measure 14
0001
0000
0010
0000
1000
0000
0001
0010
,  // measure 15
1000
0000
1000
0010
0001
0000
0011
0000
,  // measure 16
1000
0000
0000
0010
0000
0000
0100
0000
0001
0000
0000
1000
0000
0000
0001
0000
,  // measure 17
2002
0000
3003
0001
0001
0000
0010
0000
,  // measure 18
0100
0000
1000
0000
0001
0000
0100
0010
,  // measure 19
1000
0000
0100
0010
0001
0000
0011
0000
,  // measure 20
0000
0000
1000
0000
0010
0000
1000
0000
0100
0000
0000
1000
0000
0000
0010
0000
,  // measure 21
2002
0000
3003
0001
0002
0000
0100
0000
,  // measure 22
2003
0000
0100
0000
3001
0000
1000
0010
,  // measure 23
0001
0000
0000
0010
0000
0000
1000
0000
0000
1000
0000
0000
0001
0000
0010
0000
,  // measure 24
1000
0000
0000
0010
0000
0000
0001
0000
0000
0001
0000
0000
1001
0000
0000
0000
,  // measure 25
0001
0000
0100
0000
1000
0000
0100
0000
0010
0000
0000
0100
0000
0000
0010
0000
,  // measure 26
1000
0000
0100
0000
0001
0000
0100
0000
0010
0000
0000
0100
0000
0000
0010
0000
,  // measure 27
0210
0000
0000
0000
1300
0000
0000
0000
0110
0000
0000
0001
0000
0000
0001
0000
,  // measure 28
0000
0000
1000
0000
0010
0000
0100
0000
0001
0000
0000
1000
0000
0000
0001
0000
,  // measure 29
0010
0000
1000
0000
0010
0000
0100
0000
1000
0000
0000
0001
0000
0000
1000
0000
,  // measure 30
0010
0000
0001
0000
0010
0000
0100
0000
0001
0000
0000
1000
0000
0000
0001
0000
,  // measure 31
0012
0000
1000
0000
1003
0000
0000
0000
1010
0000
0000
0001
0000
0000
0001
0000
,  // measure 32
0000
1000
0100
0001
2000
0000
3010
0001
,  // measure 33
0200
0000
0010
0000
,  // measure 34
1000
0000
0010
0301
,  // measure 35
1000
0000
0100
0000
0010
0000
0001
0000
0011
0000
0000
1001
0000
0000
0101
0000
,  // measure 36
0001
0000
0100
0000
0010
0000
1000
0000
1010
0000
0000
1001
0000
0000
1100
0000
,  // measure 37
0001
0000
1000
0000
1000
0000
0010
0000
0100
0000
0000
0101
0000
0000
0101
0000
,  // measure 38
1000
0000
0001
0000
0001
0000
0010
0000
0100
0000
0000
1100
0000
0000
1100
0000
,  // measure 39
0001
0000
0100
0000
0010
0000
1000
0000
0100
0000
0000
0011
0000
0000
1001
0000
,  // measure 40
1000
0000
0000
0010
0000
0000
0001
0000
0000
0010
0000
0000
1000
0000
0001
0000
,  // measure 41
1000
0000
0100
0000
0001
0000
0100
0000
0010
0000
0000
0100
0000
0000
0010
0000
,  // measure 42
0001
0000
0100
0000
1000
0000
0100
0000
0010
0000
0000
0100
0000
0000
0010
0000
,  // measure 43
0210
0000
0000
0000
0301
0000
0000
0000
0110
0000
0000
1000
0000
0000
1000
0000
,  // measure 44
0000
0000
0001
0000
0010
0000
0100
0000
1000
0000
0000
0001
0000
0000
1000
0000
,  // measure 45
0010
0000
0001
0000
0010
0000
0100
0000
0001
0000
0000
1000
0000
0000
0001
0000
,  // measure 46
0010
0000
1000
0000
0010
0000
0100
0000
1000
0000
0000
0001
0000
0000
1000
0000
,  // measure 47
2010
0000
0001
0000
3001
0000
0000
0000
0011
0000
0000
1000
0000
0000
1000
0000
,  // measure 48
0000
0001
0100
1000
0002
0000
0013
1000
,  // measure 49
0001
0000
0010
0000
0100
0000
0010
0000
1000
0000
0000
1010
0000
0000
1010
0000
,  // measure 50
1000
0000
0010
0000
0100
0000
0010
0000
0001
0000
0000
0011
0000
0000
0011
0000
,  // measure 51
1000
0000
0001
0000
0100
0000
0010
0000
1000
0000
0000
0010
0000
0000
1000
0000
,  // measure 52
0000
1000
0100
0001
2000
0000
3010
0001
,  // measure 53
1000
0000
0010
0000
0100
0000
0010
0000
0001
0000
0000
0011
0000
0000
0011
0000
,  // measure 54
0001
0000
0010
0000
0100
0000
0010
0000
1000
0000
0000
1010
0000
0000
1010
0000
,  // measure 55
0001
0000
1000
0000
0100
0000
0010
0000
0001
0000
0000
0010
0000
0000
0001
0000
,  // measure 56
0000
0100
0010
0100
1001
0000
1100
0101
;

//---------------dance-single - ----------------
#NOTES:
     dance-single:
     :
     Medium:
     6:
     0.270649,0.293488,0.199037,0.221152,0.000000,257.000000,230.000000,27.000000,30.000000,0.000000,0.000000,0.270649,0.293488,0.199037,0.221152,0.000000,257.000000,230.000000,27.000000,30.000000,0.000000,0.000000:
// measure 0
0000
0000
0000
0000
,  // measure 1
1000
0100
0010
0000
0100
0000
0100
0000
,  // measure 2
0010
0001
1000
0000
0001
0000
0001
0000
,  // measure 3
1002
0103
1010
0001
,  // measure 4
0000
0010
0010
0000
0100
0000
1000
0000
,  // measure 5
0001
0100
0010
0000
0100
0000
0100
0000
,  // measure 6
0010
1000
0001
0000
1000
0000
1000
0000
,  // measure 7
2001
3100
0011
1000
,  // measure 8
0000
0010
0010
0000
0100
0000
0001
0000
,  // measure 9
2000
3000
0001
0010
,  // measure 10
0100
1000
0001
0000
,  // measure 11
1000
0010
1000
1010
,  // measure 12
0000
0001
0010
0100
,  // measure 13
2000
3000
0001
0010
,  // measure 14
1000
0100
0001
0000
,  // measure 15
0010
0010
0010
1001
,  // measure 16
0001
0010
0001
0100
,  // measure 17
0002
0003
1000
0010
,  // measure 18
0100
0001
1000
0000
,  // measure 19
0001
0010
0001
0011
,  // measure 20
0000
1000
0010
0100
,  // measure 21
0002
0003
2000
0100
,  // measure 22
3002
0100
1003
0001
,  // measure 23
0022
0000
0033
1001
,  // measure 24
2020
0000
3030
1001
,  // measure 25
0001
0010
0100
0000
0001
0000
0001
0000
,  // measure 26
0100
0010
0001
0000
1000
0000
1000
0000
,  // measure 27
2010
3100
0011
1000
,  // measure 28
0001
1000
0001
0000
0010
0001
1000
0000
,  // measure 29
0001
0100
0010
0000
0001
0000
0001
0000
,  // measure 30
0010
0100
0001
0000
1000
0000
1000
0000
,  // measure 31
1200
0310
0101
1000
,  // measure 32
0000
0001
0002
0000
0023
0000
2030
0000
,  // measure 33
3020
0000
0000
0000
,  // measure 34
0000
0000
0000
0030
,  // measure 35
0001
0010
0001
0000
0100
0000
0010
0000
,  // measure 36
1000
0010
1000
0000
0100
0000
0010
0000
,  // measure 37
0001
1000
1000
0000
0010
0000
0010
0000
,  // measure 38
1000
0001
0001
0000
0010
0000
0010
0000
,  // measure 39
0001
1000
1000
0000
1000
0001
0001
0000
,  // measure 40
2002
0000
3003
1001
,  // measure 41
1000
0010
0100
0000
1000
0000
1000
0000
,  // measure 42
0100
0010
1000
0000
0001
0000
0001
0000
,  // measure 43
0012
0103
1010
0001
,  // measure 44
1000
0001
1000
0000
0010
1000
0001
0000
,  // measure 45
1000
0100
0010
0000
1000
0000
1000
0000
,  // measure 46
0010
0100
1000
0000
0001
0000
0001
0000
,  // measure 47
0201
0310
1100
0001
,  // measure 48
0000
1000
2000
0000
3020
0000
0032
0000
,  // measure 49
0013
1000
0001
0000
1000
0000
1000
0000
,  // measure 50
0001
1000
0100
0000
0010
0000
0010
0000
,  // measure 51
0012
1003
0101
1000
,  // measure 52
0000
0001
0002
0000
0023
0000
2030
0000
,  // measure 53
3010
0001
1000
0000
0001
0000
0001
0000
,  // measure 54
1000
0001
0100
0000
0010
0000
0010
0000
,  // measure 55
2010
3001
1100
0001
,  // measure 56
0000
1001
1001
0000
0001
0100
0010
1000
;

//---------------dance-single - ----------------
#NOTES:
     dance-single:
     :
     Easy:
     4:
     0.179028,0.188256,0.125320,0.199037,0.000000,170.000000,153.000000,17.000000,27.000000,0.000000,0.000000,0.179028,0.188256,0.125320,0.199037,0.000000,170.000000,153.000000,17.000000,27.000000,0.000000,0.000000:
// measure 0
0000
0000
0000
0000
,  // measure 1
1000
0100
0010
0000
,  // measure 2
0100
0010
0001
0000
,  // measure 3
2002
3003
1001
0100
,  // measure 4
0000
1000
1000
1000
,  // measure 5
0001
0100
0010
0000
,  // measure 6
0100
0010
1000
0000
,  // measure 7
2002
3003
1001
0100
,  // measure 8
0000
0001
0001
0001
,  // measure 9
2000
0000
3001
0000
,  // measure 10
1000
0000
0100
0000
,  // measure 11
0010
0010
0100
0000
,  // measure 12
0000
0010
0001
0000
,  // measure 13
2000
0000
3001
0000
,  // measure 14
0100
0000
0010
0000
,  // measure 15
1000
1000
0100
0000
,  // measure 16
0010
0100
0010
0000
,  // measure 17
0002
0000
1003
0000
,  // measure 18
0001
0000
0100
0000
,  // measure 19
0010
0010
0100
0000
,  // measure 20
0000
0010
1000
0000
,  // measure 21
0002
0000
2003
0000
,  // measure 22
3200
0000
0320
0000
,  // measure 23
0032
0000
0003
0001
,  // measure 24
2000
0000
3000
1000
,  // measure 25
0001
0100
1000
0000
,  // measure 26
1000
0100
0001
0000
,  // measure 27
2002
3003
1001
0000
,  // measure 28
1000
0010
1000
1000
,  // measure 29
0001
0010
1000
0000
,  // measure 30
1000
0010
0001
0000
,  // measure 31
2002
3003
1001
0000
,  // measure 32
0001
0100
0010
1000
,  // measure 33
0200
0000
0000
0000
,  // measure 34
0000
0000
0000
0300
,  // measure 35
0100
1000
0010
0000
,  // measure 36
0100
0001
0010
0000
,  // measure 37
0100
0010
0100
0010
,  // measure 38
0001
1000
0001
1000
,  // measure 39
0010
0100
0001
0100
,  // measure 40
0020
0000
0030
0010
,  // measure 41
1000
0100
0001
0000
,  // measure 42
0001
0100
1000
0000
,  // measure 43
2002
3003
1001
0000
,  // measure 44
0001
0010
0001
0001
,  // measure 45
1000
0010
0001
0000
,  // measure 46
0001
0010
1000
0000
,  // measure 47
2002
3003
1001
0000
,  // measure 48
1000
0100
0010
0001
,  // measure 49
1000
1000
0010
0000
,  // measure 50
0001
0001
0100
0000
,  // measure 51
2002
3003
1001
0000
,  // measure 52
0001
0100
0010
1000
,  // measure 53
0001
0001
0010
0000
,  // measure 54
1000
1000
0100
0000
,  // measure 55
2002
3003
1001
0000
,  // measure 56
0001
0010
1000
0110
;

//---------------dance-single - ----------------
#NOTES:
     dance-single:
     :
     Beginner:
     2:
     0.125320,0.167339,0.081089,0.036859,0.000000,119.000000,108.000000,11.000000,5.000000,0.000000,0.000000,0.125320,0.167339,0.081089,0.036859,0.000000,119.000000,108.000000,11.000000,5.000000,0.000000,0.000000:
// measure 0
0000
0000
0000
0000
,  // measure 1
1000
1000
1000
0000
,  // measure 2
1000
1000
1000
0000
,  // measure 3
1001
0000
0000
0000
,  // measure 4
0010
0010
0010
0000
,  // measure 5
0001
0001
0001
0000
,  // measure 6
0001
0001
0001
0000
,  // measure 7
1001
0000
0000
0000
,  // measure 8
0010
0010
0010
0000
,  // measure 9
2000
0000
3000
0000
,  // measure 10
1000
0000
0000
0000
,  // measure 11
1000
0000
0000
0000
,  // measure 12
0100
0000
0010
0000
,  // measure 13
0002
0000
0003
0000
,  // measure 14
0001
0000
0000
0000
,  // measure 15
0001
0000
0000
0000
,  // measure 16
0100
0000
0010
0000
,  // measure 17
2000
0000
3000
0000
,  // measure 18
0001
0000
0000
0000
,  // measure 19
1000
0000
0100
0000
,  // measure 20
0010
0000
0000
0000
,  // measure 21
0002
0000
0003
0000
,  // measure 22
1000
0000
0001
0000
,  // measure 23
1001
0000
0000
0000
,  // measure 24
0110
0000
0000
0000
,  // measure 25
1000
1000
1000
0000
,  // measure 26
0010
0010
0010
0000
,  // measure 27
1001
0000
0000
0000
,  // measure 28
1000
1000
1000
0000
,  // measure 29
0001
0001
0001
0000
,  // measure 30
0010
0010
0010
0000
,  // measure 31
1001
0000
0000
0000
,  // measure 32
1000
0000
0001
0000
,  // measure 33
2000
0000
0000
0000
,  // measure 34
3000
0000
0000
0000
,  // measure 35
0010
0000
0010
0000
,  // measure 36
0100
0000
0100
0000
,  // measure 37
0001
0000
1000
0000
,  // measure 38
0100
0000
1000
0000
,  // measure 39
0001
0000
0100
0000
,  // measure 40
1001
0000
0000
0000
,  // measure 41
0001
0001
0001
0000
,  // measure 42
0010
0010
0010
0000
,  // measure 43
1001
0000
0000
0000
,  // measure 44
0001
0001
0001
0000
,  // measure 45
1000
1000
1000
0000
,  // measure 46
0010
0010
0010
0000
,  // measure 47
1001
0000
0000
0000
,  // measure 48
0001
0000
1000
0000
,  // measure 49
0001
0001
0001
0000
,  // measure 50
0010
0010
0010
0000
,  // measure 51
1001
0000
0000
0000
,  // measure 52
1000
0000
0001
0000
,  // measure 53
1000
1000
1000
0000
,  // measure 54
0010
0010
0010
0000
,  // measure 55
1001
0000
0000
0000
,  // measure 56
0010
0000
0000
0010
;
